osu file format v9

[General]
AudioFilename: Battle! Gym Leader.mp3
AudioLeadIn: 3000
PreviewTime: 50964
Countdown: 1
SampleSet: Soft
StackLeniency: 0.7
Mode: 0
LetterboxInBreaks: 1

[Editor]
DistanceSpacing: 1
BeatDivisor: 4
GridSize: 4

[Metadata]
Title:Battle! Gym Leader
Artist:Junichi Masuda
Creator:Kissflying
Version:Level 80
Source:Pokemon Golden heart & Silver soul
Tags:

[Difficulty]
HPDrainRate:7
CircleSize:4
OverallDifficulty:3
ApproachRate:6
SliderMultiplier:1.6
SliderTickRate:1

[Events]
//Background and Video events
0,0,"wp4.jpg"
//Break Periods
//Storyboard Layer 0 (Background)
//Storyboard Layer 1 (Fail)
//Storyboard Layer 2 (Pass)
//Storyboard Layer 3 (Foreground)
//Storyboard Sound Samples
//Background Colour Transformations
3,100,163,162,255

[TimingPoints]
171,317.376355461518,4,1,0,100,1,0
2233,-100,4,1,0,5,0,0
2710,-100,4,2,0,100,0,0
3186,-100,4,1,0,90,0,0
3662,-100,4,1,0,40,0,0
3979,-100,4,1,0,80,0,0
4455,-100,4,1,0,50,0,0
4931,-100,4,1,0,90,0,0
5249,-100,4,2,0,100,0,0
5725,-100,4,1,0,90,0,0
6201,-100,4,1,0,50,0,0
6518,-100,4,1,0,90,0,0
7470,-100,4,2,0,80,0,0
7788,-100,4,1,0,80,0,0
8105,-100,4,2,0,80,0,0
8264,-100,4,1,0,80,0,0
8422,-100,4,2,0,80,0,0
8740,-100,4,1,0,65,0,0
9057,-100,4,1,0,85,0,0
9216,-100,4,2,0,80,0,0
9533,-100,4,1,0,85,0,0
10327,-100,4,1,0,70,0,0
10644,-100,4,2,0,80,0,0
10803,-100,4,1,0,80,0,0
10961,-100,4,2,0,80,0,0
11279,-100,4,1,0,80,0,0
12866,-66.6666666666667,4,2,0,100,0,0
12869,-66.6666666666667,4,2,0,80,0,0
12945,-66.6666666666667,4,2,0,5,0,0
13183,-66.6666666666667,4,2,0,80,0,0
13500,-66.6666666666667,4,1,0,80,0,0
13580,-66.6666666666667,4,1,0,5,0,0
13818,-66.6666666666667,4,2,0,80,0,0
13897,-66.6666666666667,4,2,0,5,0,0
14135,-66.6666666666667,4,1,0,80,0,0
14214,-66.6666666666667,4,1,0,5,0,0
14452,-66.6666666666667,4,1,0,80,0,0
14770,-66.6666666666667,4,1,0,80,0,0
14849,-66.6666666666667,4,1,0,5,0,0
15087,-66.6666666666667,4,2,0,80,0,0
15167,-66.6666666666667,4,2,0,5,0,0
15405,-66.6666666666667,4,1,0,80,0,0
15484,-66.6666666666667,4,1,0,5,0,0
15722,-66.6666666666667,4,1,0,80,0,0
15801,-66.6666666666667,4,1,0,5,0,0
16039,-66.6666666666667,4,1,0,80,0,0
17944,-66.6666666666667,4,2,0,100,0,0
18578,-66.6666666666667,4,1,0,80,0,0
18896,-66.6666666666667,4,2,0,80,0,0
19213,-66.6666666666667,4,1,0,80,0,0
19848,-66.6666666666667,4,1,0,80,0,0
20483,-66.6666666666667,4,1,0,60,0,0
20800,-66.6666666666667,4,1,0,40,0,0
23022,-100,4,2,0,100,0,0
23498,-100,4,1,0,60,0,0
23974,-100,4,1,0,80,0,0
24767,-100,4,1,0,50,0,0
25243,-100,4,1,0,80,0,0
25561,-100,4,2,0,100,0,0
26037,-100,4,1,0,50,0,0
26513,-100,4,1,0,80,0,0
30639,-100,4,2,0,80,0,0
30797,-100,4,2,0,5,0,0
31591,-100,4,1,0,80,0,0
31987,-100,4,1,0,5,0,0
32226,-100,4,2,0,80,0,0
32305,-100,4,2,0,5,0,0
32543,-100,4,1,0,80,0,0
32622,-100,4,1,0,5,0,0
32860,-100,4,2,0,80,0,0
32940,-100,4,2,0,5,0,0
33178,-100,4,1,0,60,0,0
33336,-100,4,1,0,80,0,0
33495,-100,4,1,0,40,0,0
33654,-100,4,1,0,80,0,0
33812,-100,4,1,0,40,0,0
33971,-100,4,1,0,80,0,0
34447,-100,4,1,0,70,0,0
34606,-100,4,1,0,90,0,0
34765,-100,4,1,0,70,0,0
34923,-100,4,1,0,90,0,0
35082,-100,4,1,0,70,0,0
35241,-100,4,1,0,90,0,0
35717,-100,4,2,0,90,0,0
35875,-100,4,1,0,60,0,0
37621,-100,4,2,0,100,0,0
38097,-100,4,1,0,60,0,0
40795,-100,4,2,0,100,0,0
42064,-100,4,2,0,100,0,0
43334,-100,4,2,0,100,0,0
44603,-100,4,2,0,100,0,0
45873,-100,4,2,0,100,0,0
47142,-100,4,2,0,100,0,0
48412,-100,4,2,0,100,0,0
49681,-100,4,2,0,100,0,0
50951,-100,4,1,0,60,0,1
61107,-100,4,2,0,100,0,1
68724,-100,4,1,0,80,0,0
69993,-100,4,2,0,80,0,0
71263,-100,4,1,0,80,0,0
72532,-100,4,2,0,100,0,0
77610,-100,4,1,0,80,0,0

[Colours]
Combo1 : 128,128,128
Combo2 : 230,230,0
Combo3 : 123,123,164
Combo4 : 255,128,0

[HitObjects]
256,192,171,12,0,2392
32,192,2710,5,4
208,32,3186,5,0
120,112,3662,1,0
480,192,3979,5,8
296,32,4455,5,0
384,112,4931,1,0
32,192,5249,5,4
208,352,5725,5,0
120,272,6201,1,0
480,192,6518,5,8
296,352,6994,5,0
384,272,7470,1,4
256,272,7788,5,0
256,192,8105,2,0,B|224:192|208:192|208:192|184:160,2,80
256,192,8740,1,0
256,112,9057,6,0,B|288:112|304:112|304:112|320:144,3,80,8|0|0|0
432,192,10009,1,0
432,272,10327,5,0
352,272,10644,2,0,B|304:272|304:272|288:240,2,80
352,192,11279,1,0
352,112,11596,6,0,B|352:72,12,40
232,112,12866,6,0,B|112:112|112:112|112:272,1,239.999992847443,4|0
208,304,13500,2,0,B|336:304|336:304|336:152,3,239.999992847443,0|0|0|8
336,72,14770,2,0,B|464:72|464:72|464:192,4,239.999992847443
336,192,16357,1,2
328,312,16674,2,0,B|256:312,12,59.9999982118607
328,192,17944,6,4,B|456:192|456:192|456:72,1,239.999992847443,4|0
344,32,18578,1,0
256,120,18896,1,0
176,32,19213,1,0
96,120,19530,1,8
16,208,19848,5,2
40,264,20007,1,0
88,300,20165,1,0
148,300,20324,1,0
192,256,20483,6,0,B|216:200|300:208,1,119.999996423721,2|0
348,228,20800,2,0,B|388:300|480:280,1,119.999996423721,2|0
472,232,21117,2,0,B|516:152|480:92,1,119.999996423721,2|0
460,64,21435,2,0,B|408:24|340:52,1,119.999996423721,2|0
288,68,21752,6,0,B|244:24,1,59.9999982118607
216,24,21911,2,0,B|160:40,1,59.9999982118607
132,52,22069,2,0,B|72:96,1,59.9999982118607
60,104,22228,2,0,B|8:160,1,59.9999982118607
12,176,22387,2,0,B|0:236,1,59.9999982118607
16,260,22546,2,0,B|88:304,1,59.9999982118607
96,304,22704,2,0,B|152:272,1,59.9999982118607
256,168,23022,5,4
152,112,23498,1,0
160,232,23974,1,0
152,112,24291,5,8
216,208,24767,1,0
272,104,25243,1,0
216,208,25561,5,4
208,88,26037,1,0
112,160,26513,1,0
208,88,26830,5,8
168,200,27306,1,0
288,176,27782,1,0
256,192,28100,12,2,29052
256,192,29369,12,4,30321
48,192,30639,6,0,B|88:224|88:224|128:224,6,80,4|0|0|0|0|0|0
120,152,31908,2,0,B|208:152|208:152|224:240,3,160,8|0|0|0
288,272,33178,6,0,B|328:272|328:272|352:232,6,80,0|0|0|0|0|0|8
224,320,34447,2,0,B|176:320|176:320|152:368,6,80,0|0|0|0|0|0|2
224,240,35717,5,4
224,240,35875,1,0
304,240,36034,1,0
304,240,36193,1,0
384,240,36351,1,0
384,240,36510,1,0
384,240,36669,1,0
424,80,36986,5,8
104,80,37621,1,4
40,312,38097,5,0
88,248,38256,1,0
136,312,38414,1,0
184,248,38573,1,0
228,312,38732,1,0
272,248,38890,1,0
312,316,39049,1,0
352,248,39208,1,8
480,112,39525,5,0
432,48,39684,1,0
384,112,39843,1,0
336,48,40001,1,0
288,112,40160,1,0
240,48,40319,1,0
192,112,40477,1,2
200,224,40795,5,4
304,160,41271,1,0
200,224,41747,1,0
152,256,42064,5,4
352,128,42540,1,0
152,256,43016,1,0
104,288,43334,5,4
408,96,43810,1,0
104,288,44286,1,0
48,320,44603,5,4
464,64,45079,1,0
48,320,45555,1,0
216,156,45873,5,4
296,156,46190,1,0
296,240,46507,1,0
216,240,46825,1,0
160,296,47142,5,4
352,296,47460,1,0
352,104,47777,1,0
160,104,48094,1,0
104,48,48412,5,4
408,48,48729,1,0
416,352,49046,1,0
112,352,49364,1,0
64,192,49681,5,4
256,0,49999,1,0
456,192,50316,1,0
256,384,50633,1,0
112,304,50951,5,2
360,96,51585,1,0
288,136,51744,1,0
360,176,51903,1,0
288,216,52062,1,0
256,288,52220,5,0
128,192,52538,1,2
256,96,52855,1,0
384,192,53172,1,0
384,80,53490,5,2
136,288,53807,1,0
384,80,54124,1,2
136,288,54442,1,0
256,192,54759,5,2
256,192,54918,1,2
256,192,55077,1,0
256,192,55235,1,2
176,192,55394,5,2
256,112,55553,1,0
336,192,55711,1,0
256,272,55870,1,0
360,304,56029,5,8
120,96,56663,1,0
168,160,56822,1,0
120,224,56981,1,0
168,288,57140,1,0
256,272,57298,5,0
392,192,57616,1,8
256,104,57933,1,0
120,192,58250,1,0
120,304,58568,5,8
360,96,58885,1,0
120,304,59203,1,8
360,96,59520,1,0
256,192,59837,5,8
256,192,59996,1,8
256,192,60155,1,0
256,192,60313,1,8
256,272,60472,5,0
328,192,60631,1,2
256,120,60789,1,0
184,192,60948,1,8
104,192,61107,5,4
256,24,61742,1,4
408,192,62376,1,4
256,352,63011,1,4
96,192,63646,5,0
208,192,63963,1,4
208,80,64281,1,0
320,80,64598,1,4
432,80,64915,5,0
432,80,65074,1,0
432,80,65233,1,0
432,80,65391,1,0
432,80,65550,1,0
432,80,65709,1,0
432,80,65867,1,0
432,80,66026,1,0
432,80,66185,1,4
32,28,67454,6,0,B|32:112|32:112|116:112,2,160,4|0|0
192,48,68406,5,0
292,172,68724,2,0,B|312:220|292:248,3,80
220,284,69359,1,0
152,328,69517,1,0
72,312,69676,1,0
36,240,69835,1,0
72,168,69993,6,0,B|100:120|164:152,7,80
204,192,71263,6,0,B|212:220|252:208,14,40
256,128,72532,5,4
256,128,73167,2,0,B|256:184|336:184,4,80,0|0|0|0|4
256,128,74437,2,0,B|256:172|200:180,3,80
256,192,75071,12,0,76023
256,192,76341,12,4,77610
