osu file format v9

[General]
AudioFilename: Battle! Gym Leader.mp3
AudioLeadIn: 3000
PreviewTime: 50964
Countdown: 1
SampleSet: Normal
StackLeniency: 0.7
Mode: 0
LetterboxInBreaks: 1

[Editor]
DistanceSpacing: 1
BeatDivisor: 4
GridSize: 4

[Metadata]
Title:Battle! Gym Leader
Artist:Junichi Masuda
Creator:Kissflying
Version:Level 60
Source:Pokemon Golden heart & Silver soul
Tags:

[Difficulty]
HPDrainRate:3
CircleSize:3
OverallDifficulty:2
ApproachRate:5
SliderMultiplier:1.2
SliderTickRate:1

[Events]
//Background and Video events
0,0,"wp4.jpg"
//Break Periods
//Storyboard Layer 0 (Background)
//Storyboard Layer 1 (Fail)
//Storyboard Layer 2 (Pass)
//Storyboard Layer 3 (Foreground)
//Storyboard Sound Samples
//Background Colour Transformations
3,100,163,162,255

[TimingPoints]
171,317.376355461518,4,1,0,100,1,0
2233,-100,4,1,0,5,0,0
2710,-100,4,2,0,100,0,0
3186,-100,4,1,0,90,0,0
3662,-100,4,1,0,40,0,0
3979,-100,4,1,0,80,0,0
4455,-100,4,1,0,50,0,0
4931,-100,4,1,0,90,0,0
5249,-100,4,2,0,100,0,0
5725,-100,4,1,0,90,0,0
6201,-100,4,1,0,50,0,0
6518,-100,4,1,0,90,0,0
7470,-100,4,2,0,80,0,0
7788,-100,4,1,0,80,0,0
8105,-100,4,2,0,80,0,0
8264,-100,4,1,0,80,0,0
8422,-100,4,2,0,80,0,0
8740,-100,4,1,0,65,0,0
9057,-100,4,1,0,85,0,0
9216,-100,4,2,0,80,0,0
9533,-100,4,1,0,85,0,0
10327,-100,4,1,0,70,0,0
10644,-100,4,2,0,80,0,0
10805,-100,4,1,0,80,0,0
10961,-100,4,2,0,80,0,0
11279,-100,4,1,0,80,0,0
12866,-66.6666666666667,4,2,0,100,0,0
12869,-66.6666666666667,4,2,0,80,0,0
13500,-66.6666666666667,4,1,0,80,0,0
13580,-66.6666666666667,4,1,0,5,0,0
13818,-66.6666666666667,4,2,0,80,0,0
13897,-66.6666666666667,4,2,0,5,0,0
14135,-66.6666666666667,4,1,0,80,0,0
14214,-66.6666666666667,4,1,0,5,0,0
14452,-66.6666666666667,4,1,0,80,0,0
14770,-66.6666666666667,4,1,0,80,0,0
14849,-66.6666666666667,4,1,0,5,0,0
15087,-66.6666666666667,4,2,0,80,0,0
15167,-66.6666666666667,4,2,0,5,0,0
15405,-66.6666666666667,4,1,0,80,0,0
15484,-66.6666666666667,4,1,0,5,0,0
15722,-66.6666666666667,4,1,0,80,0,0
15801,-66.6666666666667,4,1,0,5,0,0
16039,-66.6666666666667,4,1,0,80,0,0
17944,-66.6666666666667,4,2,0,100,0,0
18578,-66.6666666666667,4,1,0,80,0,0
18896,-66.6666666666667,4,2,0,80,0,0
19213,-66.6666666666667,4,1,0,80,0,0
19848,-66.6666666666667,4,1,0,80,0,0
20483,-66.6666666666667,4,1,0,60,0,0
20800,-66.6666666666667,4,1,0,40,0,0
23022,-100,4,2,0,100,0,0
23498,-100,4,1,0,60,0,0
23974,-100,4,1,0,80,0,0
24767,-100,4,1,0,50,0,0
25243,-100,4,1,0,80,0,0
25561,-100,4,2,0,100,0,0
26037,-100,4,1,0,50,0,0
26513,-100,4,1,0,80,0,0
30639,-100,4,2,0,80,0,0
30797,-100,4,2,0,5,0,0
31591,-100,4,1,0,80,0,0
32554,-100,4,1,0,80,0,0
32860,-100,4,2,0,80,0,0
33178,-100,4,1,0,60,0,0
33336,-100,4,1,0,80,0,0
33495,-100,4,1,0,40,0,0
33654,-100,4,1,0,80,0,0
33812,-100,4,1,0,40,0,0
33971,-100,4,1,0,80,0,0
34447,-100,4,1,0,70,0,0
34606,-100,4,1,0,90,0,0
34765,-100,4,1,0,70,0,0
34923,-100,4,1,0,90,0,0
35082,-100,4,1,0,70,0,0
35241,-100,4,1,0,90,0,0
35717,-100,4,2,0,90,0,0
35875,-100,4,1,0,60,0,0
37621,-100,4,2,0,100,0,0
38097,-100,4,1,0,60,0,0
40795,-100,4,2,0,100,0,0
42064,-100,4,2,0,100,0,0
43334,-100,4,2,0,100,0,0
44603,-100,4,2,0,100,0,0
45873,-100,4,2,0,100,0,0
47142,-100,4,2,0,100,0,0
48412,-100,4,2,0,100,0,0
49681,-100,4,2,0,100,0,0
50951,-100,4,1,0,60,0,1
61107,-100,4,2,0,100,0,1
68724,-100,4,1,0,80,0,0
69993,-100,4,2,0,80,0,0
71263,-100,4,1,0,80,0,0
72532,-100,4,2,0,100,0,0
77610,-100,4,1,0,80,0,0

[Colours]
Combo1 : 128,128,128
Combo2 : 230,230,0
Combo3 : 123,123,164
Combo4 : 255,128,0

[HitObjects]
256,192,171,12,0,2392
40,40,2710,5,4
216,40,3186,1,0
400,40,3662,1,0
480,128,3979,5,8
400,288,4455,1,0
328,128,4931,1,0
256,224,5249,6,0,B|184:300|184:300|104:216,1,210,4|0
40,80,6201,1,0
152,40,6518,6,0,B|216:104|216:104|280:40|288:40,1,180,8|0
464,40,7470,1,4
464,160,7788,6,0,B|464:208|416:224|376:200,3,120
256,200,9057,2,0,B|208:200|192:232|200:272|224:288,3,120,8|0|0|0
112,336,10327,5,0
24,256,10644,1,0
120,184,10961,1,0
24,112,11279,1,0
120,40,11596,5,8
216,112,11913,2,0,B|280:112,2,60
216,232,12548,1,0
368,328,12866,5,4
368,328,13500,2,0,B|440:328|440:328|440:256|440:256|496:256,3,179.999994635582,0|0|0|8
472,72,14770,2,0,B|472:128|472:128|384:128|384:128|384:184,4,179.999994635582
288,72,16357,1,2
288,248,16674,2,0,B|288:336,6,89.9999973177911
104,248,17944,5,4
400,40,18578,1,0
312,192,18896,1,0
216,40,19213,1,0
120,192,19530,1,0
24,40,19848,5,8
120,192,20165,1,0
224,344,20483,1,2
320,192,20800,1,8
400,32,21117,1,2
480,192,21435,1,8
376,344,21752,6,0,B|288:344,1,89.9999973177911
196,344,22069,2,0,B|196:248,1,89.9999973177911
196,164,22387,2,0,B|88:164,1,89.9999973177911
104,72,22704,2,0,B|204:72,1,89.9999973177911
264,32,23022,5,4
440,32,23498,1,0
352,192,23974,1,0
264,112,24291,5,8
440,112,24767,1,0
352,272,25243,1,0
264,192,25561,5,4
440,192,26037,1,0
352,352,26513,1,0
264,272,26830,5,2
440,272,27306,1,0
352,112,27782,1,0
256,192,28100,12,2,29052
256,192,29369,12,0,30321
40,40,30639,6,0,B|104:40|104:40|104:120,3,120,4|0|0|0
104,216,31908,5,0
264,40,32543,1,8
416,40,32940,1,4
416,128,33178,2,0,B|480:128|480:128|480:200,3,120
416,288,34447,2,0,B|352:288|352:288|352:224,3,120
352,112,35717,6,0,B|352:88|352:88|312:88,6,60,4|0|0|0|0|0|0
232,88,36986,5,8
40,232,37621,1,4
144,336,38018,1,2
232,336,38256,2,0,B|256:336|264:336|264:336|264:304,6,60,0|0|0|0|0|0|8
264,224,39525,5,0
320,224,39684,1,0
320,168,39843,1,0
380,168,40001,1,0
380,108,40160,1,0
440,108,40319,1,0
440,48,40477,1,2
320,48,40795,5,4
144,80,41271,1,0
264,212,41747,1,0
392,276,42064,5,4
336,68,42540,1,0
180,220,43016,1,0
64,96,43334,5,4
308,32,43810,1,0
252,276,44286,1,0
436,268,44603,5,4
232,64,45079,1,0
144,340,45555,1,0
252,284,45873,6,0,B|344:284|344:284|344:196,2,180,4|0|0
252,164,47142,6,0,B|192:164|192:164|192:96,3,120,4|0|0|0
304,56,48412,2,0,B|368:56|368:56|368:120,3,120,4|0|0|0
456,192,49681,6,0,B|456:224|456:224|500:224,6,60,4|0|0|0|0|0|0
344,192,50951,5,2
168,32,51585,1,0
184,88,51744,1,0
224,136,51903,1,0
280,152,52062,1,0
344,152,52220,5,0
424,240,52538,1,2
344,328,52855,1,0
264,240,53172,1,0
144,240,53490,5,2
352,128,53807,1,0
144,240,54124,1,2
352,128,54442,1,0
248,64,54759,6,0,B|208:64|208:120,3,60,2|0|2|2
208,160,55394,2,0,B|208:192|160:192,3,60,0|2|2|0
104,192,56029,5,8
304,328,56663,1,0
360,304,56822,1,0
400,264,56981,1,0
416,208,57140,1,0
408,152,57298,5,0
328,64,57616,1,8
240,152,57933,1,0
328,232,58250,1,0
216,272,58568,5,8
64,80,58885,1,0
216,272,59203,1,8
64,80,59520,1,0
184,80,59837,5,8
240,104,59996,1,8
272,152,60155,1,0
280,208,60313,1,0
304,264,60472,5,0
352,304,60631,1,8
408,328,60789,1,0
472,328,60948,1,8
504,272,61107,5,4
400,56,61742,1,4
224,216,62376,1,4
48,48,63011,1,4
288,56,63646,5,0
360,152,63963,1,4
288,56,64281,1,0
360,152,64598,1,4
288,248,64915,5,0
248,296,65074,1,0
192,320,65233,1,0
136,312,65391,1,0
88,280,65550,1,0
48,232,65709,1,0
32,176,65867,1,0
48,120,66026,1,0
88,80,66185,1,4
496,336,67454,5,0
376,336,67772,1,0
256,336,68089,1,0
136,336,68406,1,0
48,248,68724,5,8
168,248,69041,1,0
232,248,69200,1,0
296,248,69359,1,0
416,248,69676,1,0
488,152,69993,5,0
368,152,70311,1,0
248,152,70628,1,0
192,152,70787,1,0
128,152,70945,1,0
48,56,71263,5,0
104,56,71421,1,0
168,56,71580,1,0
232,56,71739,1,0
296,56,71898,1,0
352,56,72056,1,0
416,56,72215,1,0
480,56,72374,1,0
480,112,72532,5,4
256,192,73167,2,0,B|172:192,1,60
136,192,73484,2,0,B|96:252,1,60
102,241,73802,5,4
320,344,74437,2,0,B|380:308,1,60
396,256,74754,2,0,B|408:196,1,60
256,192,75071,12,0,76023
256,192,76341,12,4,77610
