osu file format v9

[General]
AudioFilename: Battle! Gym Leader.mp3
AudioLeadIn: 3000
PreviewTime: 50964
Countdown: 1
SampleSet: Normal
StackLeniency: 0.7
Mode: 0
LetterboxInBreaks: 1

[Editor]
DistanceSpacing: 1
BeatDivisor: 4
GridSize: 4

[Metadata]
Title:Battle! Gym Leader
Artist:Junichi Masuda
Creator:Kissflying
Version:Level 40
Source:Pokemon Golden heart & Silver soul
Tags:

[Difficulty]
HPDrainRate:1
CircleSize:3
OverallDifficulty:1
ApproachRate:4
SliderMultiplier:1
SliderTickRate:1

[Events]
//Background and Video events
0,0,"wp4.jpg"
//Break Periods
//Storyboard Layer 0 (Background)
//Storyboard Layer 1 (Fail)
//Storyboard Layer 2 (Pass)
//Storyboard Layer 3 (Foreground)
//Storyboard Sound Samples
//Background Colour Transformations
3,100,163,162,255

[TimingPoints]
171,317.376355461518,4,1,0,100,1,0
2233,-100,4,1,0,5,0,0
2710,-100,4,2,0,100,0,0
3186,-100,4,1,0,90,0,0
3662,-100,4,1,0,40,0,0
3979,-100,4,1,0,80,0,0
4455,-100,4,1,0,50,0,0
4931,-100,4,1,0,90,0,0
5249,-100,4,2,0,100,0,0
5725,-100,4,1,0,90,0,0
6201,-100,4,1,0,50,0,0
6518,-100,4,1,0,90,0,0
7470,-100,4,2,0,80,0,0
7788,-100,4,1,0,80,0,0
8105,-100,4,2,0,80,0,0
8264,-100,4,1,0,80,0,0
8422,-100,4,2,0,80,0,0
8740,-100,4,1,0,65,0,0
9057,-100,4,1,0,85,0,0
9533,-100,4,1,0,85,0,0
10327,-100,4,1,0,70,0,0
10644,-100,4,2,0,80,0,0
10803,-100,4,1,0,80,0,0
11279,-100,4,1,0,80,0,0
12866,-66.6666666666667,4,2,0,80,0,0
12869,-66.6666666666667,4,2,0,100,0,0
12945,-66.6666666666667,4,2,0,5,0,0
13183,-66.6666666666667,4,2,0,80,0,0
13500,-66.6666666666667,4,1,0,80,0,0
13580,-66.6666666666667,4,1,0,5,0,0
13818,-66.6666666666667,4,2,0,80,0,0
13897,-66.6666666666667,4,2,0,5,0,0
14135,-66.6666666666667,4,1,0,80,0,0
14214,-66.6666666666667,4,1,0,5,0,0
14452,-66.6666666666667,4,1,0,80,0,0
14770,-66.6666666666667,4,1,0,80,0,0
14849,-66.6666666666667,4,1,0,5,0,0
15087,-66.6666666666667,4,2,0,80,0,0
15167,-66.6666666666667,4,2,0,5,0,0
15405,-66.6666666666667,4,1,0,80,0,0
15484,-66.6666666666667,4,1,0,5,0,0
15722,-66.6666666666667,4,1,0,80,0,0
15801,-66.6666666666667,4,1,0,5,0,0
16039,-66.6666666666667,4,1,0,80,0,0
17944,-66.6666666666667,4,2,0,100,0,0
18578,-66.6666666666667,4,1,0,80,0,0
18896,-66.6666666666667,4,2,0,80,0,0
19213,-66.6666666666667,4,1,0,80,0,0
19848,-66.6666666666667,4,1,0,80,0,0
20483,-66.6666666666667,4,1,0,60,0,0
20800,-66.6666666666667,4,1,0,40,0,0
23022,-100,4,2,0,100,0,0
23498,-100,4,1,0,60,0,0
23974,-100,4,1,0,80,0,0
24767,-100,4,1,0,50,0,0
25243,-100,4,1,0,80,0,0
25561,-100,4,2,0,100,0,0
26037,-100,4,1,0,50,0,0
26513,-100,4,1,0,80,0,0
30639,-100,4,2,0,80,0,0
30797,-100,4,2,0,5,0,0
31591,-100,4,1,0,80,0,0
31987,-100,4,1,0,5,0,0
32226,-100,4,2,0,80,0,0
32305,-100,4,2,0,5,0,0
32543,-100,4,1,0,80,0,0
32622,-100,4,1,0,5,0,0
32860,-100,4,2,0,80,0,0
33178,-100,4,1,0,60,0,0
33336,-100,4,1,0,80,0,0
33495,-100,4,1,0,40,0,0
33654,-100,4,1,0,80,0,0
33812,-100,4,1,0,40,0,0
33971,-100,4,1,0,80,0,0
34447,-100,4,1,0,70,0,0
34765,-100,4,1,0,70,0,0
35082,-100,4,1,0,70,0,0
35717,-100,4,2,0,90,0,0
35875,-100,4,1,0,60,0,0
37621,-100,4,2,0,100,0,0
38097,-100,4,1,0,60,0,0
40795,-100,4,2,0,100,0,0
42064,-100,4,2,0,100,0,0
43334,-100,4,2,0,100,0,0
44603,-100,4,2,0,100,0,0
45873,-100,4,2,0,100,0,0
47142,-100,4,2,0,100,0,0
48412,-100,4,2,0,100,0,0
49681,-100,4,2,0,100,0,0
50951,-100,4,1,0,60,0,1
61107,-100,4,2,0,100,0,1
68724,-100,4,1,0,80,0,0
71263,-100,4,1,0,80,0,0
72532,-100,4,2,0,100,0,0
77610,-100,4,1,0,80,0,0

[Colours]
Combo1 : 128,128,128
Combo2 : 230,230,0
Combo3 : 123,123,164
Combo4 : 255,128,0

[HitObjects]
256,192,171,12,0,2392
40,40,2710,6,0,B|208:40,1,150,4|0
344,40,3662,1,0
424,104,3979,5,8
344,232,4455,1,0
192,232,4931,1,0
120,296,5249,5,4
32,176,5725,2,0,B|144:64,1,150
232,40,6518,5,8
320,160,6994,1,0
408,40,7470,1,4
472,120,7788,5,0
416,200,8105,2,0,B|416:256|416:256|368:288,2,100
312,200,9057,5,8
160,200,9533,2,0,B|64:336,1,150
32,232,10327,6,0,B|120:112,1,150,0|0
256,48,11279,1,0
352,48,11596,6,0,B|464:96,3,100,8|0|0|0
428,232,12866,6,0,B|328:352,1,149.999995529652,4|0
184,348,13500,6,0,B|88:232,3,149.999995529652
212,144,14770,2,0,B|308:276,4,149.999995529652,8|0|0|0|0
340,64,16357,1,2
256,192,16674,12,0,17626
32,48,17944,6,0,B|168:144,1,149.999995529652,4|0
304,136,18578,2,0,B|432:32,3,149.999995529652
480,184,19848,5,8
416,320,20165,1,0
264,320,20483,6,0,B|112:320,1,149.999995529652
32,192,21117,2,0,B|184:192,1,149.999995529652
336,192,21752,2,0,B|416:192|416:192|416:96,3,149.999995529652
336,56,23022,5,4
256,184,23498,1,0
336,56,23974,1,0
336,152,24291,5,8
256,280,24767,1,0
408,280,25243,1,0
336,216,25561,5,4
256,344,26037,1,0
408,344,26513,1,0
336,272,26830,5,8
256,144,27306,1,0
408,144,27782,1,0
256,192,28100,12,0,29052
256,192,29369,12,0,30321
256,192,30639,6,0,B|304:192|304:192|304:128,3,100,4|0|0|0
304,40,31908,2,0,B|424:40,1,100
472,112,32543,2,0,B|472:216,1,100,8|0
400,280,33178,6,0,B|344:280|344:280|344:336,3,100,0|0|0|8
240,320,34447,5,0
168,256,34765,1,0
240,192,35082,1,0
312,256,35399,1,2
384,192,35717,6,0,B|440:192|440:192|440:128,3,100,4|0|0|0
440,48,36986,2,0,B|328:48,1,100
240,48,37621,2,0,B|240:168,1,100,4|0
240,248,38256,5,0
168,320,38573,1,0
96,248,38890,1,0
168,176,39208,1,8
240,104,39525,5,0
312,176,39843,1,0
384,104,40160,1,0
312,32,40477,1,2
240,104,40795,5,4
120,192,41271,1,0
240,104,41747,1,0
312,176,42064,5,4
192,264,42540,1,0
312,176,43016,1,0
376,248,43334,5,4
488,152,43810,1,0
376,248,44286,1,0
304,176,44603,5,4
424,88,45079,1,0
304,176,45555,1,0
232,104,45873,5,4
136,104,46190,1,0
136,208,46507,1,0
232,208,46825,1,0
352,208,47142,5,4
352,88,47460,1,0
232,88,47777,1,0
232,208,48094,1,0
96,208,48412,5,4
96,352,48729,1,0
232,352,49046,1,0
232,208,49364,1,0
392,208,49681,5,4
392,48,49999,1,0
232,48,50316,1,0
232,208,50633,1,0
136,208,50951,5,2
40,32,51585,1,0
40,32,51744,2,0,B|160:32,1,100
192,32,52220,1,0
288,32,52538,1,2
192,32,52855,1,0
288,32,53172,1,0
368,88,53490,5,2
296,160,53807,1,0
392,200,54124,1,2
320,272,54442,1,0
224,240,54759,6,0,B|160:240,6,50,2|0|2|2|0|0|0
312,192,56029,5,8
472,312,56663,1,0
472,312,56822,2,0,B|360:312,1,100
320,312,57298,1,0
216,312,57616,1,8
120,312,57933,1,0
56,240,58250,1,0
120,168,58568,5,8
224,168,58885,1,0
120,168,59203,1,8
224,168,59520,1,0
320,168,59837,6,0,B|320:104,1,50,8|0
344,72,60155,2,0,B|384:32,1,50,0|8
432,32,60472,2,0,B|496:64,3,50
488,104,61107,5,4
488,304,61742,1,4
288,304,62376,1,4
288,104,63011,1,4
104,192,63646,5,0
204,192,63963,1,4
304,192,64281,1,0
404,192,64598,1,4
256,192,64915,12,4,66185
40,40,67454,5,4
240,40,68089,1,0
360,192,68724,5,0
160,192,69359,1,8
24,336,69993,5,0
124,336,70311,1,0
124,236,70628,1,0
224,236,70945,1,0
324,236,71263,6,0,B|440:236,3,100,8|0|0|0
320,104,72532,5,4
120,104,73167,1,0
224,104,73484,1,0
224,200,73802,5,4
424,200,74437,1,0
320,200,74754,1,0
256,192,75071,12,0,76023
256,192,76341,12,4,77610
