osu file format v9

[General]
AudioFilename: Battle! Gym Leader.mp3
AudioLeadIn: 3000
PreviewTime: 50964
Countdown: 1
SampleSet: Normal
StackLeniency: 0.7
Mode: 0
LetterboxInBreaks: 1

[Editor]
DistanceSpacing: 1
BeatDivisor: 4
GridSize: 8

[Metadata]
Title:Battle! Gym Leader
Artist:Junichi Masuda
Creator:Kissflying
Version:Level 20
Source:Pokemon Golden heart & Silver soul
Tags:

[Difficulty]
HPDrainRate:1
CircleSize:3
OverallDifficulty:1
ApproachRate:3
SliderMultiplier:0.8
SliderTickRate:1

[Events]
//Background and Video events
0,0,"wp4.jpg"
//Break Periods
//Storyboard Layer 0 (Background)
//Storyboard Layer 1 (Fail)
//Storyboard Layer 2 (Pass)
//Storyboard Layer 3 (Foreground)
//Storyboard Sound Samples
//Background Colour Transformations
3,100,163,162,255

[TimingPoints]
171,317.376355461518,4,1,0,100,1,0
2233,-100,4,1,0,5,0,0
2710,-100,4,2,0,100,0,0
3662,-100,4,1,0,40,0,0
3979,-100,4,1,0,80,0,0
4455,-100,4,1,0,50,0,0
4931,-100,4,1,0,90,0,0
5249,-100,4,2,0,100,0,0
6201,-100,4,1,0,50,0,0
6518,-100,4,1,0,90,0,0
7470,-100,4,2,0,80,0,0
7788,-100,4,1,0,80,0,0
8105,-100,4,2,0,80,0,0
8264,-100,4,1,0,80,0,0
8422,-100,4,2,0,80,0,0
8740,-100,4,1,0,65,0,0
9057,-100,4,1,0,85,0,0
9533,-100,4,1,0,85,0,0
10327,-100,4,1,0,70,0,0
10644,-100,4,2,0,80,0,0
10803,-100,4,1,0,80,0,0
11279,-100,4,1,0,80,0,0
13500,-66.6666666666667,4,1,0,80,0,0
13580,-66.6666666666667,4,1,0,5,0,0
13818,-66.6666666666667,4,2,0,80,0,0
13897,-66.6666666666667,4,2,0,5,0,0
14135,-66.6666666666667,4,1,0,80,0,0
14770,-66.6666666666667,4,1,0,80,0,0
14849,-66.6666666666667,4,1,0,5,0,0
15087,-66.6666666666667,4,2,0,80,0,0
15167,-66.6666666666667,4,2,0,5,0,0
15405,-66.6666666666667,4,1,0,80,0,0
16039,-66.6666666666667,4,1,0,80,0,0
17944,-66.6666666666667,4,2,0,100,0,0
18578,-66.6666666666667,4,1,0,80,0,0
18896,-66.6666666666667,4,2,0,80,0,0
19213,-66.6666666666667,4,1,0,80,0,0
19848,-66.6666666666667,4,1,0,80,0,0
20483,-66.6666666666667,4,1,0,60,0,0
20800,-66.6666666666667,4,1,0,40,0,0
23022,-100,4,2,0,100,0,0
23498,-100,4,1,0,60,0,0
23974,-100,4,1,0,80,0,0
24767,-100,4,1,0,50,0,0
25243,-100,4,1,0,80,0,0
25561,-100,4,2,0,100,0,0
26037,-100,4,1,0,50,0,0
26513,-100,4,1,0,80,0,0
30639,-100,4,2,0,80,0,0
31591,-100,4,1,0,80,0,0
31987,-100,4,1,0,5,0,0
32226,-100,4,2,0,80,0,0
32543,-100,4,1,0,80,0,0
32622,-100,4,1,0,5,0,0
32860,-100,4,2,0,80,0,0
33178,-100,4,1,0,60,0,0
33336,-100,4,1,0,80,0,0
33495,-100,4,1,0,40,0,0
33654,-100,4,1,0,80,0,0
33812,-100,4,1,0,40,0,0
33971,-100,4,1,0,80,0,0
34447,-100,4,1,0,70,0,0
34765,-100,4,1,0,70,0,0
35082,-100,4,1,0,70,0,0
35717,-100,4,2,0,90,0,0
35875,-100,4,1,0,60,0,0
37621,-100,4,2,0,100,0,0
38097,-100,4,1,0,60,0,0
40795,-100,4,2,0,100,0,0
42064,-100,4,2,0,100,0,0
43334,-100,4,2,0,100,0,0
44603,-100,4,2,0,100,0,0
45873,-100,4,2,0,100,0,0
47142,-100,4,2,0,100,0,0
48412,-100,4,2,0,100,0,0
49681,-100,4,2,0,100,0,0
50951,-100,4,1,0,60,0,1
61107,-100,4,2,0,100,0,1
68724,-100,4,1,0,80,0,0
71263,-100,4,1,0,80,0,0
72532,-100,4,2,0,100,0,0
77610,-100,4,1,0,80,0,0

[Colours]
Combo1 : 128,128,128
Combo2 : 230,230,0
Combo3 : 123,123,164
Combo4 : 255,128,0

[HitObjects]
256,192,171,12,0,2392
40,40,2710,5,4
200,40,3662,1,0
280,40,3979,5,8
360,128,4455,1,0
440,40,4931,1,0
360,40,5249,5,4
360,216,6201,1,0
280,216,6518,5,8
208,312,6994,1,0
144,216,7470,1,4
96,152,7788,6,0,B|32:40,2,120
176,152,9057,2,0,B|240:48,2,120,8|0|0
176,232,10327,6,0,B|248:336,2,120
96,232,11596,2,0,B|40:312,4,80
408,280,13500,6,0,B|272:280,2,119.999996423721
184,192,14770,2,0,B|184:48,2,119.999996423721
256,192,16674,6,0,B|256:320,3,119.999996423721
136,312,17944,5,4
136,72,18578,2,0,B|16:72,3,119.999996423721
16,192,19848,2,0,B|136:192,3,119.999996423721
136,312,21117,1,0
256,312,21435,1,0
376,312,21752,2,0,B|112:48,1,359.999989271164
256,192,23022,5,4
344,112,23498,1,0
256,192,23974,1,0
176,192,24291,5,8
80,112,24767,1,0
176,192,25243,1,0
176,272,25561,5,4
80,344,26037,1,0
176,272,26513,1,0
256,272,26830,5,8
352,344,27306,1,0
256,272,27782,1,0
256,192,28100,6,0,B|456:48,1,240
480,128,29369,2,0,B|280:272,1,240
216,312,30639,5,4
136,312,30956,1,0
136,232,31273,1,0
56,232,31591,1,0
56,152,31908,2,0,B|144:152,1,80
216,152,32543,2,0,B|216:232,1,80
216,312,33178,2,0,B|296:312,3,80
296,232,34447,1,0
376,232,34765,1,0
376,152,35082,1,0
456,152,35399,1,0
456,72,35717,6,0,B|376:72,3,80,4|0|0|0
296,72,36986,2,0,B|216:72,1,80
216,152,37621,2,0,B|304:152,1,80,4|0
296,232,38256,1,0
216,232,38573,1,0
216,312,38890,1,0
136,312,39208,1,0
56,312,39525,2,0,B|56:56,1,240
136,72,40795,5,4
256,72,41271,1,0
256,192,41747,1,0
256,272,42064,5,8
344,192,42540,1,0
256,112,43016,1,0
176,112,43334,5,4
88,192,43810,1,0
176,272,44286,1,0
256,272,44603,5,8
376,272,45079,1,0
496,272,45555,1,0
496,192,45873,5,4
496,32,46507,1,0
336,32,47142,5,8
336,192,47777,1,0
176,192,48412,5,4
176,32,49046,1,0
16,32,49681,5,8
16,112,49999,1,0
16,192,50316,1,0
16,272,50633,1,0
80,320,50951,5,2
240,320,51585,2,0,B|328:320,5,80,0|0|0|2|0|0
384,272,53490,5,2
440,216,53807,1,0
384,160,54124,1,2
328,216,54442,1,0
272,272,54759,2,0,B|32:272,1,240
32,192,56029,5,8
192,192,56663,1,0
112,192,56981,1,0
112,112,57298,2,0,B|24:112,3,80,0|8|0|0
32,32,58568,2,0,B|128:32,1,80,8|0
192,32,59203,2,0,B|272:32,1,80,8|0
352,32,59837,2,0,B|352:280,1,240
296,328,61107,5,4
136,328,61742,1,4
48,192,62376,1,4
48,32,63011,1,4
208,32,63646,5,0
288,32,63963,1,4
368,32,64281,1,0
448,32,64598,1,4
256,192,64915,12,4,66185
32,328,67454,5,0
192,328,68089,1,0
352,328,68724,5,0
352,168,69359,1,0
192,168,69993,5,0
32,168,70628,1,0
32,8,71263,2,0,B|120:8,3,80
192,8,72532,5,4
352,8,73167,1,0
272,8,73484,1,0
272,88,73802,5,4
272,248,74437,1,0
272,168,74754,1,0
192,168,75071,5,0
256,192,76341,12,4,77610
