osu file format v11

[General]
AudioFilename: Battle! Champion Cynthia.mp3
AudioLeadIn: 1500
PreviewTime: 57530
Countdown: 0
SampleSet: Normal
StackLeniency: 0.7
Mode: 0
LetterboxInBreaks: 1

[Editor]
Bookmarks: 72213
DistanceSpacing: 0.8
BeatDivisor: 4
GridSize: 4

[Metadata]
Title:Battle! Champion Cynthia
TitleUnicode:Battle! Champion Cynthia
Artist:Junichi Masuda
ArtistUnicode:Junichi Masuda
Creator:DakeDekaane
Version:Lucario
Source:Pokemon: Black/White
Tags:chaotic_iak DarkSkyKnight Irreversible Pearl Diamond Platinum Game Freak Nintendo
BeatmapID:158806
BeatmapSetID:51877

[Difficulty]
HPDrainRate:5
CircleSize:4
OverallDifficulty:5
ApproachRate:7
SliderMultiplier:1.50000000596046
SliderTickRate:2

[Events]
//Background and Video events
0,0,"lucariowallpaper.jpg"
//Break Periods
2,7706,11607
//Storyboard Layer 0 (Background)
//Storyboard Layer 1 (Fail)
//Storyboard Layer 2 (Pass)
//Storyboard Layer 3 (Foreground)
//Storyboard Sound Samples
//Background Colour Transformations
3,100,0,0,0

[TimingPoints]
4,312.596058163707,4,1,0,70,1,0
2817,-100,4,2,0,50,0,0
7506,-100,4,1,0,70,0,0
12507,-100,4,1,0,75,0,0
27512,-100,4,1,0,80,0,0
32513,-100,4,1,0,85,0,0
37515,-100,4,2,0,85,0,0
47518,-100,4,1,0,50,0,0
57521,-100,4,1,0,70,0,1
67524,-100,4,1,0,50,0,1
69400,-100,4,2,0,90,0,1
72838,-100,4,2,0,60,0,0
77527,-100,4,1,0,50,0,0

[Colours]
Combo1 : 255,255,111
Combo2 : 23,23,255
Combo3 : 103,103,103

[HitObjects]
256,192,4,12,4,2504,0:0:0
100,80,2973,5,2,0:0:0
256,168,3442,1,8,0:0:0
412,80,3911,1,0,0:0:0
480,248,4380,1,8,0:0:0
500,364,4692,2,0,B|412:368|376:296,1,150.000000596046,8|8,0:0|0:0,0:0:0
468,152,5474,5,2,0:0:0
312,60,5943,1,2,0:0:0
132,76,6412,1,0,0:0:0
24,220,6881,1,8,0:0:0
80,328,7193,1,8,0:0:0
200,348,7506,1,4,0:0:0
152,72,12507,6,0,B|256:132|256:260,2,225.000000894069,4|0|8,0:0|0:0|0:0,0:0:0
112,136,13601,1,0,0:0:0
116,212,13758,2,0,B|40:212,2,75.000000298023,2|0|8,0:0|0:0|0:0,0:0:0
160,272,14227,1,0,0:0:0
220,320,14383,1,2,0:0:0
352,272,14696,5,8,0:0:0
292,320,14852,1,0,0:0:0
256,260,15008,2,0,B|256:132|360:72,2,225.000000894069,4|0|8,0:0|0:0|0:0,0:0:0
256,336,16102,1,0,0:0:0
324,300,16258,2,0,B|324:376,2,75.000000298023,2|0|8,0:0|0:0|0:0,0:0:0
388,260,16727,1,0,0:0:0
388,336,16884,1,2,0:0:0
492,228,17196,5,8,0:0:0
500,152,17353,1,0,0:0:0
492,76,17509,2,0,B|392:76|392:76|336:84|332:136|332:136|331:168,2,225.000000894069,4|0|8,0:0|0:0|0:0,0:0:0
500,0,18603,1,0,0:0:0
424,0,18759,2,0,B|388:0|348:8,3,75.000000298023,2|0|8|0,0:0|0:0|0:0|0:0,0:0:0
288,52,19384,1,2,0:0:0
32,24,20010,6,0,B|64:96|28:168,1,150.000000596046,4|0,0:0|0:0,0:0:0
64,236,20479,1,0,0:0:0
20,380,20791,2,0,B|20:344|4:308,2,75.000000298023,0|8|0,0:0|0:0|0:0,0:0:0
96,384,21260,2,0,B|96:348|112:312,1,75.000000298023,2|0,0:0|0:0,0:0:0
188,312,21573,1,8,0:0:0
208,384,21729,1,0,0:0:0
260,332,21885,1,2,0:0:0
508,164,22510,6,0,P|488:120|452:96,2,75.000000298023,2|0|2,0:0|0:0|0:0,0:0:0
436,296,23136,1,2,0:0:0
436,372,23292,1,0,0:0:0
460,224,23605,1,0,0:0:0
408,168,23761,2,0,B|360:228,2,75.000000298023,2|0|8,0:0|0:0|0:0,0:0:0
344,128,24230,1,0,0:0:0
272,104,24386,1,2,0:0:0
124,92,24699,5,8,0:0:0
200,92,24855,1,0,0:0:0
272,104,25011,2,0,P|292:72|296:36,2,75.000000298023,2|0|2,0:0|0:0|0:0,0:0:0
136,168,25636,1,2,0:0:0
208,152,25793,1,0,0:0:0
72,212,26105,1,0,0:0:0
48,284,26262,2,0,B|32:320|40:360,2,75.000000298023,2|0|8,0:0|0:0|0:0,0:0:0
120,264,26730,1,0,0:0:0
196,276,26887,1,2,0:0:0
348,272,27199,5,8,0:0:0
304,332,27356,1,0,0:0:0
380,344,27512,2,0,B|488:292|512:172,2,225.000000894069,4|0|8,0:0|0:0|0:0,0:0:0
304,332,28606,1,0,0:0:0
276,264,28762,2,0,B|232:280|228:336,2,75.000000298023,2|0|8,0:0|0:0|0:0,0:0:0
320,204,29231,1,0,0:0:0
244,196,29388,1,2,0:0:0
408,36,30013,6,0,B|336:84|268:36,1,150.000000596046,4|0,0:0|0:0,0:0:0
196,60,30482,2,0,B|124:12|56:60,1,150.000000596046
52,136,30951,2,0,B|72:176|112:180,1,75.000000298023,8|0,0:0|0:0,0:0:0
180,152,31263,2,0,B|160:112|120:108,2,75.000000298023,2|0|8,0:0|0:0|0:0,0:0:0
168,228,31732,1,0,0:0:0
240,200,31888,1,2,0:0:0
488,28,32513,6,0,B|488:112|408:144,1,150.000000596046,4|0,0:0|0:0,0:0:0
408,68,32982,2,0,B|488:112|488:188,1,150.000000596046
488,260,33451,2,0,B|488:299|460:328,1,75.000000298023,8|0,0:0|0:0,0:0:0
384,332,33764,2,0,B|384:292|412:264,1,75.000000298023,2|0,0:0|0:0,0:0:0
412,188,34076,1,0,0:0:0
344,224,34233,1,0,0:0:0
312,292,34389,1,2,0:0:0
24,372,35014,6,0,B|0:300|0:224,1,150.000000596046,4|0,0:0|0:0,0:0:0
76,224,35483,2,0,B|76:148|52:76,1,150.000000596046
116,36,35952,2,0,B|192:36,1,75.000000298023,8|0,0:0|0:0,0:0:0
192,112,36265,2,0,B|268:112,2,75.000000298023,2|0|8,0:0|0:0|0:0,0:0:0
148,172,36734,1,0,0:0:0
200,228,36890,1,2,0:0:0
440,44,37515,5,4,0:0:0
256,192,38140,1,2,0:0:0
72,44,38765,1,2,0:0:0
172,192,39234,1,0,0:0:0
72,340,39703,1,2,0:0:0
72,340,40016,1,4,0:0:0
192,340,40328,5,2,0:0:0
192,340,40485,1,0,0:0:0
216,160,40954,2,0,B|168:92|216:20,1,150.000000596046,2|0,0:0|0:0,0:0:0
312,92,41579,2,0,B|360:164|312:232,1,150.000000596046,2|0,0:0|0:0,0:0:0
312,232,42204,1,2,0:0:0
256,340,42517,5,4,0:0:0
68,192,43142,1,2,0:0:0
256,44,43767,1,2,0:0:0
356,192,44236,1,0,0:0:0
176,192,44705,1,2,0:0:0
176,192,45017,1,4,0:0:0
296,192,45330,5,2,0:0:0
296,192,45487,1,0,0:0:0
176,328,45956,2,0,B|120:264|176:192,1,150.000000596046,2|0,0:0|0:0,0:0:0
232,176,46424,1,0,0:0:0
292,164,46580,2,0,B|348:100|292:28,1,150.000000596046,2|0,0:0|0:0,0:0:0
208,112,47206,1,2,0:0:0
100,164,47518,1,4,0:0:0
68,48,47831,5,8,0:0:0
188,48,48143,1,0,0:0:0
228,160,48456,1,8,0:0:0
128,228,48768,1,0,0:0:0
28,160,49081,1,8,0:0:0
132,128,49394,1,0,0:0:0
152,124,49550,1,0,0:0:0
172,120,49706,1,8,0:0:0
188,116,49863,1,0,0:0:0
208,112,50019,1,4,0:0:0
320,68,50331,5,8,0:0:0
440,68,50644,1,0,0:0:0
480,180,50957,1,8,0:0:0
380,248,51269,1,0,0:0:0
280,180,51582,1,8,0:0:0
380,148,51894,1,0,0:0:0
368,164,52051,1,0,0:0:0
356,180,52207,1,8,0:0:0
344,196,52363,1,0,0:0:0
332,212,52520,1,4,0:0:0
248,296,52832,5,8,0:0:0
128,296,53145,1,0,0:0:0
128,176,53457,1,8,0:0:0
248,176,53770,1,0,0:0:0
128,176,54083,1,8,0:0:0
216,92,54395,2,0,B|172:84|160:48,1,75.000000298023
224,24,54708,2,0,B|268:32|280:68,2,75.000000298023,8|0|4,0:0|0:0|0:0,0:0:0
352,52,55333,5,8,0:0:0
472,52,55646,1,0,0:0:0
472,172,55958,1,8,0:0:0
352,172,56271,1,0,0:0:0
472,172,56583,1,8,0:0:0
412,276,56896,2,0,B|360:224,1,75.000000298023
300,224,57209,2,0,B|248:276,1,75.000000298023,8|0,0:0|0:0,0:0:0
208,232,57521,1,4,0:0:0
388,96,57990,6,0,B|368:24,2,75.000000298023,0|2|0,0:0|0:0|0:0,0:0:0
312,96,58459,1,8,0:0:0
296,24,58615,1,0,0:0:0
220,24,58772,1,2,0:0:0
196,96,58928,1,0,0:0:0
120,96,59084,2,0,B|140:24,2,75.000000298023,8|0|2,0:0|0:0|0:0,0:0:0
252,168,59709,1,2,0:0:0
252,168,60022,1,4,0:0:0
388,288,60491,6,0,B|368:360,2,75.000000298023,0|2|0,0:0|0:0|0:0,0:0:0
312,288,60960,1,8,0:0:0
296,360,61116,1,0,0:0:0
220,360,61273,1,2,0:0:0
196,288,61429,1,0,0:0:0
120,288,61585,2,0,B|140:360,2,75.000000298023,8|0|2,0:0|0:0|0:0,0:0:0
256,228,62210,1,2,0:0:0
256,228,62523,1,4,0:0:0
396,64,62992,6,0,B|472:64,2,75.000000298023,0|2|0,0:0|0:0|0:0,0:0:0
396,140,63460,2,0,B|320:140,2,75.000000298023,8|0|2,0:0|0:0|0:0,0:0:0
396,216,63929,2,0,B|472:216,2,75.000000298023,0|8|0,0:0|0:0|0:0,0:0:0
320,216,64398,1,2,0:0:0
320,64,64711,1,2,0:0:0
192,140,65023,1,4,0:0:0
100,344,65492,6,0,B|24:344,2,75.000000298023,0|2|0,0:0|0:0|0:0,0:0:0
100,268,65961,2,0,B|176:268,2,75.000000298023,8|0|2,0:0|0:0|0:0,0:0:0
100,192,66430,2,0,B|24:192,2,75.000000298023
176,192,66899,1,2,0:0:0
176,344,67212,1,2,0:0:0
256,192,67524,12,0,69712,0:0:0
52,52,70025,5,4,0:0:0
256,192,70494,1,4,0:0:0
464,52,70963,1,4,0:0:0
256,192,71432,1,4,0:0:0
416,276,71901,1,2,1:0:0
256,316,72213,1,8,0:0:0
80,276,72526,1,4,0:0:0
256,192,72838,5,0,0:0:0
256,192,72995,2,0,B|324:144|324:64,1,150.000000596046
436,20,73620,2,0,B|504:68|504:148,1,150.000000596046
492,204,74089,2,0,B|492:280,2,75.000000298023,2|0|2,0:0|0:0|0:0,0:0:0
436,184,74558,1,0,0:0:0
392,224,74714,1,2,0:0:0
336,208,74870,1,0,0:0:0
288,244,75027,1,0,0:0:0
236,216,75183,6,0,B|168:172|168:88,1,150.000000596046
76,12,75808,2,0,B|8:60|8:140,1,150.000000596046
68,244,76434,2,0,B|68:320,2,75.000000298023,0|2|0,0:0|0:0|0:0,0:0:0
116,212,76903,1,2,0:0:0
176,228,77058,1,0,0:0:0
216,184,77215,1,2,0:0:0
272,204,77371,1,0,0:0:0
256,192,77527,12,0,81278,0:0:0
196,224,81904,5,0,0:0:0
256,120,82216,1,0,0:0:0
316,224,82529,1,4,0:0:0
