osu file format v11

[General]
AudioFilename: Battle! Champion Cynthia.mp3
AudioLeadIn: 1500
PreviewTime: 57530
Countdown: 0
SampleSet: Normal
StackLeniency: 0.7
Mode: 0
LetterboxInBreaks: 1

[Editor]
Bookmarks: 4,2504,7506,12507,17509,22510,27512,32513,37515,42517,47518,52520,57521,62523,67524,72526,77527,82529
DistanceSpacing: 0.8
BeatDivisor: 4
GridSize: 16

[Metadata]
Title:Battle! Champion Cynthia
TitleUnicode:Battle! Champion Cynthia
Artist:Junichi Masuda
ArtistUnicode:Junichi Masuda
Creator:DakeDekaane
Version:Chaotic Togekiss
Source:Pokemon: Black/White
Tags:chaotic_iak DarkSkyKnight Irreversible Pearl Diamond Platinum Game Freak Nintendo
BeatmapID:187795
BeatmapSetID:51877

[Difficulty]
HPDrainRate:7
CircleSize:4
OverallDifficulty:8
ApproachRate:8
SliderMultiplier:1.40000000596046
SliderTickRate:2

[Events]
//Background and Video events
0,0,"togekisswallpaper.jpg"
//Break Periods
//Storyboard Layer 0 (Background)
//Storyboard Layer 1 (Fail)
//Storyboard Layer 2 (Pass)
//Storyboard Layer 3 (Foreground)
//Storyboard Sound Samples
//Background Colour Transformations
3,100,0,0,0

[TimingPoints]
4,312.596058163707,4,1,0,30,1,0
316,-100,4,1,0,33,0,0
629,-100,4,1,0,35,0,0
941,-100,4,1,0,38,0,0
1254,-100,4,1,0,40,0,0
1566,-100,4,1,0,43,0,0
1879,-100,4,1,0,45,0,0
2192,-100,4,1,0,48,0,0
2817,-100,4,1,0,50,0,0
27512,-100,4,1,0,55,0,0
37515,-100,4,1,0,50,0,0
57521,-100,4,1,0,60,0,1
67524,-100,4,1,0,40,0,0

[Colours]
Combo1 : 0,0,255
Combo2 : 128,128,128
Combo3 : 255,0,0

[HitObjects]
256,128,4,2,0,B|256:80|224:64,3,70.000000298023,2|0|0|0,0:0|0:0|0:0|0:0,0:0:0
160,48,629,2,0,B|112:48|96:80,3,70.000000298023,2|0|0|0,0:0|0:0|0:0|0:0,0:0:0
96,144,1254,2,0,B|96:192|128:208,3,70.000000298023,2|0|0|0,0:0|0:0|0:0|0:0,0:0:0
192,208,1879,1,2,0:0:0
204,215,1957,1,0,0:0:0
214,224,2035,1,0,0:0:0
221,236,2114,1,0,0:0:0
223,249,2192,1,2,0:0:0
220,262,2270,1,0,0:0:0
215,274,2348,1,0,0:0:0
204,281,2426,1,0,0:0:0
192,288,2504,1,4,0:0:0
128,304,2661,5,0,0:0:0
48,192,2973,1,0,0:0:0
128,80,3286,1,0,0:0:0
256,144,3598,1,0,0:0:0
384,80,3911,1,0,0:0:0
464,192,4224,1,0,0:0:0
384,304,4536,1,0,0:0:0
256,240,4849,1,0,0:0:0
208,192,5005,5,8,0:0:0
256,144,5161,1,0,0:0:0
128,80,5474,1,0,0:0:0
48,192,5787,1,0,0:0:0
128,304,6099,1,0,0:0:0
256,240,6412,1,0,0:0:0
384,304,6724,1,0,0:0:0
464,192,7037,1,0,0:0:0
384,80,7350,1,0,0:0:0
320,80,7506,5,6,0:0:0
256,112,7662,1,0,0:0:0
224,96,7740,1,0,0:0:0
224,128,7818,1,0,0:0:0
160,160,7975,1,0,0:0:0
224,192,8131,1,0,0:0:0
224,224,8209,1,0,0:0:0
256,208,8287,1,0,0:0:0
320,240,8444,1,0,0:0:0
256,272,8600,1,0,0:0:0
224,288,8678,1,0,0:0:0
192,272,8756,1,8,0:0:0
128,240,8912,5,0,0:0:0
96,224,8991,1,0,0:0:0
128,208,9069,1,0,0:0:0
192,176,9225,1,0,0:0:0
128,144,9381,1,0,0:0:0
96,128,9460,1,0,0:0:0
128,112,9538,1,0,0:0:0
192,80,9694,1,0,0:0:0
224,64,9772,1,0,0:0:0
256,80,9850,1,0,0:0:0
288,64,9928,1,0,0:0:0
320,80,10007,1,2,0:0:0
384,112,10163,6,0,B|416:128,2,35.0000001490115
320,144,10475,2,0,B|288:112|256:128,2,70.000000298023
256,176,10944,2,0,B|224:192,1,35.0000001490115
256,208,11101,1,0,0:0:0
320,240,11257,2,0,B|352:224,1,35.0000001490115,8|0,0:0|0:0,0:0:0
352,256,11413,2,0,B|384:240,1,35.0000001490115
384,272,11570,1,0,0:0:0
448,304,11726,2,0,B|400:336|384:336,1,70.000000298023,0|2,0:0|0:0,0:0:0
320,352,12038,1,0,0:0:0
256,320,12195,1,2,0:0:0
224,304,12273,1,0,0:0:0
256,288,12351,1,0,0:0:0
224,272,12429,1,0,0:0:0
256,256,12507,6,0,B|64:256|80:160|64:64|256:64,1,420.000001788138,4|0,0:0|0:0,0:0:0
304,80,13601,1,0,0:0:0
272,128,13758,1,8,0:0:0
320,160,13914,1,0,0:0:0
288,208,14070,1,8,0:0:0
240,176,14227,1,0,0:0:0
208,224,14383,1,2,0:0:0
304,336,14696,2,0,B|256:352|240:304,1,70.000000298023
256,256,15008,6,0,B|448:256|432:160|448:64|256:64,1,420.000001788138,4|0,0:0|0:0,0:0:0
208,80,16102,1,0,0:0:0
240,128,16258,1,8,0:0:0
192,160,16415,1,0,0:0:0
224,208,16571,1,8,0:0:0
272,176,16727,1,0,0:0:0
304,224,16884,1,2,0:0:0
208,336,17196,2,0,B|256:352|272:304,1,70.000000298023
336,320,17509,6,0,B|432:320|448:192|432:64|336:64,1,350.000001490115,10|0,0:0|0:0,0:0:0
272,64,18447,1,0,0:0:0
234,179,18603,1,0,0:0:0
332,108,18759,1,8,0:0:0
211,108,18916,1,0,0:0:0
309,179,19072,1,8,0:0:0
272,64,19228,1,0,0:0:0
234,179,19384,1,2,0:0:0
176,320,20010,6,0,B|80:320|64:192|80:64|176:64,1,350.000001490115,8|0,0:0|0:0,0:0:0
240,64,20947,1,0,0:0:0
278,179,21104,1,0,0:0:0
180,108,21260,1,8,0:0:0
301,108,21416,1,0,0:0:0
203,179,21573,1,8,0:0:0
240,64,21729,1,0,0:0:0
278,179,21885,1,2,0:0:0
96,288,22510,6,0,B|32:352,2,70.000000298023,10|0|0,0:0|0:0|0:0,0:0:0
416,80,23292,1,0,0:0:0
448,128,23448,1,0,0:0:0
416,176,23605,1,0,0:0:0
448,224,23761,1,8,0:0:0
416,272,23917,1,0,0:0:0
384,224,24073,1,8,0:0:0
416,176,24230,1,0,0:0:0
384,128,24386,1,2,0:0:0
224,96,24699,2,0,B|144:96,1,70.000000298023
96,96,25011,6,0,B|32:32,2,70.000000298023,8|0|0,0:0|0:0|0:0,0:0:0
416,304,25793,1,0,0:0:0
448,256,25949,1,0,0:0:0
416,208,26105,1,0,0:0:0
448,160,26262,1,8,0:0:0
416,112,26418,1,0,0:0:0
384,160,26574,1,8,0:0:0
416,208,26730,1,0,0:0:0
384,256,26887,1,2,0:0:0
224,288,27199,2,0,B|144:288,1,70.000000298023
96,288,27512,6,0,B|96:128|208:112|208:208|288:208|288:80,1,350.000001490115,10|0,0:0|0:0,0:0:0
350,111,28450,1,0,0:0:0
332,178,28606,1,0,0:0:0
271,212,28762,1,8,0:0:0
202,229,28919,1,0,0:0:0
188,297,29075,1,8,0:0:0
242,340,29231,1,0,0:0:0
256,272,29388,2,0,B|304:272|352:224|448:192|464:240,1,210.000000894069,2|0,0:0|0:0,0:0:0
416,288,30013,6,0,B|416:128|304:112|304:208|224:208|224:80,1,350.000001490115,8|0,0:0|0:0,0:0:0
162,111,30951,1,0,0:0:0
180,178,31107,1,0,0:0:0
241,212,31263,1,8,0:0:0
310,229,31420,1,0,0:0:0
324,297,31576,1,8,0:0:0
270,340,31732,1,0,0:0:0
256,272,31888,2,0,B|208:272|160:224|64:192|48:240,1,210.000000894069,2|0,0:0|0:0,0:0:0
48,288,32513,6,0,B|112:288|184:192|112:96|48:96,1,280.000001192092,10|0,0:0|0:0,0:0:0
48,32,33295,1,0,0:0:0
112,48,33451,1,0,0:0:0
160,96,33608,1,0,0:0:0
176,160,33764,1,8,0:0:0
176,224,33920,1,0,0:0:0
160,288,34076,1,8,0:0:0
112,336,34233,1,0,0:0:0
48,352,34389,1,2,0:0:0
464,96,35014,6,0,B|400:96|328:192|400:288|464:288,1,280.000001192092,8|0,0:0|0:0,0:0:0
464,352,35796,1,0,0:0:0
400,336,35952,1,0,0:0:0
352,288,36108,1,0,0:0:0
336,224,36265,1,8,0:0:0
336,160,36421,1,0,0:0:0
352,96,36577,1,8,0:0:0
400,48,36734,1,0,0:0:0
464,32,36890,1,2,0:0:0
48,48,37515,5,10,0:0:0
256,336,38140,1,10,0:0:0
464,48,38765,1,10,0:0:0
384,304,39234,1,10,0:0:0
128,304,39703,1,10,0:0:0
256,176,40016,1,4,0:0:0
16,320,40485,5,0,0:0:0
16,64,40954,1,0,0:0:0
192,64,41266,2,0,B|256:112|320:64,1,140.000000596046
320,240,41891,2,0,B|256:192|192:240,1,140.000000596046
48,336,42517,5,10,0:0:0
256,48,43142,1,10,0:0:0
448,336,43767,1,10,0:0:0
384,80,44236,1,10,0:0:0
128,80,44705,1,10,0:0:0
256,208,45018,1,4,0:0:0
496,320,45486,5,0,0:0:0
496,64,45955,1,0,0:0:0
496,240,46268,1,0,0:0:0
240,72,46893,6,0,B|272:104|304:104,3,70.000000298023
368,104,47518,1,10,0:0:0
400,160,47674,1,0,0:0:0
368,216,47831,1,0,0:0:0
304,216,47987,1,2,0:0:0
272,160,48143,1,0,0:0:0
112,112,48456,1,2,0:0:0
112,280,48768,5,0,0:0:0
144,224,48925,1,2,0:0:0
208,224,49081,1,0,0:0:0
176,280,49237,1,0,0:0:0
144,336,49394,1,2,0:0:0
208,336,49550,1,0,0:0:0
240,280,49706,1,2,0:0:0
304,280,49863,1,0,0:0:0
368,280,50019,5,10,0:0:0
400,224,50175,1,0,0:0:0
368,168,50331,1,0,0:0:0
304,168,50488,1,2,0:0:0
272,224,50644,1,0,0:0:0
112,280,50957,1,2,0:0:0
112,112,51269,5,0,0:0:0
144,168,51426,1,2,0:0:0
208,168,51582,1,0,0:0:0
176,112,51738,1,0,0:0:0
144,56,51894,1,2,0:0:0
208,56,52051,1,0,0:0:0
240,112,52207,1,2,0:0:0
304,112,52363,1,0,0:0:0
368,112,52520,6,0,B|416:112|416:64,4,70.000000298023,10|0|0|2|0,0:0|0:0|0:0|0:0|0:0,0:0:0
256,192,53457,1,2,0:0:0
144,272,53770,2,0,B|96:272|96:320,4,70.000000298023,0|2|0|0|2,0:0|0:0|0:0|0:0|0:0,0:0:0
208,272,54552,1,0,0:0:0
256,312,54708,1,2,0:0:0
304,272,54864,1,0,0:0:0
368,272,55020,6,0,B|416:272|416:320,4,70.000000298023,10|0|0|2|0,0:0|0:0|0:0|0:0|0:0,0:0:0
256,192,55958,1,2,0:0:0
144,112,56271,2,0,B|96:112|96:64,4,70.000000298023,0|2|0|0|2,0:0|0:0|0:0|0:0|0:0,0:0:0
208,112,57052,1,0,0:0:0
256,72,57209,1,2,0:0:0
304,112,57365,1,0,0:0:0
256,144,57521,6,0,B|256:224,2,70.000000298023,12|0|0,0:0|0:0|0:0,0:0:0
224,80,57990,2,0,B|160:48,2,70.000000298023,8|0|0,0:0|0:0|0:0,0:0:0
288,80,58459,2,0,B|352:48,2,70.000000298023,8|0|0,0:0|0:0|0:0,0:0:0
256,144,58928,1,8,0:0:0
224,208,59084,1,0,0:0:0
192,272,59240,1,0,0:0:0
160,208,59397,5,8,0:0:0
208,128,59553,1,2,0:0:0
304,128,59709,1,8,0:0:0
352,208,59866,1,2,0:0:0
256,240,60022,6,0,B|256:160,2,70.000000298023,12|0|0,0:0|0:0|0:0,0:0:0
288,304,60491,2,0,B|352:336,2,70.000000298023,8|0|0,0:0|0:0|0:0,0:0:0
224,304,60960,2,0,B|160:336,2,70.000000298023,8|0|0,0:0|0:0|0:0,0:0:0
256,240,61429,1,8,0:0:0
288,176,61585,1,0,0:0:0
320,112,61741,1,0,0:0:0
352,176,61898,5,8,0:0:0
304,256,62054,1,2,0:0:0
224,208,62210,1,8,0:0:0
208,112,62367,1,2,0:0:0
128,64,62523,6,0,B|80:32|48:80|80:128|128:96,1,140.000000596046,12|0,0:0|0:0,0:0:0
128,176,62992,2,0,B|80:144|48:192|80:240|128:208,1,140.000000596046,8|0,0:0|0:0,0:0:0
128,288,63460,1,8,0:0:0
208,288,63617,1,0,0:0:0
288,288,63773,2,0,B|336:224|288:160,1,140.000000596046,0|8,0:0|0:0,0:0:0
208,160,64242,1,0,0:0:0
208,80,64398,2,0,B|144:32|80:80,1,140.000000596046,10|10,0:0|0:0,0:0:0
384,320,65023,6,0,B|432:352|464:304|432:256|384:288,1,140.000000596046,12|0,0:0|0:0,0:0:0
384,208,65492,2,0,B|432:240|464:192|432:144|384:176,1,140.000000596046,8|0,0:0|0:0,0:0:0
384,96,65960,1,8,0:0:0
304,96,66117,1,0,0:0:0
224,96,66273,2,0,B|176:160|224:224,1,140.000000596046,0|8,0:0|0:0,0:0:0
304,224,66742,1,0,0:0:0
304,304,66899,2,0,B|368:352|432:304,1,140.000000596046,10|10,0:0|0:0,0:0:0
256,192,67524,5,6,0:0:0
284,260,67681,1,0,0:0:0
352,288,67837,1,0,0:0:0
419,260,67993,1,0,0:0:0
448,192,68149,1,2,0:0:0
419,125,68306,1,0,0:0:0
352,96,68462,1,0,0:0:0
284,125,68618,1,0,0:0:0
256,192,68775,5,2,0:0:0
228,260,68931,1,0,0:0:0
160,288,69087,1,0,0:0:0
93,260,69244,1,2,0:0:0
64,192,69400,1,0,0:0:0
93,125,69556,1,0,0:0:0
160,96,69712,1,2,0:0:0
228,125,69869,1,0,0:0:0
256,192,70025,5,10,0:0:0
48,48,70494,1,10,0:0:0
256,256,70963,1,10,0:0:0
464,48,71432,1,10,0:0:0
400,336,71901,1,10,0:0:0
256,208,72213,1,10,0:0:0
112,336,72526,1,4,0:0:0
256,192,72682,12,0,74714,0:0:0
256,80,75027,5,0,0:0:0
192,80,75183,1,0,0:0:0
160,64,75261,1,0,0:0:0
160,96,75339,1,0,0:0:0
96,64,75495,1,0,0:0:0
96,128,75652,1,0,0:0:0
96,192,75808,1,0,0:0:0
160,160,75964,1,0,0:0:0
160,192,76042,1,0,0:0:0
192,176,76121,1,0,0:0:0
256,176,76277,2,0,B|256:224,1,35.0000001490115
288,192,76433,2,0,B|288:240,1,35.0000001490115
320,224,76590,1,0,0:0:0
368,176,76746,5,0,0:0:0
416,224,76902,1,0,0:0:0
368,272,77058,1,0,0:0:0
304,272,77215,1,0,0:0:0
304,272,77293,1,0,0:0:0
304,272,77371,1,0,0:0:0
304,272,77449,1,0,0:0:0
304,272,77527,1,4,0:0:0
256,192,77684,12,0,80653,0:0:0
256,112,80966,5,0,0:0:0
312,135,81122,1,0,0:0:0
336,192,81278,1,0,0:0:0
312,248,81435,1,0,0:0:0
256,272,81591,1,0,0:0:0
199,248,81747,1,0,0:0:0
176,192,81904,1,0,0:0:0
199,135,82060,1,0,0:0:0
256,192,82216,1,0,0:0:0
256,192,82294,1,0,0:0:0
256,192,82373,1,0,0:0:0
256,192,82451,1,0,0:0:0
256,192,82529,5,4,0:0:0
