osu file format v14

[General]
AudioFilename: Battle! Roaming Legendary Pokemon.mp3
AudioLeadIn: 0
PreviewTime: 53051
Countdown: 0
SampleSet: Normal
StackLeniency: 0.7
Mode: 1
LetterboxInBreaks: 0
WidescreenStoryboard: 0

[Editor]
DistanceSpacing: 0.9
BeatDivisor: 4
GridSize: 4
TimelineZoom: 1

[Metadata]
Title:Battle! (Legendary Pokemon)
TitleUnicode:戦闘!伝説のポケモン
Artist:Junichi Masuda
ArtistUnicode:増田順一
Creator:Charlotte
Version:Muzukashii
Source:Pokemon: Black/White
Tags:Go Ichinose 一之瀬剛 ポケモン ポケットモンスター Pocket Monsters ブラック ホワイト game freak nintendo sala- stefan thenutritiousguy tng
BeatmapID:514689
BeatmapSetID:219713

[Difficulty]
HPDrainRate:5
CircleSize:5
OverallDifficulty:4
ApproachRate:5
SliderMultiplier:1.4
SliderTickRate:1

[Events]
//Background and Video events
0,0,"BG.jpg",0,100
//Break Periods
//Storyboard Layer 0 (Background)
//Storyboard Layer 1 (Fail)
//Storyboard Layer 2 (Pass)
//Storyboard Layer 3 (Foreground)
//Storyboard Sound Samples

[TimingPoints]
14,344.827586206897,4,1,0,70,1,0
35876,-100,4,1,0,80,0,1
46910,365.853658536585,4,1,0,70,1,0
48373,375,4,1,0,70,1,0
49873,402.684563758389,4,1,0,70,1,0
51483,416.666666666667,4,1,0,70,1,0
53149,422.535211267606,4,1,0,70,1,0
54839,392.156862745098,4,1,0,70,1,0
56407,370.37037037037,4,1,0,70,1,0
57888,346.820809248555,4,1,0,70,1,0
59275,327.868852459016,4,1,0,70,1,0
61897,303.030303030303,4,1,0,70,1,0
67957,348.837209302326,4,1,0,70,1,0
68654,389.61038961039,4,1,0,70,1,0
69433,344.827586206897,4,1,0,70,1,0
74950,-100,4,1,0,80,0,1
85984,-100,4,1,0,70,0,0

[HitObjects]
256,192,2427,5,12,0:0:0:0:
256,192,2772,1,0,0:0:0:0:
256,192,3117,1,0,0:0:0:0:
256,192,3462,1,0,0:0:0:0:
256,192,3634,1,0,0:0:0:0:
256,192,3807,1,0,0:0:0:0:
256,192,4151,1,8,0:0:0:0:
256,192,4496,1,8,0:0:0:0:
256,192,4841,1,8,0:0:0:0:
256,192,5531,1,0,0:0:0:0:
256,192,5876,1,0,0:0:0:0:
256,192,6220,1,0,0:0:0:0:
256,192,6393,1,0,0:0:0:0:
256,192,6565,1,0,0:0:0:0:
256,192,6910,1,0,0:0:0:0:
256,192,7255,1,0,0:0:0:0:
256,192,7600,1,8,0:0:0:0:
256,192,8289,1,0,0:0:0:0:
256,192,8462,1,0,0:0:0:0:
256,192,8634,1,0,0:0:0:0:
256,192,8979,1,8,0:0:0:0:
256,192,9669,1,0,0:0:0:0:
256,192,9841,1,0,0:0:0:0:
256,192,10014,1,0,0:0:0:0:
256,192,10358,1,8,0:0:0:0:
256,192,10531,1,8,0:0:0:0:
256,192,10703,1,0,0:0:0:0:
256,192,11048,1,0,0:0:0:0:
256,192,11220,1,0,0:0:0:0:
256,192,11393,1,0,0:0:0:0:
256,192,11738,1,8,0:0:0:0:
256,192,12427,1,0,0:0:0:0:
256,192,12600,1,0,0:0:0:0:
256,192,12772,1,0,0:0:0:0:
256,192,13117,1,8,0:0:0:0:
256,192,13462,1,8,0:0:0:0:
256,192,13807,1,4,0:0:0:0:
256,192,14151,1,0,0:0:0:0:
256,192,14324,1,0,0:0:0:0:
256,192,14669,1,0,0:0:0:0:
256,192,14841,1,8,0:0:0:0:
256,192,15186,1,0,0:0:0:0:
256,192,15358,1,8,0:0:0:0:
256,192,15876,1,8,0:0:0:0:
256,192,16220,1,0,0:0:0:0:
256,192,16565,1,4,0:0:0:0:
256,192,16910,1,0,0:0:0:0:
256,192,17082,1,0,0:0:0:0:
256,192,17427,1,0,0:0:0:0:
256,192,17600,1,8,0:0:0:0:
256,192,17945,1,0,0:0:0:0:
256,192,18117,1,0,0:0:0:0:
256,192,18634,1,8,0:0:0:0:
256,192,18979,1,0,0:0:0:0:
256,192,19324,1,4,0:0:0:0:
256,192,19669,1,0,0:0:0:0:
256,192,19841,1,8,0:0:0:0:
256,192,20186,1,0,0:0:0:0:
256,192,20358,1,8,0:0:0:0:
256,192,20703,1,0,0:0:0:0:
256,192,20876,1,0,0:0:0:0:
256,192,21393,1,8,0:0:0:0:
256,192,21738,1,8,0:0:0:0:
256,192,22082,1,4,0:0:0:0:
256,192,22427,1,0,0:0:0:0:
256,192,22600,1,8,0:0:0:0:
256,192,22945,1,0,0:0:0:0:
256,192,23117,1,8,0:0:0:0:
256,192,23462,1,0,0:0:0:0:
256,192,23634,1,8,0:0:0:0:
256,192,24151,1,8,0:0:0:0:
256,192,24238,1,8,0:0:0:0:
256,192,24324,1,8,0:0:0:0:
256,192,24496,1,8,0:0:0:0:
256,192,24841,1,4,0:0:0:0:
256,192,25186,1,0,0:0:0:0:
256,192,25358,1,0,0:0:0:0:
256,192,25703,1,0,0:0:0:0:
256,192,25876,1,8,0:0:0:0:
256,192,26220,1,0,0:0:0:0:
256,192,26393,1,8,0:0:0:0:
256,192,26910,1,8,0:0:0:0:
256,192,27255,1,0,0:0:0:0:
256,192,27600,1,4,0:0:0:0:
256,192,27945,1,0,0:0:0:0:
256,192,28117,1,0,0:0:0:0:
256,192,28462,1,0,0:0:0:0:
256,192,28634,1,8,0:0:0:0:
256,192,28979,1,0,0:0:0:0:
256,192,29151,1,0,0:0:0:0:
256,192,29669,1,8,0:0:0:0:
256,192,30014,1,0,0:0:0:0:
256,192,30358,1,4,0:0:0:0:
256,192,30703,1,0,0:0:0:0:
256,192,30876,1,8,0:0:0:0:
256,192,31220,1,0,0:0:0:0:
256,192,31393,1,8,0:0:0:0:
256,192,31738,1,0,0:0:0:0:
256,192,31910,1,0,0:0:0:0:
256,192,32427,1,8,0:0:0:0:
256,192,32772,1,0,0:0:0:0:
256,192,33117,1,4,0:0:0:0:
256,192,33462,1,0,0:0:0:0:
256,192,33634,1,8,0:0:0:0:
256,192,33979,1,0,0:0:0:0:
256,192,34151,1,8,0:0:0:0:
256,192,34496,1,0,0:0:0:0:
256,192,34669,1,8,0:0:0:0:
256,192,35186,1,8,0:0:0:0:
256,192,35531,1,0,0:0:0:0:
256,192,35876,1,4,0:0:0:0:
256,192,36134,1,0,0:0:0:0:
256,192,36393,1,0,0:0:0:0:
256,192,36565,1,8,0:0:0:0:
256,192,37255,1,0,0:0:0:0:
256,192,37514,1,0,0:0:0:0:
256,192,37772,1,0,0:0:0:0:
256,192,37945,1,8,0:0:0:0:
256,192,38289,1,8,0:0:0:0:
256,192,38461,1,8,0:0:0:0:
256,192,38634,1,0,0:0:0:0:
256,192,38893,1,0,0:0:0:0:
256,192,39151,1,0,0:0:0:0:
256,192,39324,1,8,0:0:0:0:
256,192,40014,1,0,0:0:0:0:
256,192,40272,1,0,0:0:0:0:
256,192,40531,1,0,0:0:0:0:
256,192,40703,1,8,0:0:0:0:
256,192,41048,1,8,0:0:0:0:
256,192,41220,1,8,0:0:0:0:
256,192,41393,1,4,0:0:0:0:
256,192,41651,1,0,0:0:0:0:
256,192,41910,1,0,0:0:0:0:
256,192,42082,1,8,0:0:0:0:
256,192,42773,1,0,0:0:0:0:
256,192,43032,1,0,0:0:0:0:
256,192,43290,1,0,0:0:0:0:
256,192,43463,1,8,0:0:0:0:
256,192,43807,1,8,0:0:0:0:
256,192,43980,1,8,0:0:0:0:
256,192,44151,1,0,0:0:0:0:
256,192,44410,1,0,0:0:0:0:
256,192,44669,1,0,0:0:0:0:
256,192,44841,1,8,0:0:0:0:
256,192,45186,1,8,0:0:0:0:
256,192,45531,1,0,0:0:0:0:
256,192,45789,1,0,0:0:0:0:
256,192,46048,1,0,0:0:0:0:
256,192,46220,1,8,0:0:0:0:
256,192,46565,1,8,0:0:0:0:
256,192,46738,1,8,0:0:0:0:
256,192,46910,1,4,0:0:0:0:
256,192,47641,1,0,0:0:0:0:
256,192,48373,1,0,0:0:0:0:
256,192,48748,1,0,0:0:0:0:
256,192,48935,1,0,0:0:0:0:
256,192,49123,1,8,0:0:0:0:
256,192,49498,1,0,0:0:0:0:
256,192,49873,1,4,0:0:0:0:
256,192,50678,1,0,0:0:0:0:
256,192,51483,1,0,0:0:0:0:
256,192,51899,1,0,0:0:0:0:
256,192,52316,1,8,0:0:0:0:
256,192,52524,1,8,0:0:0:0:
256,192,52733,1,0,0:0:0:0:
256,192,53149,1,4,0:0:0:0:
256,192,53571,1,8,0:0:0:0:
256,192,53888,1,8,0:0:0:0:
256,192,53994,1,8,0:0:0:0:
256,192,54416,1,0,0:0:0:0:
256,192,54839,1,8,0:0:0:0:
256,192,55231,1,0,0:0:0:0:
256,192,55427,1,0,0:0:0:0:
256,192,55623,1,0,0:0:0:0:
256,192,56015,1,8,0:0:0:0:
256,192,56407,1,4,0:0:0:0:
256,192,56777,1,8,0:0:0:0:
256,192,57055,1,8,0:0:0:0:
256,192,57147,1,8,0:0:0:0:
256,192,57518,1,0,0:0:0:0:
256,192,57888,1,8,0:0:0:0:
256,192,58234,1,0,0:0:0:0:
256,192,58408,1,0,0:0:0:0:
256,192,58581,1,0,0:0:0:0:
256,192,59275,1,4,0:0:0:0:
256,192,59602,1,8,0:0:0:0:
256,192,59848,1,8,0:0:0:0:
256,192,59930,1,8,0:0:0:0:
256,192,60258,1,0,0:0:0:0:
256,192,60586,1,8,0:0:0:0:
256,192,60914,1,0,0:0:0:0:
256,192,61078,1,0,0:0:0:0:
256,192,61242,1,0,0:0:0:0:
256,192,61897,1,4,0:0:0:0:
256,192,62200,1,8,0:0:0:0:
256,192,62427,1,8,0:0:0:0:
256,192,62503,1,8,0:0:0:0:
256,192,62806,1,0,0:0:0:0:
256,192,63109,1,8,0:0:0:0:
256,192,63260,1,0,0:0:0:0:
256,192,63412,1,8,0:0:0:0:
256,192,63715,1,8,0:0:0:0:
256,192,64018,1,0,0:0:0:0:
256,192,64321,1,8,0:0:0:0:
256,192,64472,1,0,0:0:0:0:
256,192,64624,1,8,0:0:0:0:
256,192,64775,1,0,0:0:0:0:
256,192,64927,1,8,0:0:0:0:
256,192,65230,1,8,0:0:0:0:
256,192,65533,1,0,0:0:0:0:
256,192,65684,1,0,0:0:0:0:
256,192,65836,1,8,0:0:0:0:
256,192,65987,1,0,0:0:0:0:
256,192,66139,1,8,0:0:0:0:
256,192,66290,1,0,0:0:0:0:
256,192,66442,1,8,0:0:0:0:
256,192,66745,1,8,0:0:0:0:
256,192,66897,1,0,0:0:0:0:
256,192,67048,1,8,0:0:0:0:
256,192,67351,1,0,0:0:0:0:
256,192,67654,1,8,0:0:0:0:
256,192,67957,1,0,0:0:0:0:
256,192,68131,1,8,0:0:0:0:
256,192,68305,1,8,0:0:0:0:
256,192,68654,1,8,0:0:0:0:
256,192,68848,1,0,0:0:0:0:
256,192,69043,1,0,0:0:0:0:
256,192,69433,1,4,0:0:0:0:
256,192,69777,1,0,0:0:0:0:
256,192,69950,1,8,0:0:0:0:
256,192,70122,1,8,0:0:0:0:
256,192,70467,1,8,0:0:0:0:
256,192,70812,1,0,0:0:0:0:
256,192,70984,1,8,0:0:0:0:
256,192,71157,1,8,0:0:0:0:
256,192,71329,1,0,0:0:0:0:
256,192,71501,1,8,0:0:0:0:
256,192,71846,1,0,0:0:0:0:
256,192,72191,1,0,0:0:0:0:
256,192,72536,1,8,0:0:0:0:
256,192,72708,1,0,0:0:0:0:
256,192,72881,1,8,0:0:0:0:
256,192,73226,1,8,0:0:0:0:
256,192,73570,1,0,0:0:0:0:
256,192,73743,1,0,0:0:0:0:
256,192,73915,1,8,0:0:0:0:
256,192,74088,1,0,0:0:0:0:
256,192,74260,1,8,0:0:0:0:
256,192,74605,1,0,0:0:0:0:
256,192,74950,1,4,0:0:0:0:
256,192,75208,1,0,0:0:0:0:
256,192,75467,1,0,0:0:0:0:
256,192,75639,1,8,0:0:0:0:
256,192,76329,1,0,0:0:0:0:
256,192,76588,1,0,0:0:0:0:
256,192,76846,1,0,0:0:0:0:
256,192,77019,1,8,0:0:0:0:
256,192,77364,1,8,0:0:0:0:
256,192,77537,1,8,0:0:0:0:
256,192,77708,1,0,0:0:0:0:
256,192,77967,1,0,0:0:0:0:
256,192,78225,1,0,0:0:0:0:
256,192,78398,1,8,0:0:0:0:
256,192,79088,1,0,0:0:0:0:
256,192,79346,1,0,0:0:0:0:
256,192,79605,1,0,0:0:0:0:
256,192,79777,1,8,0:0:0:0:
256,192,80122,1,8,0:0:0:0:
256,192,80294,1,8,0:0:0:0:
256,192,80467,1,4,0:0:0:0:
256,192,80725,1,0,0:0:0:0:
256,192,80984,1,0,0:0:0:0:
256,192,81156,1,8,0:0:0:0:
256,192,81847,1,0,0:0:0:0:
256,192,82106,1,0,0:0:0:0:
256,192,82364,1,0,0:0:0:0:
256,192,82537,1,8,0:0:0:0:
256,192,82881,1,8,0:0:0:0:
256,192,83054,1,8,0:0:0:0:
256,192,83225,1,0,0:0:0:0:
256,192,83484,1,0,0:0:0:0:
256,192,83743,1,0,0:0:0:0:
256,192,83915,1,8,0:0:0:0:
256,192,84260,1,8,0:0:0:0:
256,192,84605,1,0,0:0:0:0:
256,192,84863,1,0,0:0:0:0:
256,192,85122,1,0,0:0:0:0:
256,192,85294,1,8,0:0:0:0:
256,192,85639,1,8,0:0:0:0:
256,192,85812,1,8,0:0:0:0:
256,192,85984,1,4,0:0:0:0:
256,192,86674,1,0,0:0:0:0:
256,192,87364,1,0,0:0:0:0:
256,192,87708,1,0,0:0:0:0:
256,192,88053,1,8,0:0:0:0:
256,192,88398,1,0,0:0:0:0:
256,192,88743,1,4,0:0:0:0:
256,192,89433,1,0,0:0:0:0:
256,192,90122,1,0,0:0:0:0:
256,192,90467,1,0,0:0:0:0:
256,192,90812,1,8,0:0:0:0:
256,192,91157,1,0,0:0:0:0:
256,192,91501,1,8,0:0:0:0:
256,192,91846,1,0,0:0:0:0:
256,192,92019,1,8,0:0:0:0:
256,192,92536,1,8,0:0:0:0:
256,192,93053,1,0,0:0:0:0:
256,192,93570,1,8,0:0:0:0:
256,192,93915,1,0,0:0:0:0:
256,192,94260,1,8,0:0:0:0:
256,192,94605,1,0,0:0:0:0:
256,192,94777,1,8,0:0:0:0:
256,192,95295,1,8,0:0:0:0:
256,192,95812,1,0,0:0:0:0:
256,192,96329,1,8,0:0:0:0:
256,192,96674,1,0,0:0:0:0:
256,192,97019,1,0,0:0:0:0:
256,192,97191,1,8,0:0:0:0:
256,192,97364,1,0,0:0:0:0:
256,192,97708,1,8,0:0:0:0:
256,192,98398,1,0,0:0:0:0:
256,192,98570,1,8,0:0:0:0:
256,192,98743,1,0,0:0:0:0:
256,192,98915,1,0,0:0:0:0:
256,192,99088,1,8,0:0:0:0:
256,192,99433,1,0,0:0:0:0:
256,192,99777,1,0,0:0:0:0:
256,192,99950,1,8,0:0:0:0:
256,192,100122,1,0,0:0:0:0:
256,192,100467,1,8,0:0:0:0:
256,192,101157,1,0,0:0:0:0:
256,192,101329,1,0,0:0:0:0:
256,192,101501,1,0,0:0:0:0:
256,192,101846,1,8,0:0:0:0:
256,192,102191,1,8,0:0:0:0:
256,192,102536,1,4,0:0:0:0:
