osu file format v14

[General]
AudioFilename: Battle! Roaming Legendary Pokemon.mp3
AudioLeadIn: 0
PreviewTime: 53051
Countdown: 0
SampleSet: Normal
StackLeniency: 0.7
Mode: 1
LetterboxInBreaks: 0
WidescreenStoryboard: 0

[Editor]
DistanceSpacing: 0.9
BeatDivisor: 4
GridSize: 4
TimelineZoom: 1

[Metadata]
Title:Battle! (Legendary Pokemon)
TitleUnicode:戦闘!伝説のポケモン
Artist:Junichi Masuda
ArtistUnicode:増田順一
Creator:Charlotte
Version:Inner Oni
Source:Pokemon: Black/White
Tags:Go Ichinose 一之瀬剛 ポケモン ポケットモンスター Pocket Monsters ブラック ホワイト game freak nintendo sala- stefan thenutritiousguy tng
BeatmapID:514690
BeatmapSetID:219713

[Difficulty]
HPDrainRate:6
CircleSize:5
OverallDifficulty:6
ApproachRate:5
SliderMultiplier:1.4
SliderTickRate:1

[Events]
//Background and Video events
0,0,"BG.jpg",0,100
//Break Periods
//Storyboard Layer 0 (Background)
//Storyboard Layer 1 (Fail)
//Storyboard Layer 2 (Pass)
//Storyboard Layer 3 (Foreground)
//Storyboard Sound Samples

[TimingPoints]
14,344.827586206897,4,1,0,70,1,0
35876,-100,4,1,0,80,0,1
46910,365.853658536585,4,1,0,70,1,0
48373,375,4,1,0,70,1,0
49873,402.684563758389,4,1,0,70,1,0
51483,416.666666666667,4,1,0,70,1,0
53149,422.535211267606,4,1,0,70,1,0
54839,392.156862745098,4,1,0,70,1,0
56407,370.37037037037,4,1,0,70,1,0
57888,346.820809248555,4,1,0,70,1,0
59275,327.868852459016,4,1,0,70,1,0
61897,303.030303030303,4,1,0,70,1,0
67957,348.837209302326,4,1,0,70,1,0
68654,389.61038961039,4,1,0,70,1,0
69433,344.827586206897,4,1,0,70,1,0
74950,-100,4,1,0,80,0,1
85984,-100,4,1,0,70,0,0

[HitObjects]
256,192,2427,5,12,0:0:0:0:
256,192,2772,1,0,0:0:0:0:
256,192,3117,1,0,0:0:0:0:
256,192,3462,1,0,0:0:0:0:
256,192,3634,1,0,0:0:0:0:
256,192,3807,1,0,0:0:0:0:
256,192,4151,1,0,0:0:0:0:
256,192,4266,1,0,0:0:0:0:
256,192,4381,1,0,0:0:0:0:
256,192,4496,1,8,0:0:0:0:
256,192,4841,1,8,0:0:0:0:
256,192,5186,1,0,0:0:0:0:
256,192,5531,1,0,0:0:0:0:
256,192,5876,1,0,0:0:0:0:
256,192,6220,1,0,0:0:0:0:
256,192,6393,1,0,0:0:0:0:
256,192,6565,1,8,0:0:0:0:
256,192,6910,1,0,0:0:0:0:
256,192,7082,1,0,0:0:0:0:
256,192,7255,1,0,0:0:0:0:
256,192,7600,1,8,0:0:0:0:
256,192,7772,1,8,0:0:0:0:
256,192,7945,1,0,0:0:0:0:
256,192,8289,1,4,0:0:0:0:
256,192,8462,1,0,0:0:0:0:
256,192,8548,1,0,0:0:0:0:
256,192,8634,1,0,0:0:0:0:
256,192,8807,1,0,0:0:0:0:
256,192,8979,1,8,0:0:0:0:
256,192,9151,1,0,0:0:0:0:
256,192,9324,1,0,0:0:0:0:
256,192,9669,1,0,0:0:0:0:
256,192,9841,1,0,0:0:0:0:
256,192,9927,1,0,0:0:0:0:
256,192,10014,1,8,0:0:0:0:
256,192,10186,1,0,0:0:0:0:
256,192,10358,1,0,0:0:0:0:
256,192,10445,1,0,0:0:0:0:
256,192,10531,1,0,0:0:0:0:
256,192,10703,1,8,0:0:0:0:
256,192,10876,1,0,0:0:0:0:
256,192,11048,1,0,0:0:0:0:
256,192,11220,1,0,0:0:0:0:
256,192,11307,1,0,0:0:0:0:
256,192,11393,1,8,0:0:0:0:
256,192,11565,1,0,0:0:0:0:
256,192,11738,1,8,0:0:0:0:
256,192,11824,1,0,0:0:0:0:
256,192,11996,1,0,0:0:0:0:
256,192,12082,1,8,0:0:0:0:
256,192,12255,1,0,0:0:0:0:
256,192,12427,1,8,0:0:0:0:
256,192,12514,1,8,0:0:0:0:
256,192,12600,1,0,0:0:0:0:
256,192,12686,1,8,0:0:0:0:
256,192,12772,1,0,0:0:0:0:
256,192,12858,1,0,0:0:0:0:
256,192,12945,1,8,0:0:0:0:
256,192,13117,1,8,0:0:0:0:
256,192,13289,1,0,0:0:0:0:
256,192,13462,1,8,0:0:0:0:
256,192,13807,1,4,0:0:0:0:
256,192,14151,1,0,0:0:0:0:
256,192,14238,1,0,0:0:0:0:
256,192,14324,1,8,0:0:0:0:
256,192,14496,1,0,0:0:0:0:
256,192,14669,1,0,0:0:0:0:
256,192,14755,1,0,0:0:0:0:
256,192,14841,1,8,0:0:0:0:
256,192,15014,1,0,0:0:0:0:
256,192,15186,1,0,0:0:0:0:
256,192,15272,1,0,0:0:0:0:
256,192,15358,1,8,0:0:0:0:
256,192,15531,1,0,0:0:0:0:
256,192,15617,1,0,0:0:0:0:
256,192,15703,1,8,0:0:0:0:
256,192,15789,1,0,0:0:0:0:
256,192,15876,1,8,0:0:0:0:
256,192,16220,1,8,0:0:0:0:
256,192,16565,1,4,0:0:0:0:
256,192,16910,1,0,0:0:0:0:
256,192,16996,1,0,0:0:0:0:
256,192,17082,1,8,0:0:0:0:
256,192,17255,1,0,0:0:0:0:
256,192,17427,1,0,0:0:0:0:
256,192,17514,1,0,0:0:0:0:
256,192,17600,1,8,0:0:0:0:
256,192,17772,1,0,0:0:0:0:
256,192,17945,1,0,0:0:0:0:
256,192,18031,1,0,0:0:0:0:
256,192,18117,1,8,0:0:0:0:
256,192,18203,1,8,0:0:0:0:
256,192,18289,1,0,0:0:0:0:
256,192,18462,1,8,0:0:0:0:
256,192,18548,1,0,0:0:0:0:
256,192,18634,1,8,0:0:0:0:
256,192,18979,1,8,0:0:0:0:
256,192,19324,1,4,0:0:0:0:
256,192,19669,1,0,0:0:0:0:
256,192,19755,1,0,0:0:0:0:
256,192,19841,1,8,0:0:0:0:
256,192,20014,1,0,0:0:0:0:
256,192,20186,1,0,0:0:0:0:
256,192,20272,1,0,0:0:0:0:
256,192,20358,1,8,0:0:0:0:
256,192,20531,1,0,0:0:0:0:
256,192,20703,1,0,0:0:0:0:
256,192,20789,1,0,0:0:0:0:
256,192,20876,1,8,0:0:0:0:
256,192,21048,1,8,0:0:0:0:
256,192,21134,1,8,0:0:0:0:
256,192,21220,1,0,0:0:0:0:
256,192,21307,1,0,0:0:0:0:
256,192,21393,1,8,0:0:0:0:
256,192,21738,1,8,0:0:0:0:
256,192,22082,1,4,0:0:0:0:
256,192,22427,1,0,0:0:0:0:
256,192,22514,1,0,0:0:0:0:
256,192,22600,1,8,0:0:0:0:
256,192,22772,1,0,0:0:0:0:
256,192,22945,1,8,0:0:0:0:
256,192,23031,1,8,0:0:0:0:
256,192,23117,1,0,0:0:0:0:
256,192,23289,1,0,0:0:0:0:
256,192,23462,1,0,0:0:0:0:
256,192,23548,1,0,0:0:0:0:
256,192,23634,1,8,0:0:0:0:
256,192,23807,1,0,0:0:0:0:
256,192,23979,1,0,0:0:0:0:
256,192,24151,1,8,0:0:0:0:
256,192,24238,1,8,0:0:0:0:
256,192,24324,1,8,0:0:0:0:
256,192,24410,1,8,0:0:0:0:
256,192,24496,1,0,0:0:0:0:
256,192,24669,1,8,0:0:0:0:
256,192,24841,1,4,0:0:0:0:
256,192,25186,1,0,0:0:0:0:
256,192,25272,1,0,0:0:0:0:
256,192,25358,1,8,0:0:0:0:
256,192,25531,1,0,0:0:0:0:
256,192,25703,1,0,0:0:0:0:
256,192,25789,1,0,0:0:0:0:
256,192,25876,1,8,0:0:0:0:
256,192,26048,1,0,0:0:0:0:
256,192,26220,1,0,0:0:0:0:
256,192,26307,1,0,0:0:0:0:
256,192,26393,1,8,0:0:0:0:
256,192,26479,1,0,0:0:0:0:
256,192,26565,1,0,0:0:0:0:
256,192,26651,1,0,0:0:0:0:
256,192,26738,1,8,0:0:0:0:
256,192,26824,1,0,0:0:0:0:
256,192,26910,1,0,0:0:0:0:
256,192,27255,1,8,0:0:0:0:
256,192,27600,1,4,0:0:0:0:
256,192,27945,1,0,0:0:0:0:
256,192,28031,1,0,0:0:0:0:
256,192,28117,1,8,0:0:0:0:
256,192,28289,1,0,0:0:0:0:
256,192,28462,1,8,0:0:0:0:
256,192,28548,1,8,0:0:0:0:
256,192,28634,1,0,0:0:0:0:
256,192,28807,1,0,0:0:0:0:
256,192,28979,1,0,0:0:0:0:
256,192,29065,1,0,0:0:0:0:
256,192,29151,1,8,0:0:0:0:
256,192,29238,1,0,0:0:0:0:
256,192,29324,1,8,0:0:0:0:
256,192,29410,1,8,0:0:0:0:
256,192,29496,1,0,0:0:0:0:
256,192,29582,1,0,0:0:0:0:
256,192,29669,1,8,0:0:0:0:
256,192,30014,1,8,0:0:0:0:
256,192,30358,1,4,0:0:0:0:
256,192,30703,1,0,0:0:0:0:
256,192,30789,1,0,0:0:0:0:
256,192,30876,1,8,0:0:0:0:
256,192,31048,1,0,0:0:0:0:
256,192,31220,1,0,0:0:0:0:
256,192,31307,1,0,0:0:0:0:
256,192,31393,1,8,0:0:0:0:
256,192,31565,1,0,0:0:0:0:
256,192,31738,1,0,0:0:0:0:
256,192,31824,1,0,0:0:0:0:
256,192,31910,1,8,0:0:0:0:
256,192,31996,1,0,0:0:0:0:
256,192,32082,1,0,0:0:0:0:
256,192,32169,1,0,0:0:0:0:
256,192,32255,1,8,0:0:0:0:
256,192,32341,1,0,0:0:0:0:
256,192,32427,1,8,0:0:0:0:
256,192,32772,1,8,0:0:0:0:
256,192,33117,1,4,0:0:0:0:
256,192,33462,1,0,0:0:0:0:
256,192,33548,1,0,0:0:0:0:
256,192,33634,1,8,0:0:0:0:
256,192,33807,1,0,0:0:0:0:
256,192,33979,1,8,0:0:0:0:
256,192,34065,1,8,0:0:0:0:
256,192,34151,1,0,0:0:0:0:
256,192,34324,1,0,0:0:0:0:
256,192,34496,1,0,0:0:0:0:
256,192,34582,1,0,0:0:0:0:
256,192,34669,1,8,0:0:0:0:
256,192,34755,1,0,0:0:0:0:
256,192,34841,1,8,0:0:0:0:
256,192,34927,1,0,0:0:0:0:
256,192,35014,1,0,0:0:0:0:
256,192,35100,1,0,0:0:0:0:
256,192,35186,1,8,0:0:0:0:
256,192,35531,1,8,0:0:0:0:
256,192,35876,1,0,0:0:0:0:
256,192,35962,1,8,0:0:0:0:
256,192,36134,1,0,0:0:0:0:
256,192,36220,1,8,0:0:0:0:
256,192,36307,1,8,0:0:0:0:
256,192,36393,1,0,0:0:0:0:
256,192,36565,1,8,0:0:0:0:
256,192,36651,1,0,0:0:0:0:
256,192,36824,1,8,0:0:0:0:
256,192,36910,1,8,0:0:0:0:
256,192,36996,1,8,0:0:0:0:
256,192,37082,1,0,0:0:0:0:
256,192,37255,1,0,0:0:0:0:
256,192,37341,1,8,0:0:0:0:
256,192,37514,1,8,0:0:0:0:
256,192,37600,1,8,0:0:0:0:
256,192,37686,1,0,0:0:0:0:
256,192,37772,1,8,0:0:0:0:
256,192,37945,1,0,0:0:0:0:
256,192,38031,1,8,0:0:0:0:
256,192,38203,1,8,0:0:0:0:
256,192,38289,1,0,0:0:0:0:
256,192,38462,1,8,0:0:0:0:
256,192,38634,1,0,0:0:0:0:
256,192,38720,1,8,0:0:0:0:
256,192,38893,1,0,0:0:0:0:
256,192,38979,1,8,0:0:0:0:
256,192,39065,1,0,0:0:0:0:
256,192,39151,1,0,0:0:0:0:
256,192,39324,1,8,0:0:0:0:
256,192,39410,1,0,0:0:0:0:
256,192,39582,1,8,0:0:0:0:
256,192,39669,1,0,0:0:0:0:
256,192,39755,1,0,0:0:0:0:
256,192,39841,1,8,0:0:0:0:
256,192,40014,1,8,0:0:0:0:
256,192,40100,1,8,0:0:0:0:
256,192,40272,1,8,0:0:0:0:
256,192,40358,1,0,0:0:0:0:
256,192,40445,1,8,0:0:0:0:
256,192,40531,1,8,0:0:0:0:
256,192,40703,1,0,0:0:0:0:
256,192,40789,1,8,0:0:0:0:
256,192,40962,1,8,0:0:0:0:
256,192,41048,1,0,0:0:0:0:
256,192,41220,1,8,0:0:0:0:
256,192,41393,1,0,0:0:0:0:
256,192,41479,1,8,0:0:0:0:
256,192,41651,1,8,0:0:0:0:
256,192,41738,1,0,0:0:0:0:
256,192,41824,1,0,0:0:0:0:
256,192,41910,1,8,0:0:0:0:
256,192,42082,1,8,0:0:0:0:
256,192,42169,1,0,0:0:0:0:
256,192,42341,1,8,0:0:0:0:
256,192,42427,1,0,0:0:0:0:
256,192,42514,1,8,0:0:0:0:
256,192,42600,1,8,0:0:0:0:
256,192,42772,1,8,0:0:0:0:
256,192,42858,1,0,0:0:0:0:
256,192,43031,1,8,0:0:0:0:
256,192,43117,1,8,0:0:0:0:
256,192,43203,1,8,0:0:0:0:
256,192,43289,1,0,0:0:0:0:
256,192,43462,1,0,0:0:0:0:
256,192,43548,1,8,0:0:0:0:
256,192,43720,1,8,0:0:0:0:
256,192,43807,1,0,0:0:0:0:
256,192,43979,1,8,0:0:0:0:
256,192,44151,1,0,0:0:0:0:
256,192,44238,1,8,0:0:0:0:
256,192,44410,1,8,0:0:0:0:
256,192,44496,1,8,0:0:0:0:
256,192,44582,1,0,0:0:0:0:
256,192,44669,1,8,0:0:0:0:
256,192,44841,1,8,0:0:0:0:
256,192,44927,1,0,0:0:0:0:
256,192,45100,1,8,0:0:0:0:
256,192,45186,1,0,0:0:0:0:
256,192,45272,1,0,0:0:0:0:
256,192,45358,1,8,0:0:0:0:
256,192,45531,1,0,0:0:0:0:
256,192,45617,1,8,0:0:0:0:
256,192,45789,1,0,0:0:0:0:
256,192,45876,1,8,0:0:0:0:
256,192,45962,1,8,0:0:0:0:
256,192,46048,1,0,0:0:0:0:
256,192,46220,1,0,0:0:0:0:
256,192,46307,1,8,0:0:0:0:
256,192,46393,1,0,0:0:0:0:
256,192,46479,1,0,0:0:0:0:
256,192,46565,1,8,0:0:0:0:
256,192,46651,1,8,0:0:0:0:
256,192,46738,1,0,0:0:0:0:
256,192,46910,1,4,0:0:0:0:
256,192,47275,1,0,0:0:0:0:
256,192,47641,1,0,0:0:0:0:
256,192,48007,1,0,0:0:0:0:
256,192,48373,1,0,0:0:0:0:
256,192,48748,1,0,0:0:0:0:
256,192,48935,1,0,0:0:0:0:
256,192,49123,1,8,0:0:0:0:
256,192,49498,1,0,0:0:0:0:
256,192,49873,1,4,0:0:0:0:
256,192,50275,1,0,0:0:0:0:
256,192,50477,1,0,0:0:0:0:
256,192,50678,1,0,0:0:0:0:
256,192,51081,1,0,0:0:0:0:
256,192,51483,1,0,0:0:0:0:
256,192,51691,1,0,0:0:0:0:
256,192,51899,1,0,0:0:0:0:
256,192,52316,1,8,0:0:0:0:
256,192,52524,1,8,0:0:0:0:
256,192,52733,1,0,0:0:0:0:
256,192,53149,1,4,0:0:0:0:
256,192,53571,1,0,0:0:0:0:
256,192,53888,1,0,0:0:0:0:
256,192,53994,1,8,0:0:0:0:
256,192,54416,1,0,0:0:0:0:
256,192,54839,1,8,0:0:0:0:
256,192,55035,1,0,0:0:0:0:
256,192,55231,1,0,0:0:0:0:
256,192,55427,1,0,0:0:0:0:
256,192,55623,1,8,0:0:0:0:
256,192,56015,1,8,0:0:0:0:
256,192,56407,1,4,0:0:0:0:
256,192,56777,1,0,0:0:0:0:
256,192,57055,1,0,0:0:0:0:
256,192,57147,1,8,0:0:0:0:
256,192,57518,1,0,0:0:0:0:
256,192,57888,1,8,0:0:0:0:
256,192,58061,1,0,0:0:0:0:
256,192,58234,1,0,0:0:0:0:
256,192,58408,1,0,0:0:0:0:
256,192,58581,1,8,0:0:0:0:
256,192,58928,1,8,0:0:0:0:
256,192,59275,1,4,0:0:0:0:
256,192,59602,1,0,0:0:0:0:
256,192,59848,1,0,0:0:0:0:
256,192,59930,1,8,0:0:0:0:
256,192,60258,1,0,0:0:0:0:
256,192,60586,1,8,0:0:0:0:
256,192,60750,1,0,0:0:0:0:
256,192,60914,1,0,0:0:0:0:
256,192,61078,1,0,0:0:0:0:
256,192,61242,1,8,0:0:0:0:
256,192,61570,1,8,0:0:0:0:
256,192,61897,1,4,0:0:0:0:
256,192,62200,1,0,0:0:0:0:
256,192,62427,1,0,0:0:0:0:
256,192,62503,1,8,0:0:0:0:
256,192,62806,1,0,0:0:0:0:
256,192,63109,1,8,0:0:0:0:
256,192,63184,1,8,0:0:0:0:
256,192,63260,1,0,0:0:0:0:
256,192,63412,1,8,0:0:0:0:
256,192,63563,1,0,0:0:0:0:
256,192,63715,1,8,0:0:0:0:
256,192,63790,1,0,0:0:0:0:
256,192,63866,1,8,0:0:0:0:
256,192,64018,1,8,0:0:0:0:
256,192,64169,1,0,0:0:0:0:
256,192,64245,1,0,0:0:0:0:
256,192,64321,1,8,0:0:0:0:
256,192,64472,1,0,0:0:0:0:
256,192,64624,1,8,0:0:0:0:
256,192,64775,1,0,0:0:0:0:
256,192,64927,1,8,0:0:0:0:
256,192,65230,1,8,0:0:0:0:
256,192,65533,1,0,0:0:0:0:
256,192,65684,1,8,0:0:0:0:
256,192,65836,1,8,0:0:0:0:
256,192,65987,1,0,0:0:0:0:
256,192,66139,1,8,0:0:0:0:
256,192,66215,1,8,0:0:0:0:
256,192,66290,1,0,0:0:0:0:
256,192,66442,1,8,0:0:0:0:
256,192,66593,1,0,0:0:0:0:
256,192,66745,1,8,0:0:0:0:
256,192,66821,1,8,0:0:0:0:
256,192,66897,1,0,0:0:0:0:
256,192,67048,1,0,0:0:0:0:
256,192,67200,1,8,0:0:0:0:
256,192,67351,1,8,0:0:0:0:
256,192,67503,1,0,0:0:0:0:
256,192,67654,1,8,0:0:0:0:
256,192,67957,1,0,0:0:0:0:
256,192,68131,1,8,0:0:0:0:
256,192,68305,1,8,0:0:0:0:
256,192,68480,1,0,0:0:0:0:
256,192,68654,1,8,0:0:0:0:
256,192,68848,1,0,0:0:0:0:
256,192,69043,1,0,0:0:0:0:
256,192,69238,1,0,0:0:0:0:
256,192,69433,1,4,0:0:0:0:
256,192,69605,1,8,0:0:0:0:
256,192,69777,1,8,0:0:0:0:
256,192,69950,1,0,0:0:0:0:
256,192,70122,1,8,0:0:0:0:
256,192,70467,1,8,0:0:0:0:
256,192,70812,1,0,0:0:0:0:
256,192,70984,1,8,0:0:0:0:
256,192,71157,1,8,0:0:0:0:
256,192,71329,1,0,0:0:0:0:
256,192,71501,1,8,0:0:0:0:
256,192,71674,1,0,0:0:0:0:
256,192,71846,1,8,0:0:0:0:
256,192,72019,1,8,0:0:0:0:
256,192,72191,1,0,0:0:0:0:
256,192,72364,1,0,0:0:0:0:
256,192,72536,1,0,0:0:0:0:
256,192,72708,1,8,0:0:0:0:
256,192,72881,1,8,0:0:0:0:
256,192,73226,1,8,0:0:0:0:
256,192,73570,1,0,0:0:0:0:
256,192,73743,1,8,0:0:0:0:
256,192,73915,1,8,0:0:0:0:
256,192,74088,1,0,0:0:0:0:
256,192,74260,1,8,0:0:0:0:
256,192,74433,1,8,0:0:0:0:
256,192,74605,1,0,0:0:0:0:
256,192,74777,1,0,0:0:0:0:
256,192,74950,1,0,0:0:0:0:
256,192,75036,1,8,0:0:0:0:
256,192,75208,1,8,0:0:0:0:
256,192,75295,1,0,0:0:0:0:
256,192,75381,1,0,0:0:0:0:
256,192,75467,1,8,0:0:0:0:
256,192,75639,1,8,0:0:0:0:
256,192,75726,1,0,0:0:0:0:
256,192,75898,1,8,0:0:0:0:
256,192,75984,1,8,0:0:0:0:
256,192,76070,1,0,0:0:0:0:
256,192,76157,1,8,0:0:0:0:
256,192,76329,1,0,0:0:0:0:
256,192,76415,1,8,0:0:0:0:
256,192,76588,1,8,0:0:0:0:
256,192,76674,1,0,0:0:0:0:
256,192,76760,1,0,0:0:0:0:
256,192,76846,1,8,0:0:0:0:
256,192,77019,1,8,0:0:0:0:
256,192,77105,1,8,0:0:0:0:
256,192,77277,1,8,0:0:0:0:
256,192,77364,1,0,0:0:0:0:
256,192,77536,1,8,0:0:0:0:
256,192,77708,1,0,0:0:0:0:
256,192,77795,1,8,0:0:0:0:
256,192,77967,1,8,0:0:0:0:
256,192,78053,1,0,0:0:0:0:
256,192,78139,1,0,0:0:0:0:
256,192,78226,1,8,0:0:0:0:
256,192,78398,1,8,0:0:0:0:
256,192,78484,1,0,0:0:0:0:
256,192,78657,1,0,0:0:0:0:
256,192,78743,1,8,0:0:0:0:
256,192,78829,1,0,0:0:0:0:
256,192,78915,1,8,0:0:0:0:
256,192,79088,1,0,0:0:0:0:
256,192,79174,1,8,0:0:0:0:
256,192,79346,1,8,0:0:0:0:
256,192,79433,1,0,0:0:0:0:
256,192,79519,1,0,0:0:0:0:
256,192,79605,1,8,0:0:0:0:
256,192,79777,1,0,0:0:0:0:
256,192,79864,1,8,0:0:0:0:
256,192,80036,1,8,0:0:0:0:
256,192,80122,1,0,0:0:0:0:
256,192,80295,1,8,0:0:0:0:
256,192,80467,1,0,0:0:0:0:
256,192,80553,1,8,0:0:0:0:
256,192,80726,1,8,0:0:0:0:
256,192,80812,1,0,0:0:0:0:
256,192,80898,1,0,0:0:0:0:
256,192,80984,1,8,0:0:0:0:
256,192,81157,1,8,0:0:0:0:
256,192,81243,1,0,0:0:0:0:
256,192,81415,1,0,0:0:0:0:
256,192,81501,1,8,0:0:0:0:
256,192,81588,1,8,0:0:0:0:
256,192,81674,1,0,0:0:0:0:
256,192,81846,1,0,0:0:0:0:
256,192,81933,1,8,0:0:0:0:
256,192,82105,1,8,0:0:0:0:
256,192,82191,1,8,0:0:0:0:
256,192,82277,1,0,0:0:0:0:
256,192,82364,1,8,0:0:0:0:
256,192,82536,1,0,0:0:0:0:
256,192,82622,1,8,0:0:0:0:
256,192,82795,1,8,0:0:0:0:
256,192,82881,1,0,0:0:0:0:
256,192,83053,1,8,0:0:0:0:
256,192,83226,1,0,0:0:0:0:
256,192,83312,1,8,0:0:0:0:
256,192,83484,1,8,0:0:0:0:
256,192,83570,1,0,0:0:0:0:
256,192,83657,1,0,0:0:0:0:
256,192,83743,1,8,0:0:0:0:
256,192,83915,1,8,0:0:0:0:
256,192,84001,1,0,0:0:0:0:
256,192,84174,1,0,0:0:0:0:
256,192,84260,1,8,0:0:0:0:
256,192,84346,1,8,0:0:0:0:
256,192,84433,1,0,0:0:0:0:
256,192,84605,1,0,0:0:0:0:
256,192,84691,1,8,0:0:0:0:
256,192,84864,1,8,0:0:0:0:
256,192,84950,1,0,0:0:0:0:
256,192,85036,1,0,0:0:0:0:
256,192,85122,1,8,0:0:0:0:
256,192,85295,1,0,0:0:0:0:
256,192,85381,1,8,0:0:0:0:
256,192,85553,1,8,0:0:0:0:
256,192,85639,1,0,0:0:0:0:
256,192,85726,1,0,0:0:0:0:
256,192,85812,1,8,0:0:0:0:
256,192,85898,1,8,0:0:0:0:
256,192,85984,1,0,0:0:0:0:
256,192,86329,1,0,0:0:0:0:
256,192,86501,1,8,0:0:0:0:
256,192,86846,1,0,0:0:0:0:
256,192,87019,1,8,0:0:0:0:
256,192,87364,1,0,0:0:0:0:
256,192,87536,1,8,0:0:0:0:
256,192,87881,1,8,0:0:0:0:
256,192,88053,1,8,0:0:0:0:
256,192,88398,1,0,0:0:0:0:
256,192,88743,1,4,0:0:0:0:
256,192,89088,1,8,0:0:0:0:
256,192,89260,1,0,0:0:0:0:
256,192,89605,1,0,0:0:0:0:
256,192,89777,1,0,0:0:0:0:
256,192,90122,1,0,0:0:0:0:
256,192,90295,1,0,0:0:0:0:
256,192,90639,1,0,0:0:0:0:
256,192,90812,1,8,0:0:0:0:
256,192,91157,1,0,0:0:0:0:
256,192,91501,1,8,0:0:0:0:
256,192,91846,1,0,0:0:0:0:
256,192,92019,1,0,0:0:0:0:
256,192,92364,1,0,0:0:0:0:
256,192,92536,1,8,0:0:0:0:
256,192,92881,1,0,0:0:0:0:
256,192,93053,1,8,0:0:0:0:
256,192,93570,1,8,0:0:0:0:
256,192,93915,1,0,0:0:0:0:
256,192,94260,1,8,0:0:0:0:
256,192,94605,1,8,0:0:0:0:
256,192,94777,1,0,0:0:0:0:
256,192,95122,1,0,0:0:0:0:
256,192,95295,1,8,0:0:0:0:
256,192,95639,1,8,0:0:0:0:
256,192,95812,1,0,0:0:0:0:
256,192,96329,1,8,0:0:0:0:
256,192,96674,1,0,0:0:0:0:
256,192,97019,1,4,0:0:0:0:
256,192,97191,1,0,0:0:0:0:
256,192,97364,1,0,0:0:0:0:
256,192,97708,1,8,0:0:0:0:
256,192,98053,1,0,0:0:0:0:
256,192,98398,1,0,0:0:0:0:
256,192,98570,1,0,0:0:0:0:
256,192,98743,1,8,0:0:0:0:
256,192,98915,1,8,0:0:0:0:
256,192,99088,1,0,0:0:0:0:
256,192,99260,1,0,0:0:0:0:
256,192,99433,1,0,0:0:0:0:
256,192,99777,1,0,0:0:0:0:
256,192,99950,1,0,0:0:0:0:
256,192,100122,1,0,0:0:0:0:
256,192,100467,1,8,0:0:0:0:
256,192,100812,1,0,0:0:0:0:
256,192,101157,1,0,0:0:0:0:
256,192,101243,1,0,0:0:0:0:
256,192,101329,1,0,0:0:0:0:
256,192,101415,1,0,0:0:0:0:
256,192,101501,1,8,0:0:0:0:
256,192,101588,1,0,0:0:0:0:
256,192,101674,1,8,0:0:0:0:
256,192,101760,1,8,0:0:0:0:
256,192,101846,1,8,0:0:0:0:
256,192,102019,1,0,0:0:0:0:
256,192,102191,1,8,0:0:0:0:
256,192,102536,1,4,0:0:0:0:
