osu file format v12

[General]
AudioFilename: BGM (67).mp3
AudioLeadIn: 0
PreviewTime: 0
Countdown: 0
SampleSet: Normal
StackLeniency: 0.7
Mode: 0
LetterboxInBreaks: 1
WidescreenStoryboard: 0

[Editor]
DistanceSpacing: 0.8
BeatDivisor: 4
GridSize: 8

[Metadata]
Title:Nostale BGM in Act 5
TitleUnicode:Nostale BGM in Act 5
Artist:Jung Jun Hyuck
ArtistUnicode:Jung Jun Hyuck
Creator:Sky WinGx
Version:Fire
Source:Nostale
Tags:Game soundtrack RPG mmorpg
BeatmapID:274003
BeatmapSetID:104131

[Difficulty]
HPDrainRate:7
CircleSize:4
OverallDifficulty:7
ApproachRate:9
SliderMultiplier:2.5
SliderTickRate:1

[Events]
//Background and Video events
0,0,"ninjago-fire-dragon-hd-341631.jpg",0,0
//Break Periods
//Storyboard Layer 0 (Background)
//Storyboard Layer 1 (Fail)
//Storyboard Layer 2 (Pass)
//Storyboard Layer 3 (Foreground)
//Storyboard Sound Samples
//Background Colour Transformations
3,100,198,0,0

[TimingPoints]
300,300,4,1,0,50,1,0
32625,-100,4,2,0,40,0,0

[Colours]
Combo1 : 236,0,236
Combo2 : 255,255,0
Combo3 : 5,5,240
Combo4 : 240,5,5

[HitObjects]
160,96,300,5,6,0:0:0:0:
352,96,500,1,4,0:0:0:0:
352,288,700,1,4,0:0:0:0:
160,288,900,1,6,0:0:0:0:
256,96,1100,1,4,0:0:0:0:
380,288,1300,1,0,0:0:0:0:
160,288,1500,5,4,0:0:0:0:
300,144,1800,2,0,B|328:96|392:120|416:56,2,125
104,192,2400,2,0,P|88:120|140:72,1,125
208,44,2700,2,0,P|296:60|392:240,1,250
388,276,3150,5,0,0:0:0:0:
380,284,3225,1,0,0:0:0:0:
372,288,3300,1,0,0:0:0:0:
172,296,3600,2,0,B|132:332|100:232|36:324,2,125
332,176,4200,2,0,P|360:128|360:56,2,125
256,240,4650,1,0,0:0:0:0:
248,244,4725,1,0,0:0:0:0:
240,252,4800,1,0,0:0:0:0:
60,344,5100,5,4,0:0:0:0:
136,160,5400,2,0,P|168:112|256:104,2,125
252,324,6000,2,0,P|304:332|372:280,1,125
360,196,6300,2,0,P|256:144|148:208,1,250
144,304,6750,5,0,0:0:0:0:
156,308,6825,1,0,0:0:0:0:
168,312,6900,1,0,0:0:0:0:
368,320,7200,2,0,P|392:264|372:196,1,125
320,120,7500,1,0,0:0:0:0:
124,88,7800,2,0,B|96:160|172:152|108:260,1,125
136,308,8100,5,4,0:0:0:0:
148,308,8175,1,4,0:0:0:0:
160,308,8250,1,4,0:0:0:0:
172,308,8325,1,4,0:0:0:0:
184,308,8400,1,4,0:0:0:0:
196,308,8475,1,4,0:0:0:0:
208,308,8550,1,4,0:0:0:0:
220,308,8625,1,4,0:0:0:0:
232,308,8700,1,4,0:0:0:0:
412,220,9000,6,0,B|448:180|408:132|472:96,2,125
248,336,9600,1,0,0:0:0:0:
160,288,9750,1,0,0:0:0:0:
120,196,9900,2,0,P|236:96|284:144,1,250
288,144,10275,1,0,0:0:0:0:
296,152,10350,1,0,0:0:0:0:
344,240,10500,5,0,0:0:0:0:
152,296,10800,2,0,B|128:336|72:312|48:368,2,125
320,184,11400,1,0,0:0:0:0:
256,112,11550,1,0,0:0:0:0:
160,112,11700,2,0,P|144:160|264:304,1,250
344,264,12150,5,0,0:0:0:0:
352,256,12225,1,0,0:0:0:0:
360,248,12300,1,4,0:0:0:0:
376,48,12600,2,0,P|312:32|224:80,1,125
176,104,12900,1,0,0:0:0:0:
104,288,13200,5,0,0:0:0:0:
192,328,13350,1,0,0:0:0:0:
288,360,13500,2,0,P|392:296|416:176,1,250
384,80,13950,5,0,0:0:0:0:
376,80,14025,1,0,0:0:0:0:
368,80,14100,1,0,0:0:0:0:
176,152,14400,2,0,B|174:203|249:213|248:264,2,125
368,88,15000,2,0,P|408:144|376:200,1,125
312,256,15300,5,0,0:0:0:0:
281,261,15375,1,0,0:0:0:0:
250,259,15450,1,0,0:0:0:0:
220,249,15525,1,0,0:0:0:0:
194,233,15600,1,0,0:0:0:0:
172,210,15675,1,0,0:0:0:0:
156,183,15750,1,0,0:0:0:0:
148,153,15825,1,0,0:0:0:0:
146,122,15900,1,0,0:0:0:0:
344,96,16200,5,0,0:0:0:0:
384,184,16350,1,0,0:0:0:0:
368,280,16500,1,0,0:0:0:0:
168,304,16800,2,0,P|120:256|128:176,1,125
168,112,17100,2,0,P|288:136|320:280,1,250
136,296,17700,5,0,0:0:0:0:
200,104,18000,1,0,0:0:0:0:
296,88,18150,1,0,0:0:0:0:
384,128,18300,1,0,0:0:0:0:
440,320,18600,2,0,P|376:352|312:312,1,125
240,288,18900,2,0,B|176:192|272:128|224:40,1,250
136,80,19350,5,0,0:0:0:0:
127,93,19425,1,0,0:0:0:0:
118,106,19500,1,4,0:0:0:0:
144,304,19800,2,0,P|200:336|264:296,1,125
344,264,20100,1,0,0:0:0:0:
328,64,20400,5,0,0:0:0:0:
232,72,20550,1,0,0:0:0:0:
160,136,20700,1,0,0:0:0:0:
256,312,21000,1,0,0:0:0:0:
256,192,21300,12,0,22200,0:0:0:0:
256,96,22500,5,8,0:0:0:0:
352,192,22650,1,8,0:0:0:0:
256,288,22800,1,8,0:0:0:0:
160,192,22950,1,8,0:0:0:0:
256,192,23100,12,0,24000,0:0:0:0:
256,96,24300,5,8,0:0:0:0:
160,192,24450,1,8,0:0:0:0:
256,288,24600,1,8,0:0:0:0:
352,192,24750,1,8,0:0:0:0:
256,192,24900,12,0,25800,0:0:0:0:
160,96,26100,5,0,0:0:0:0:
256,96,26250,1,0,0:0:0:0:
352,96,26400,1,0,0:0:0:0:
256,288,26700,5,4,0:0:0:0:
176,128,27000,1,0,0:0:0:0:
208,96,27075,1,0,0:0:0:0:
256,80,27150,1,0,0:0:0:0:
304,96,27225,1,0,0:0:0:0:
336,128,27300,1,0,0:0:0:0:
264,312,27600,6,0,L|264:176,1,125
256,88,27900,2,0,P|224:88|192:120,7,62.5
176,128,28500,5,0,0:0:0:0:
160,154,28575,1,0,0:0:0:0:
150,184,28650,1,0,0:0:0:0:
148,215,28725,1,0,0:0:0:0:
154,246,28800,1,0,0:0:0:0:
169,273,28875,1,0,0:0:0:0:
191,295,28950,1,0,0:0:0:0:
219,308,29025,1,0,0:0:0:0:
250,313,29100,5,0,0:0:0:0:
281,307,29175,1,0,0:0:0:0:
308,293,29250,1,0,0:0:0:0:
331,272,29325,1,0,0:0:0:0:
346,245,29400,1,0,0:0:0:0:
353,214,29475,1,0,0:0:0:0:
352,183,29550,1,0,0:0:0:0:
344,153,29625,1,0,0:0:0:0:
328,126,29700,5,0,0:0:0:0:
305,105,29775,1,0,0:0:0:0:
277,92,29850,1,0,0:0:0:0:
246,89,29925,1,0,0:0:0:0:
216,96,30000,1,0,0:0:0:0:
190,114,30075,1,0,0:0:0:0:
170,138,30150,1,0,0:0:0:0:
156,165,30225,1,0,0:0:0:0:
147,195,30300,5,0,0:0:0:0:
256,192,30375,12,0,32700,0:0:0:0:
