osu file format v5

[General]
AudioFilename: Jung Hyun Lee - Fun Fun.mp3
AudioLeadIn: 0
PreviewTime: -1
Countdown: 1
SampleSet: Normal
StackLeniency: 0.7
Mode: 0
EditorBookmarks: 15036,101755

[Metadata]
Title:Fun Fun
Artist:Jung Hyun Lee
Creator:EiJi
Version:Easier
Source:
Tags:

[Difficulty]
HPDrainRate:4
CircleSize:5
OverallDifficulty:4
SliderMultiplier:1.2
SliderTickRate:2

[Events]
//Background and Video events
0,0,"ljh.jpg"
//Break Periods
2,37736,39148
2,76642,78523
//Storyboard Layer 0 (Background)
//Storyboard Layer 1 (Failing)
//Storyboard Layer 2 (Passing)
//Storyboard Layer 3 (Foreground)
//Storyboard Sound Samples
//Background Colour Transformations
3,100,163,162,255

[TimingPoints]
505,468.75,4,1,0,100
30505,468.75,4,2,0,100
38005,468.75,4,1,0,100
54880,937.5,4,2,0,100
62380,468.75,4,1,0,100
94255,937.5,4,2,0,100
101755,468.75,4,1,0,100
116755,468.75,4,2,0,100

[HitObjects]
96,96,15505,2,0,B|240:96,3,120
217,168,17380,1,4
219,239,17848,2,0,B|96:240,2,120
288,240,19255,1,4
352,240,19723,2,0,B|496:240,2,120
352,96,21598,1,4
208,96,22536,1,4
64,96,23473,6,0,B|64:240,1,120
128,224,24411,1,0
192,224,24880,1,4
256,224,25348,2,0,B|400:224,1,120
448,224,26286,1,0
448,288,26755,1,4
448,352,27223,2,0,B|320:352,2,120
448,208,29098,1,4
448,64,30036,1,4
368,64,30505,6,4,B|272:64,2,90
368,176,31911,1,0
368,240,32380,6,4,B|480:240,2,90
256,240,33786,1,0
176,240,34255,6,4,B|176:128,1,90
176,96,34958,2,4,B|304:96,1,120
296,96,35661,1,0
368,96,36130,5,0
368,96,36481,1,0
368,96,36833,1,4
368,160,37301,1,4
368,160,37536,1,4
80,80,40348,5,0
80,144,40817,1,0
80,208,41286,2,0,B|144:208,6,60
80,320,43395,2,0,B|144:320,13,60
352,288,47848,6,0,B|496:288,2,120
272,288,49255,2,0,B|160:288|160:288|144:272|144:272|144:224|144:224|160:208|160:208|208:208,1,240
336,208,51130,5,0
336,128,51598,1,0
256,128,52067,1,0
176,128,52536,2,0,B|48:128,1,120
48,192,53473,2,0,B|176:192,1,120
240,192,54880,6,2,B|384:192,3,120
432,192,58630,2,2,B|480:192,8,30
432,256,61442,6,0,B|480:256,2,45
400,256,62380,1,4
320,256,62848,2,0,B|256:256,2,60
320,176,63786,2,0,B|384:176,2,60
320,64,64958,1,0
320,64,65192,1,0
208,64,65895,5,4
208,64,66130,1,4
208,176,66833,5,4
208,176,67067,1,4
208,288,67770,6,4,B|288:288,5,60
272,144,69880,5,0
336,144,70348,2,0,B|336:80,2,60
400,144,71286,2,0,B|400:208,3,60
400,272,72458,1,0
400,272,72692,1,0
288,272,73395,5,4
288,272,73630,1,4
176,272,74333,5,4
176,272,74567,1,4
64,272,75270,6,4,B|64:208,5,60
256,256,79723,6,0,B|256:112,1,120
320,144,80661,2,0,B|320:288,1,120
320,264,81364,1,0
320,336,81833,1,0
320,336,82067,1,0
208,336,82770,6,0,B|208:272,5,60
80,336,84880,6,0,B|80:256,4,60
64,112,87223,5,0
64,176,87692,1,0
64,240,88161,1,0
64,240,88395,1,0
64,240,88630,1,0
208,240,89567,1,0
304,320,90505,5,0
352,272,90973,5,0
304,224,91442,1,0
352,176,91911,5,0
304,128,92380,1,0
352,80,92848,5,0
288,48,93317,1,0
160,48,94255,6,2,B|160:192,1,120
160,240,96130,6,2,B|304:240,1,120
352,240,98005,5,2
352,208,98473,5,2
352,176,98942,5,2
352,144,99411,5,2
352,112,99880,5,2
272,112,100817,6,4,B|272:160,2,45
160,112,102223,5,0
128,112,102458,5,0
96,112,102692,5,0
96,176,103161,5,0
128,176,103395,5,0
160,176,103630,5,0
128,272,104333,5,0
128,304,104567,1,0
240,304,105270,5,4
240,304,105505,2,4,B|352:304|352:304|352:224,1,180
352,235,106442,6,4,B|352:144|352:144|256:144,1,180
262,144,107380,6,4,B|192:144,4,60
128,96,109255,6,0,B|128:224,1,120
128,216,109958,1,0
128,216,110192,6,0,B|255:216,1,120
248,216,110895,1,0
248,216,111130,6,0,B|384:218|384:218|384:112,1,240
272,112,112770,5,0
272,112,113005,1,0
192,112,113473,5,4
160,112,113708,5,0
160,112,113942,1,0
80,112,114411,1,4
48,112,114645,6,4,B|48:192,5,60
160,96,116755,5,4
224,96,117223,1,4
224,96,117458,1,4
224,96,117692,1,4
288,96,118161,1,4
352,96,118630,1,4
416,96,119098,1,4
416,96,119333,1,4
416,96,119567,1,4
416,240,120505,5,4
352,240,120973,1,4
352,240,121208,1,4
352,240,121442,1,4
288,240,121911,1,4
224,240,122380,1,4
160,240,122848,1,4
96,240,123317,1,4
80,96,124255,5,4
144,96,124723,2,4,B|208:96,2,60
144,160,125661,2,4,B|272:160,1,120
320,160,126598,1,4
320,160,126833,1,4
320,160,127067,1,4
320,304,128005,6,4,B|176:304,1,120
200,304,128708,1,4
200,304,128942,1,4
128,304,129411,1,4
96,240,129880,1,4
128,176,130348,1,4
96,112,130817,1,4
