osu file format v9

[General]
AudioFilename: Mysterious Mountain.mp3
AudioLeadIn: 1511
PreviewTime: 548
Countdown: 1
SampleSet: Normal
StackLeniency: 0.7
Mode: 0
LetterboxInBreaks: 1

[Editor]
DistanceSpacing: 0.7
BeatDivisor: 4
GridSize: 8

[Metadata]
Title:The Youkai Mountain ~ Mysterious Mountain
Artist:Jun.A
Creator:Mei_coN
Version:Normal
Source:Touhou
Tags:Sound Sepher Fable

[Difficulty]
HPDrainRate:3
CircleSize:3
OverallDifficulty:2
ApproachRate:3
SliderMultiplier:1.2
SliderTickRate:1

[Events]
//Background and Video events
0,0,"bg.jpg"
//Break Periods
2,33990,41993
2,79347,86278
2,108275,116278
//Storyboard Layer 0 (Background)
//Storyboard Layer 1 (Fail)
//Storyboard Layer 2 (Pass)
//Storyboard Layer 3 (Foreground)
//Storyboard Sound Samples
//Background Colour Transformations
3,100,163,162,255

[TimingPoints]
576,357.142857142857,3,1,0,75,1,0
17469,-100,3,1,0,75,0,0
20504,-100,3,1,0,75,0,0
31040,-100,3,1,0,75,0,0
43769,-100,3,2,0,75,0,0
49683,-100,3,1,0,75,0,0
50933,-133.333333333333,3,1,0,75,0,0
51825,-100,3,1,1,100,0,1
66290,-133.333333333333,3,1,1,100,0,1
87718,-133.333333333333,3,1,0,100,0,0
107004,-100,3,1,0,100,0,0
109325,-133.333333333333,3,2,0,60,0,0
124147,-133.333333333333,3,1,0,60,0,0
126213,-100,3,1,0,100,0,1
133240,-100,3,1,0,100,0,0

[Colours]
Combo1 : 255,255,0
Combo2 : 128,64,0
Combo3 : 0,255,255
Combo4 : 0,255,0

[HitObjects]
256,192,576,1,4
256,192,1647,1,0
256,192,2718,1,4
256,192,3790,1,0
320,128,4861,5,4
320,256,5933,1,4
192,256,7004,1,4
192,128,8075,1,4
112,128,9147,6,0,B|112:264,1,120
192,320,10218,6,0,B|336:320,1,120
408,248,11290,6,0,B|408:112,1,120
320,72,12361,6,0,B|176:72,1,120
256,192,13433,12,0,16647
144,80,17718,5,0
144,80,18075,1,8
144,80,18433,1,8
144,168,18790,2,8,B|144:312,2,120
224,168,19861,5,0
264,104,20218,1,8
312,168,20575,1,8
392,168,20933,2,8,B|392:312,2,120
392,88,22004,5,0
312,88,22361,2,8,B|168:88,1,120
112,88,23075,1,0
112,168,23433,2,8,B|112:312,1,120
208,288,24147,5,4
288,288,24504,1,4
368,288,24861,1,4
448,288,25218,1,4
368,80,26290,5,0
368,80,26647,1,8
368,80,27005,1,8
368,168,27362,2,8,B|368:304,2,120
288,168,28433,5,0
248,104,28790,1,8
200,168,29147,1,8
120,168,29505,2,8,B|120:304,2,120
120,88,30576,5,0
200,88,30933,2,8,B|336:88,1,120
400,88,31647,1,0
400,168,32005,2,8,B|400:312,1,120
320,288,32719,5,4
240,288,33076,1,4
160,288,33433,1,4
80,288,33790,1,4
256,192,43433,5,0
256,192,43790,1,4
376,296,44504,5,0
376,216,44861,1,4
376,136,45218,1,4
296,136,45575,2,0,B|168:136,2,120,0|4|0
296,216,46647,2,0,B|160:216,2,120,0|4|0
296,296,47718,5,0
216,296,48075,1,4
136,296,48433,1,4
136,216,48790,6,0,B|136:80,1,120,0|4
208,48,49504,1,4
304,48,49861,5,4
360,128,50218,1,4
424,208,50575,1,4
352,272,50933,6,0,B|248:272,3,89.9999973177911,0|0|0|4
144,272,52718,2,0,B|144:136,1,120
144,152,53432,1,4
288,88,54147,5,0
376,88,54504,1,0
376,168,54861,1,0
376,256,55575,5,0
376,336,55933,1,0
296,336,56290,1,0
144,336,57004,1,4
120,192,57718,5,0
232,80,58433,1,0
392,80,59147,1,0
392,240,59861,1,0
232,240,60575,2,0,B|88:240,3,120
104,120,62004,5,0
256,120,62718,1,4
400,120,63433,1,4
248,296,64147,6,0,B|104:296,1,120
128,296,64861,1,4
80,136,65575,1,0
168,136,65933,1,0
248,136,66290,2,0,B|248:64,2,67.4999979883433
328,144,67004,2,0,B|328:216,2,67.4999979883433
400,144,67718,1,4
400,288,68254,5,0
400,288,68433,1,0
280,288,69147,5,4
208,192,69861,2,0,B|120:192,1,89.9999973177911
208,112,70575,2,0,B|312:112,1,89.9999973177911
368,152,71290,2,0,B|368:256,1,89.9999973177911
312,304,72004,1,0
192,304,72361,1,0
256,192,72718,6,0,B|256:160,6,29.9999991059304
176,88,73790,1,4
336,88,74147,1,4
256,192,74504,12,4,79147
256,112,87718,5,4
256,112,88075,1,0
256,272,88790,5,4
256,272,89147,1,0
152,216,89861,6,0,B|88:136,2,90
224,160,90933,6,0,B|224:56,2,90
312,160,92004,6,0,B|376:88,2,89.9999973177911,0|8|8
312,256,93075,1,0
312,256,93433,1,8
312,256,93790,1,8
400,256,94147,5,0
400,168,94504,1,8
400,80,94861,1,8
312,80,95218,2,0,B|224:40,2,89.9999973177911,0|8|8
312,168,96290,5,0
224,168,96647,1,8
224,256,97004,1,8
136,256,97361,1,0
136,344,97718,2,8,B|240:344,1,89.9999973177911
320,344,98433,5,4
320,256,98790,1,4
320,168,99147,1,4
320,80,99504,1,4
72,192,100575,6,0,B|88:144|152:136,2,89.9999973177911,0|8|8
160,216,101647,2,0,B|144:264|80:272,2,89.9999973177911,0|8|8
208,296,102718,2,0,B|304:296,2,89.9999973177911,0|8|8
384,296,103790,2,0,B|432:280|440:216,2,89.9999973177911,0|8|8
344,216,104861,5,0
256,216,105218,1,8
304,144,105575,1,8
216,144,105933,1,0
128,144,106290,1,8
168,224,106647,1,8
256,280,107004,2,0,B|256:240,4,30
256,120,107718,5,4
256,120,108075,1,4
336,56,117718,6,0,B|400:72|416:120,2,89.9999973177911,0|4|4
336,144,118790,1,0
336,232,119147,1,4
256,192,119504,1,4
256,280,119861,2,0,B|301:327|351:317,2,89.9999973177911,0|4|4
168,280,120933,5,0
168,280,121290,1,4
168,280,121647,1,4
168,192,122004,6,0,B|64:192,2,89.9999973177911,0|4|4
168,104,123075,1,0
224,40,123433,2,4,B|312:40,1,89.9999973177911
328,128,124147,5,4
432,192,124504,1,4
328,264,124861,1,4
240,264,125218,6,0,B|144:264,1,89.9999973177911
150,264,125933,1,0
150,264,126290,1,4
152,144,126825,6,0,B|152:72,1,60
232,48,127361,1,0
320,48,127718,1,4
424,192,128433,5,0
336,192,128790,1,0
240,192,129147,2,0,B|304:304,1,120
152,192,129861,2,0,B|152:320,1,120
64,192,130575,2,0,B|64:72,1,120
160,64,131290,1,4
352,64,132004,1,4
352,256,132718,5,0
352,256,133075,1,0
256,256,133433,1,0
256,256,133790,1,0
184,320,134147,2,0,B|96:216,1,120
104,136,134861,2,0,B|192:32,1,120
256,112,135575,1,0
256,208,135933,1,0
352,208,136290,2,0,B|352:288|264:304,4,120,0|0|0|0|4
360,104,138433,5,4
224,104,138791,1,4
96,104,139148,1,4
96,280,139861,5,0
96,280,140218,1,0
96,280,140575,2,0,B|224:280,1,120
304,280,141290,2,0,B|424:280,1,120
424,280,142004,1,0
424,120,142540,2,0,B|424:88,2,30,0|0|4
256,88,143433,5,4
120,192,144147,1,4
200,272,144861,1,0
312,272,145575,1,4
376,184,146290,2,0,B|288:80,1,120
176,104,147004,5,0
176,272,147361,1,0
336,272,147718,1,0
336,112,148075,1,0
256,192,148433,1,4
256,192,148790,1,4
256,192,149147,12,4,153433
