osu file format v9

[General]
AudioFilename: The Refrain of the Lovely Great War.mp3
AudioLeadIn: 0
PreviewTime: 99553
Countdown: 0
SampleSet: Normal
StackLeniency: 0.6
Mode: 0
LetterboxInBreaks: 0

[Editor]
DistanceSpacing: 0.9
BeatDivisor: 4
GridSize: 8

[Metadata]
Title:The Refrain of the Lovely Great War
Artist:Jun.A
Creator:KanbeKotori
Version:Normal
Source:Touhou
Tags:Sound Sepher Fable Alace Alazy

[Difficulty]
HPDrainRate:4
CircleSize:3
OverallDifficulty:3
ApproachRate:4
SliderMultiplier:1
SliderTickRate:1

[Events]
//Background and Video events
0,0,"bg.jpg"
//Break Periods
2,67837,76983
2,121170,130317
//Storyboard Layer 0 (Background)
//Storyboard Layer 1 (Fail)
//Storyboard Layer 2 (Pass)
//Storyboard Layer 3 (Foreground)
//Storyboard Sound Samples
//Background Colour Transformations
3,100,163,162,255

[TimingPoints]
14303.9247222266,333.333333333333,4,1,2,80,1,0

[Colours]
Combo1 : 57,160,253
Combo2 : 255,157,60
Combo3 : 255,140,198
Combo4 : 251,60,60

[HitObjects]
136,192,14303,1,0
376,192,15637,5,0
256,96,16803,5,0
256,96,16970,1,0
256,280,17637,5,0
80,232,18303,6,0,B|56:168|80:112,1,100
152,176,18970,2,0,B|192:208|248:184,1,100
264,96,19637,6,0,B|368:136|392:256,1,200
304,264,20637,1,8
223,224,20970,2,0,B|221:281|186:323,1,100,0|8
123,257,21637,2,0,B|125:200|160:158,1,100,0|8
240,136,22303,6,0,B|320:72|448:80,1,200
464,160,23303,1,8
376,184,23637,2,0,B|322:96|199:60,1,200,0|8
104,208,24970,5,4
136,296,25303,1,8
224,280,25637,1,0
312,296,25970,1,8
400,288,26303,2,0,B|408:176|352:96,1,200
288,160,27303,1,8
240,80,27637,6,0,B|184:72|144:96,1,100,0|8
200,168,28303,2,0,B|147:189|124:229,1,100,0|8
208,264,28970,2,0,B|180:314|188:359,2,100,0|8|8
376,328,30303,6,0,B|416:256|408:112,1,200,4|0
344,72,31303,1,8
288,144,31637,2,0,B|240:128|240:128|208:80,2,100,4|8|0
304,232,32637,1,8
320,320,32970,2,0,B|208:312|128:240,1,200,4|0
152,160,33970,1,8
144,72,34303,2,0,B|240:120,1,100,4|8
312,72,34970,2,0,B|320:184,1,100,0|8
320,264,35637,5,4
408,288,35970,1,8
480,232,36303,2,0,B|464:176|432:144,1,100,0|8
352,176,36970,1,0
288,112,37303,1,8
256,200,37637,2,0,B|192:192|168:152,1,100,0|8
96,208,38303,6,0,B|45:151|101:54|176:69,1,200
256,104,39303,1,8
344,88,39637,1,0
384,168,39970,1,8
464,208,40303,2,0,B|440:264|376:280,1,100,0|8
304,256,40970,6,0,B|224:200|112:200,1,200
152,120,41970,1,8
136,32,42303,2,0,B|80:48|48:88,1,100,0|8
88,168,42970,2,0,B|128:208|128:272,1,100,0|8
192,320,43637,6,0,B|272:256|272:256|384:240,1,200
360,152,44637,1,8
424,88,44970,2,0,B|384:64|384:64|320:64,1,100,0|8
264,128,45637,2,0,B|217:127|217:127|161:159,1,100,0|8
168,240,46303,6,0,B|92:242|53:136|113:89,1,200,4|0
192,48,47303,1,8
240,120,47637,2,0,B|344:80|448:112,1,200
400,192,48637,1,8
336,256,48970,6,0,B|264:328,2,100,0|8|0
264,208,49970,1,8
176,216,50303,2,0,B|80:176,1,100,0|8
88,88,50970,1,0
176,88,51303,1,8
256,48,51637,6,0,B|312:136|280:256,1,200,4|0
376,232,52637,1,8
432,168,52970,2,0,B|424:112|368:88,1,100,4|8
312,160,53637,2,0,B|277:115|216:122,1,100,0|8
200,32,54303,6,0,B|130:29|92:135|151:182,1,200,4|0
216,120,55303,1,8
296,168,55637,2,0,B|344:144|344:144|400:144,2,100,4|8|0
296,168,56637,1,8
328,256,56970,6,0,B|208:280|104:272,1,200,4|0
152,184,57970,1,8
152,96,58303,2,0,B|248:136,1,100,0|8
256,224,58970,2,0,B|392:192,1,100,0|8
368,112,59637,6,0,B|437:109|475:215|416:262,1,200
328,296,60637,1,8
248,336,60970,2,0,B|144:320,2,100,0|8|8
328,176,62303,6,0,B|256:112|136:96,1,200,4|0
160,184,63303,1,8
240,232,63637,2,0,B|200:272|136:280,1,100,4|8
216,344,64303,2,0,B|256:304|320:296,1,100,0|8
328,216,64970,2,0,B|344:112|248:40,1,200,4|0
200,120,65970,1,8
256,192,66303,12,0,67637
96,144,78303,6,0,B|128:104|192:96,1,100,4|8
184,184,78970,2,0,B|231:165|291:190,1,100,0|8
296,280,79637,2,0,B|368:294|425:197|378:146,1,200
312,88,80637,1,8
248,152,80970,6,0,B|208:112|160:112,2,100,0|8|0
264,240,81970,1,8
336,296,82303,2,0,B|256:352|136:336,1,200
120,248,83303,1,8
176,176,83637,6,0,B|192:120|168:72,1,100,0|8
96,128,84303,1,0
176,176,84637,1,8
264,152,84970,2,0,B|376:176|467:137,1,200
434,53,85970,1,8
344,72,86303,6,0,B|240:72,1,100,0|8
280,152,86970,2,0,B|192:208,1,100,0|8
136,272,87637,1,0
224,296,87970,1,8
304,256,88303,1,0
392,264,88637,1,8
432,184,88970,6,0,B|408:136|352:120,1,100,4|8
368,32,89637,2,0,B|314:28|272:69,1,100,0|8
248,152,90303,1,0
160,144,90637,1,8
200,224,90970,1,0
136,288,91303,1,8
216,328,91637,6,0,B|328:296|376:192,1,200
312,136,92637,1,8
400,120,92970,2,0,B|456:128|496:168,1,100,0|8
432,232,93637,2,0,B|453:284|438:339,1,100,0|8
360,296,94303,5,4
272,288,94637,1,8
224,216,94970,2,0,B|216:160|160:128,1,100,0|8
240,72,95637,2,0,B|204:7|93:26|84:95,1,200,4|0
80,184,96637,1,8
152,240,96970,6,0,B|272:232|352:240,1,200,4|0
336,152,97970,1,8
408,96,98303,2,0,B|368:56|296:64,1,100,0|8
224,48,98970,2,0,B|219:104|271:154,1,100,0|8
264,232,99637,6,0,B|160:272|56:224,1,200,4|0
72,136,100637,1,8
152,88,100970,1,0
160,176,101303,1,8
144,264,101637,2,0,B|184:296|240:296,1,100,0|8
320,272,102303,6,0,B|280:224|296:168,1,100,0|8
360,120,102970,2,0,B|400:168|384:224,1,100,0|8
320,272,103637,2,0,B|264:272|216:304,2,100,0|8|0
400,304,104637,1,8
464,240,104970,6,0,B|448:128|336:80,1,200,4|0
304,160,105970,1,8
216,168,106303,2,0,B|160:176|120:224,1,100,4|8
88,136,106970,2,0,B|43:170|32:232,1,100,0|8
96,288,107637,5,4
176,320,107970,1,8
256,288,108303,1,4
344,296,108637,1,8
416,240,108970,2,0,B|384:128|312:64,1,200,4|0
248,120,109970,1,8
288,200,110303,6,0,B|248:232|248:232|192:232,1,100,4|8
144,160,110970,2,0,B|112:200|112:200|112:256,2,100,0|8|0
176,80,111970,1,8
256,120,112303,1,0
344,112,112637,1,8
432,120,112970,6,0,B|456:176|456:176|456:328,1,200
368,280,113970,1,8
280,280,114303,2,0,B|224:280|224:280|176:296,2,100,0|8|0
328,200,115303,1,8
344,112,115637,6,0,B|288:88|288:88|136:88,1,200,4|0
112,168,116637,1,8
136,256,116970,2,0,B|176:232|176:232|240:232,1,100,4|8
224,144,117637,2,0,B|270:151|270:151|319:192,1,100,0|8
352,264,118303,5,4
264,296,118637,1,8
184,256,118970,1,0
96,272,119303,1,8
256,192,119637,12,0,120970
104,104,131637,6,0,B|208:72|344:88,1,200,4|0
280,168,132637,1,8
320,248,132970,2,0,B|256:248|216:272,1,100,0|8
136,296,133637,2,0,B|136:232|112:192,1,100,0|8
128,112,134303,5,0
208,152,134637,1,8
296,128,134970,1,0
376,176,135303,1,8
464,176,135637,2,0,B|464:64,2,100,0|8|8
328,296,136970,6,0,B|320:176|248:104,1,200,4|0
192,176,137970,1,8
112,144,138303,2,0,B|64:176|40:240,2,100,4|8|0
176,80,139303,1,8
256,120,139637,6,0,B|304:152|352:144,1,100,4|8
360,232,140303,2,0,B|415:215|440:173,1,100,4|8
424,88,140970,2,0,B|344:32|216:32,1,200,4|0
144,48,141970,1,8
160,136,142303,6,0,B|160:192|128:232,1,100,4|8
216,248,142970,1,0
288,304,143303,1,8
376,288,143637,2,0,B|368:224|368:224|376:176,1,100,0|8
288,168,144303,1,0
200,160,144637,1,8
120,208,144970,6,0,B|73:157|130:60|203:74,1,200
288,88,145970,1,8
376,64,146303,2,0,B|424:96|432:160,1,100,0|8
416,232,146970,1,0
416,232,147303,1,8
328,208,147637,6,0,B|280:176|216:184,1,100,0|8
184,256,148303,2,0,B|232:288|296:280,1,100,0|8
328,208,148970,1,0
336,120,149303,1,8
248,96,149637,1,0
176,48,149970,1,8
168,136,150303,6,0,B|112:160|112:160|88:200,2,100,0|8|0
168,136,151303,1,8
256,168,151637,2,0,B|256:224|216:264,1,100,0|8
160,328,152303,2,0,B|124:285|128:228,1,100,0|8
64,176,152970,6,0,B|72:120|128:96,1,100,4|8
208,104,153637,1,0
288,64,153970,1,8
360,112,154303,2,0,B|416:128|456:96,2,100,0|8|0
296,176,155303,1,8
208,168,155637,6,0,B|193:240|291:297|341:251,1,200
432,264,156637,1,8
408,176,156970,2,0,B|408:120|360:80,1,100,0|8
312,160,157637,2,0,B|276:117|213:117,1,100,0|8
184,40,158303,6,0,B|96:96|72:208,1,200,4|0
144,256,159303,1,8
208,320,159637,2,0,B|320:320,1,100,4|8
280,232,160303,2,0,B|368:160,1,100,0|8
288,112,160970,5,4
368,64,161303,1,8
440,120,161637,1,4
424,208,161970,1,8
424,296,162303,2,0,B|376:272|320:280,1,100,4|8
312,192,162970,2,0,B|262:213|232:261,1,100,4|8
144,240,163637,6,0,B|80:256|48:296,2,100,4|8|0
152,152,164637,1,8
144,64,164970,2,0,B|192:56|248:72,1,100,0|8
240,160,165637,2,0,B|276:191|300:244,1,100,0|8
240,312,166303,6,0,B|286:369|392:331|389:263,1,200
384,176,167303,1,8
392,88,167637,2,0,B|448:96|448:96|496:120,2,100,0|8|0
304,96,168637,1,8
224,64,168970,6,0,B|168:56|112:96,1,100,4|8
192,152,169637,2,0,B|136:163|97:220,1,100,0|8
136,288,170303,2,0,B|232:240|352:256,1,200,4|0
416,232,171303,1,8
392,144,171637,6,0,B|344:112|288:104,1,100,4|8
288,192,172303,2,0,B|231:178|176:189,1,100,4|8
256,192,172970,12,0,174303
