osu file format v9

[General]
AudioFilename: The Refrain of the Lovely Great War.mp3
AudioLeadIn: 0
PreviewTime: 99553
Countdown: 0
SampleSet: Normal
StackLeniency: 0.6
Mode: 0
LetterboxInBreaks: 0

[Editor]
DistanceSpacing: 1
BeatDivisor: 4
GridSize: 8

[Metadata]
Title:The Refrain of the Lovely Great War
Artist:Jun.A
Creator:KanbeKotori
Version:Lunatic
Source:Touhou
Tags:Sound Sepher Fable Alace Alazy

[Difficulty]
HPDrainRate:8
CircleSize:4
OverallDifficulty:8
ApproachRate:9
SliderMultiplier:1.8
SliderTickRate:1

[Events]
//Background and Video events
0,0,"bg.jpg"
//Break Periods
2,67837,77703
2,121170,131037
//Storyboard Layer 0 (Background)
//Storyboard Layer 1 (Fail)
//Storyboard Layer 2 (Pass)
//Storyboard Layer 3 (Foreground)
//Storyboard Sound Samples
//Background Colour Transformations
3,100,163,162,255

[TimingPoints]
14303.9247222266,333.333333333333,4,1,1,80,1,0
22303,-200,4,1,1,80,0,0
24303,-100,4,1,1,80,0,0

[Colours]
Combo1 : 57,160,253
Combo2 : 255,157,60
Combo3 : 255,140,198
Combo4 : 251,60,60

[HitObjects]
256,48,14303,5,0
256,336,15637,5,0
88,192,16803,5,0
88,192,16970,1,0
424,192,17637,5,0
120,112,18303,6,0,B|72:160|72:224|120:280,1,180
392,272,18970,2,0,B|440:224|440:160|392:104,1,180
128,192,19637,5,0
192,302,19970,1,8
320,302,20303,1,0
384,192,20637,1,8
256,64,20970,5,0
256,80,21303,1,8
256,96,21637,1,0
256,112,21970,1,8
192,248,22303,6,0,B|184:296|128:320,1,90,0|8
239,108,22970,2,0,B|201:77|209:17,1,90,0|8
336,219,23637,2,0,B|382:202|430:238,1,90,0|8
256,192,24303,5,0
184,144,24470,1,8
104,192,24637,1,8
88,104,24803,1,0
160,56,24970,6,0,B|213:52|247:79,1,90,4|0
312,136,25303,2,0,B|352:96|352:48,2,90,8|0|0
256,200,25803,1,0
256,288,25970,1,8
336,328,26137,1,0
336,328,26220,1,0
336,328,26303,2,0,B|392:312|400:264,1,90
384,184,26637,2,0,B|328:200|320:248,1,90,8|0
232,272,26970,5,0
72,312,27137,1,0
224,168,27303,1,8
64,144,27470,1,0
200,56,27637,6,0,B|248:40|296:64,1,90
232,128,27970,2,0,B|281:138|311:182,1,90,8|0
392,184,28303,1,0
336,256,28470,1,0
248,256,28637,1,8
168,296,28803,1,0
136,208,28970,2,0,B|67:208|34:298|86:343,2,180,0|8|0
200,144,29803,1,0
288,168,29970,1,8
344,96,30137,1,0
424,144,30303,6,0,B|432:192|408:232,1,90,4|0
328,272,30637,2,0,B|288:248|240:256,1,90,8|0
168,312,30970,2,0,B|112:224|152:120,1,180,0|8
232,120,31470,1,0
176,48,31637,2,0,B|128:32|88:56,1,90,4|0
48,136,31970,2,0,B|96:120|136:144,1,90,8|0
168,232,32303,5,0
240,88,32470,1,0
328,224,32637,1,8
400,80,32804,1,0
240,88,32970,6,0,B|208:48|160:48,2,90,4|0|8
184,160,33470,1,0
96,184,33637,2,0,B|128:272,1,90,4|0
216,248,33970,2,0,B|320:272,1,90,8|0
344,352,34303,2,0,B|411:340|428:245|369:210,1,180,4|8
384,120,34803,1,0
344,40,34970,2,0,B|232:40,1,90,4|8
176,88,35303,2,0,B|272:136,1,90,8|0
328,184,35637,6,0,B|312:232|248:240,1,90,4|0
176,256,35970,1,8
128,176,36137,1,0
80,248,36303,2,0,B|32:272|16:312,2,90,0|0|8
128,176,36803,5,0
128,176,36887,1,0
128,176,36970,2,0,B|168:88,1,90
216,168,37303,2,0,B|304:104,1,90,8|0
320,200,37637,1,0
408,216,37803,1,0
368,296,37970,1,8
280,304,38137,1,0
208,256,38303,6,0,B|160:272|144:320,1,90
56,288,38637,2,0,B|16:336,2,45,8|0|0
120,224,38970,2,0,B|128:176|104:128,1,90
72,56,39303,2,0,B|16:32,2,45,8|0|0
160,72,39637,6,0,B|208:56|256:80,1,90
328,40,39970,1,8
400,96,40137,1,0
344,160,40303,2,0,B|304:192|304:248,1,90
304,328,40637,1,8
392,312,40803,1,0
400,224,40970,6,0,B|288:224,1,90
232,176,41303,1,8
176,248,41470,1,0
176,248,41553,1,0
176,248,41637,2,0,B|128:256|88:240,1,90
120,160,41970,6,0,B|89:122|82:79,2,90,8|0|0
200,120,42470,1,0
280,72,42637,2,0,B|368:112,1,90,8|0
432,160,42970,2,0,B|336:216,1,90
280,160,43303,2,0,B|272:264,1,90,8|0
232,328,43637,6,0,B|184:328|144:304,1,90
72,256,43970,1,8
64,168,44137,1,0
128,104,44303,2,0,B|168:144|224:144,1,90
272,200,44637,1,8
352,168,44803,1,0
392,80,44970,6,0,B|344:72,3,45
304,72,45303,2,0,B|240:80,3,45,8|0|0|0
216,80,45637,1,0
192,168,45803,1,8
240,240,45970,1,8
184,312,46137,1,0
272,320,46303,6,0,B|320:312|368:344,1,90,4|0
424,280,46637,1,8
352,224,46803,1,0
352,136,46970,2,0,B|304:136|256:144,1,90
200,208,47303,2,0,B|158:214|110:214,1,90,8|0
72,136,47637,5,0
104,112,47720,1,0
144,104,47803,1,0
240,112,47970,2,0,B|272:200,1,90,8|0
352,232,48303,2,0,B|384:344,2,90,0|0|8
352,232,48803,1,0
280,280,48970,6,0,B|240:248|184:248,1,90
112,264,49303,2,0,B|111:221|143:181,1,90,8|0
128,96,49637,1,0
192,32,49803,1,0
280,64,49970,1,8
240,144,50137,1,0
176,208,50303,2,0,B|208:240|272:240,1,90
312,312,50637,5,8
360,304,50720,1,0
400,280,50803,1,0
432,248,50887,1,0
448,208,50970,2,0,B|472:168|464:120,1,90
392,64,51303,2,0,B|368:104|376:152,1,90,8|0
312,208,51637,6,0,B|224:128,2,90,4|0|8
320,296,52137,1,0
232,280,52303,2,0,B|184:264|136:288,1,90
56,296,52637,2,0,B|72:248|48:200,1,90,8|0
120,152,52970,2,0,B|120:48,2,90,4|0|8
200,192,53470,1,0
256,128,53637,2,0,B|320:64,1,90
376,136,53970,2,0,B|456:208,1,90,8|0
384,264,54303,6,0,B|312:312|208:312,1,180,4|8
232,136,54970,2,0,B|304:88|408:88,1,180,4|8
232,40,55637,5,4
160,96,55803,1,8
72,88,55970,1,8
48,176,56137,1,0
96,248,56303,2,0,B|176:304,1,90,12|0
176,208,56637,2,0,B|304:208,1,90,8|0
344,256,56970,6,0,B|384:240|416:192,1,90,4|0
424,112,57303,2,0,B|383:125|327:109,1,90,8|0
256,152,57637,1,0
184,96,57803,1,0
120,32,57970,2,0,B|80:64|80:128,1,90,8|0
56,200,58303,5,0
144,216,58470,1,0
216,272,58637,2,0,B|264:256|328:256,1,90,8|0
312,168,58970,5,0
440,64,59137,1,0
464,224,59303,1,8
360,104,59470,1,0
208,40,59637,6,0,B|152:48|120:80,2,90,0|0|8
240,128,60137,1,0
296,200,60303,2,0,B|352:192|384:160,2,90,0|0|8
208,208,60803,1,0
120,232,60970,2,0,B|85:172|146:98|211:121,2,180,0|8|0
56,296,61803,1,0
56,296,61887,1,0
56,296,61970,2,0,B|96:320|152:320,1,90,8|0
224,280,62303,5,4
312,296,62470,1,0
376,240,62637,2,0,B|360:192|376:144,1,90,8|0
448,96,62970,2,0,B|384:40|280:40,1,180,0|8
240,120,63470,1,0
160,88,63637,2,0,B|104:88|72:120,1,90,4|0
120,192,63970,2,0,B|77:227|73:273,1,90,8|0
152,320,64303,5,0
312,296,64470,1,0
184,192,64637,1,8
344,168,64804,1,0
232,56,64970,6,0,B|288:48|328:64,1,90,4|0
408,80,65303,2,0,B|378:128|340:148,1,90,8|0
256,136,65637,1,4
248,224,65803,1,0
288,304,65970,1,8
208,336,66137,1,0
256,192,66303,12,4,67637
368,160,78303,6,0,B|328:136|280:136,1,90,4|0
216,200,78637,1,8
136,160,78803,1,0
64,208,78970,2,0,B|40:256|48:296,2,90,0|0|8
136,160,79470,5,0
136,160,79553,1,0
136,160,79637,2,0,B|144:112|184:80,1,90
224,160,79970,2,0,B|260:128|312:129,1,90,8|0
392,168,80303,1,0
400,256,80470,1,0
312,264,80637,1,8
232,304,80803,1,0
192,224,80970,6,0,B|175:181|192:135,1,90
264,80,81303,1,8
264,80,81470,1,0
328,144,81637,2,0,B|384:160|416:144,1,90
464,216,81970,1,8
464,216,82137,1,0
416,296,82303,6,0,B|360:288|312:296,1,90
320,200,82637,2,0,B|264:200,3,45,8|0|0|0
232,192,82970,2,0,B|184:192,3,45
144,200,83303,2,0,B|88:200|40:208,1,90,8|0
96,288,83637,6,0,B|144:288|184:272,1,90
168,184,83970,1,8
232,120,84137,1,0
168,56,84303,2,0,B|128:80|72:88,2,90,0|0|8
256,48,84803,1,0
320,112,84970,6,0,B|328:168|312:216,1,90
232,176,85303,2,0,B|220:231|188:270,1,90,8|0
272,312,85637,2,0,B|232:336|192:352,2,90,0|0|8
352,272,86137,1,0
440,264,86303,6,0,B|440:368,2,90,0|0|8
384,192,86803,1,0
440,120,86970,2,0,B|440:16,2,90,0|0|8
384,192,87470,1,0
296,192,87637,2,0,B|200:192,1,90,0|8
206,192,87970,2,0,B|96:192,1,90,8|0
64,120,88303,1,8
136,72,88470,1,0
224,96,88637,1,8
296,40,88803,1,0
384,56,88970,6,0,B|432:80|456:136,1,90,4|0
376,176,89303,2,0,B|320:184,2,45,8|0|0
344,264,89637,2,0,B|288:264|256:288,1,90
168,264,89970,2,0,B|208:240|224:192,1,90,8|0
176,120,90303,5,0
176,120,90387,1,0
176,120,90470,1,0
256,80,90637,1,8
256,80,90720,1,0
256,80,90803,1,0
336,48,90970,2,0,B|376:80|400:128,1,90
312,160,91303,2,0,B|330:207|327:261,1,90,8|0
240,272,91637,6,0,B|192:272|152:256,1,90
152,168,91970,1,8
120,80,92137,1,0
40,128,92303,2,0,B|48:176|32:216,1,90
72,296,92637,1,8
160,304,92803,1,0
224,240,92970,6,0,B|208:192|224:144,1,90
256,72,93303,2,0,B|304:64,3,45,8|0|0|0
344,56,93637,2,0,B|392:80,3,45
432,72,93970,2,0,B|456:112|456:112|456:176,1,90,8|0
368,152,94303,6,0,B|336:192|328:240,1,90,4|0
392,296,94637,2,0,B|352:312|304:304,1,90,8|0
232,256,94970,1,0
232,168,95137,1,0
320,176,95303,1,8
320,88,95470,1,0
248,32,95637,6,0,B|200:32|152:48,1,90,4|0
72,56,95970,1,8
48,96,96053,1,0
40,144,96137,1,0
48,192,96220,1,0
72,232,96303,2,0,B|104:272|152:288,1,90
168,200,96637,2,0,B|216:192|264:200,1,90,8|0
312,128,96970,6,0,B|368:192|368:304,1,180,4|8
192,320,97637,2,0,B|136:256|136:144,1,180,4|8
288,56,98303,5,4
448,96,98470,1,8
304,168,98637,1,8
464,208,98804,1,0
320,280,98970,2,0,B|288:312|232:312,1,90,12|0
112,208,99303,2,0,B|144:176|200:176,1,90,8|0
360,176,99637,6,0,B|360:128|384:88,1,90,4|0
448,152,99970,2,0,B|448:200|424:240,1,90,8|0
336,264,100303,2,0,B|360:305|400:328,2,90,0|0|8
248,248,100803,1,0
248,248,100887,1,0
248,248,100970,2,0,B|144:248,1,90
200,168,101303,2,0,B|112:144,1,90,8|0
184,88,101637,5,0
304,192,101803,1,0
280,32,101970,1,8
200,168,102137,1,0
152,320,102303,6,0,B|192:352|248:344,1,90
232,256,102637,2,0,B|280:272|330:245,1,90,8|0
280,168,102970,2,0,B|331:166|368:124,2,90,0|0|8
192,168,103470,1,0
192,80,103637,2,0,B|131:58|70:132|105:192,2,180,0|8|0
280,56,104470,1,0
280,56,104553,1,0
280,56,104637,2,0,B|384:56,1,90,8|0
448,104,104970,6,0,B|456:152|432:200,1,90,4|0
360,144,105303,2,0,B|351:191|312:228,1,90,8|0
376,288,105637,2,0,B|280:320|192:288,1,180,0|8
176,208,106137,1,0
96,168,106303,2,0,B|104:112|136:88,1,90,4|0
216,136,106637,2,0,B|265:162|277:200,1,90,8|0
328,272,106970,5,0
480,320,107137,1,0
328,184,107303,1,8
488,144,107470,1,0
344,72,107637,6,0,B|296:56|256:64,1,90,4|0
216,144,107970,2,0,B|192:96|165:71,1,90,8|0
80,104,108303,2,0,B|72:56|112:16,2,90,4|0|8
120,184,108803,1,0
48,240,108970,2,0,B|128:288|232:288,1,180,4|8
400,312,109637,5,4
400,296,109720,1,0
400,280,109803,1,0
400,264,109887,1,0
400,248,109970,1,8
400,232,110053,1,0
400,216,110137,1,0
400,200,110220,1,0
400,184,110303,6,0,B|400:88,1,90,4|0
296,64,110637,2,0,B|296:176,1,90,8|0
320,264,110970,2,0,B|264:296|264:296|136:296,1,180,0|8
72,216,111470,1,0
72,216,111553,1,0
72,216,111637,2,0,B|160:192,1,90
192,88,111970,2,0,B|256:160,1,90,8|0
296,240,112303,5,0
456,272,112470,1,0
344,152,112637,1,8
368,312,112803,1,0
448,168,112970,6,0,B|448:120|448:120|424:80,1,90
320,64,113303,2,0,B|320:112|320:112|344:152,1,90,8|0
304,248,113637,2,0,B|352:248|352:248|384:280,2,90,0|0|8
200,216,114137,1,0
160,312,114303,2,0,B|104:288|104:288|40:168,1,180,0|8
96,88,114803,1,0
96,88,114887,1,0
96,88,114970,2,0,B|184:88,1,90
288,64,115303,2,0,B|248:152,1,90,8|0
264,256,115637,6,0,B|248:304|192:320,1,90,4|0
168,216,115970,2,0,B|120:234|72:201,1,90,8|0
104,312,116303,1,0
208,120,116637,1,8
312,312,116970,2,0,B|352:280|352:216,1,90,4|0
248,248,117303,2,0,B|210:215|224:168,1,90,8|0
160,80,117637,5,0
144,240,117803,1,0
288,168,117970,1,8
272,328,118136,1,0
416,256,118303,6,0,B|440:224|440:224|448:168,1,90,4|0
288,168,118637,2,0,B|264:200|264:200|256:256,1,90,8|0
120,168,118970,2,0,B|144:136|144:136|152:80,2,90,4|0|8
120,168,119470,1,0
256,192,119637,12,4,120970
392,96,131637,6,0,B|352:72|304:80,1,90
344,160,131970,2,0,B|304:184|256:176,1,90,8|0
184,120,132303,2,0,B|160:80|168:32,2,90,0|0|8
168,208,132803,1,0
168,208,132887,1,0
168,208,132970,2,0,B|208:304,1,90
280,248,133303,2,0,B|360:288,1,90,8|0
424,224,133637,5,0
392,64,133803,1,0
296,192,133970,1,8
264,32,134136,1,0
168,160,134303,6,0,B|160:112|128:72,1,90
72,152,134637,2,0,B|64:200|32:240,1,90,8|0
128,240,134970,1,0
192,304,135137,1,0
224,224,135303,1,8
312,232,135470,1,0
400,216,135637,2,0,B|384:312|272:360,2,180,0|8|0
344,144,136470,1,0
344,144,136553,1,0
344,144,136637,2,0,B|376:112|432:112,1,90,8|0
352,48,136970,5,0
264,72,137137,1,0
176,56,137303,1,8
104,112,137470,1,0
192,144,137637,2,0,B|200:240|304:288,1,180,0|8
384,264,138137,1,0
384,264,138220,1,0
384,264,138303,2,0,B|376:216|336:184,1,90
256,224,138637,2,0,B|214:199|163:209,1,90,8|0
80,184,138970,5,0
192,64,139137,1,0
208,224,139303,1,8
368,184,139470,1,0
280,320,139637,6,0,B|240:344|176:328,1,90
96,200,139970,2,0,B|136:176|200:192,1,90,8|0
272,56,140303,2,0,B|232:80|168:64,2,90,0|0|8
272,56,140803,1,0
376,176,140970,2,0,B|344:264|248:304,1,180,0|8
80,224,141637,5,0
80,216,141720,1,0
80,208,141803,1,0
80,200,141887,1,0
80,192,141970,1,8
80,184,142053,1,0
80,176,142137,1,0
80,168,142220,1,0
80,160,142303,6,0,B|80:64,1,90
168,96,142637,1,8
208,80,142720,1,0
256,72,142803,1,0
304,80,142887,1,0
344,96,142970,2,0,B|400:96|448:32,2,90,0|0|8
392,176,143470,5,0
392,176,143553,1,0
392,176,143637,2,0,B|392:232|344:256,1,90
264,256,143970,2,0,B|264:200|312:176,1,90,8|0
224,136,144303,1,0
200,48,144470,1,0
144,120,144637,1,8
56,120,144803,1,0
56,208,144970,6,0,B|72:256|120:272,1,90
176,336,145303,1,8
176,336,145387,1,0
176,336,145470,1,0
176,336,145553,1,0
264,328,145720,1,0
264,328,145803,1,0
352,336,145970,2,0,B|368:288|432:264,1,90,8|0
344,208,146303,2,0,B|296:192|272:128,1,90
328,72,146637,6,0,B|264:64,3,45,8|0|0|0
240,72,146970,2,0,B|192:80,3,45
152,72,147303,2,0,B|64:64,1,90,8|0
112,144,147637,6,0,B|144:184|144:240,1,90
224,192,147970,1,8
280,264,148137,1,0
280,264,148220,1,0
280,264,148303,2,0,B|376:264,1,90
344,352,148637,2,0,B|248:352,1,90,8|0
168,336,148970,5,0
104,272,149137,1,0
152,192,149303,1,8
136,152,149387,1,0
128,104,149470,1,0
152,64,149553,1,0
192,40,149637,2,0,B|240:48|272:80,1,90
256,168,149970,2,0,B|304:160|336:128,1,90,8|0
424,120,150303,6,0,B|448:80|504:72,2,90,0|0|8
400,208,150803,1,0
440,288,150970,2,0,B|352:312,1,90
272,352,151303,2,0,B|176:320,1,90,8|0
104,288,151637,6,0,B|80:240,3,45
88,200,151970,2,0,B|104:160,3,45,8|0|0|0
96,112,152303,1,0
184,88,152470,1,8
272,120,152637,1,8
360,88,152803,1,0
432,136,152970,6,0,B|440:192|416:232,1,90
424,312,153303,1,8
384,328,153387,1,0
344,312,153470,1,0
304,328,153553,1,0
264,312,153637,2,0,B|216:304|176:320,2,90,0|0|8
288,224,154137,5,0
288,224,154220,1,0
288,224,154303,2,0,B|296:168|288:128,1,90
208,176,154637,2,0,B|192:128|152:96,1,90,8|0
120,184,154970,1,0
208,176,155137,1,0
288,224,155303,1,8
376,200,155470,1,0
464,216,155637,6,0,B|472:160|456:128,1,90
384,80,155970,1,8
336,72,156053,1,0
288,64,156137,1,0
240,56,156220,1,0
152,40,156387,1,0
112,48,156470,1,0
152,128,156637,2,0,B|96:208,1,90,8|0
40,264,156970,2,0,B|128:312,1,90
208,280,157303,5,8
216,280,157387,1,0
224,280,157470,1,0
232,280,157553,1,0
240,280,157637,1,0
248,280,157720,1,0
256,280,157803,1,0
264,280,157887,1,0
272,280,157970,2,0,B|368:280,1,90,8|0
328,200,158303,6,0,B|312:152|336:96,1,90
408,64,158637,2,0,B|424:112|400:168,1,90,8|0
408,240,158970,1,0
328,200,159137,1,0
328,288,159303,1,8
240,288,159470,1,0
200,208,159637,6,0,B|144:216|120:248,1,90
72,176,159970,1,8
88,136,160053,1,0
120,104,160137,1,0
160,96,160220,1,0
208,104,160303,2,0,B|256:112|320:104,1,90
256,184,160637,2,0,B|304:176|368:184,1,90,8|0
360,96,160970,5,0
448,200,161137,1,0
320,224,161303,1,8
320,224,161637,5,0
176,176,161803,1,0
208,328,161970,1,8
208,328,162303,6,0,B|152:320|128:264,1,90,0|8
304,328,162637,2,0,B|360:320|384:264,1,90,8|0
256,256,162970,5,8
256,248,163053,1,0
256,240,163137,1,0
256,232,163220,1,0
256,224,163303,1,8
256,216,163387,1,0
256,208,163470,1,0
256,200,163553,1,0
256,192,163637,6,0,B|256:144|256:144|224:88,1,90
368,64,163970,2,0,B|368:112|368:112|400:168,1,90,8|0
352,288,164303,2,0,B|320:328|320:328|192:328,1,180,0|8
96,224,164803,5,0
96,224,164887,1,0
96,224,164970,2,0,B|96:136,1,90
232,96,165303,2,0,B|232:192,1,90,8|0
376,192,165637,5,0
448,48,165803,1,0
304,128,165970,1,8
456,144,166137,1,0
336,32,166303,6,0,B|232:64,1,90
104,56,166637,2,0,B|176:136,1,90,8|0
216,256,166970,2,0,B|176:280|176:280|128:280,2,90,0|0|8
216,256,167470,1,0
360,288,167637,2,0,B|424:224,1,90
296,160,167970,2,0,B|216:112,1,90,8|0
88,176,168303,1,0
88,176,168387,1,8
216,256,168553,1,0
216,256,168637,1,8
360,240,168803,1,0
256,136,168970,6,0,B|296:112|296:112|344:112,1,90
408,240,169303,2,0,B|432:200|432:200|432:152,2,90,8|0|0
264,272,169803,1,0
136,336,169970,2,0,B|32:336,1,90,8|0
48,192,170303,5,0
104,40,170470,1,0
160,224,170636,1,8
216,72,170803,1,0
272,256,170970,1,0
328,104,171137,1,0
384,288,171303,1,8
440,136,171470,1,0
280,160,171637,6,0,B|192:160,1,90
112,304,171970,2,0,B|208:304,1,90,8|0
352,248,172303,2,0,B|352:304|352:304|336:344,2,90,0|0|8
352,248,172803,1,0
256,192,172970,12,0,174303
