osu file format v9

[General]
AudioFilename: The Refrain of the Lovely Great War.mp3
AudioLeadIn: 0
PreviewTime: 99553
Countdown: 0
SampleSet: Normal
StackLeniency: 0.6
Mode: 0
LetterboxInBreaks: 0

[Editor]
DistanceSpacing: 1.1
BeatDivisor: 4
GridSize: 8

[Metadata]
Title:The Refrain of the Lovely Great War
Artist:Jun.A
Creator:KanbeKotori
Version:Hard
Source:Touhou
Tags:Sound Sepher Fable Alace Alazy

[Difficulty]
HPDrainRate:5
CircleSize:4
OverallDifficulty:5
ApproachRate:7
SliderMultiplier:1.4
SliderTickRate:1

[Events]
//Background and Video events
0,0,"bg.jpg"
//Break Periods
2,67837,77403
2,121170,130737
//Storyboard Layer 0 (Background)
//Storyboard Layer 1 (Fail)
//Storyboard Layer 2 (Pass)
//Storyboard Layer 3 (Foreground)
//Storyboard Sound Samples
//Background Colour Transformations
3,100,163,162,255

[TimingPoints]
14303.9247222266,333.333333333333,4,1,1,80,1,0

[Colours]
Combo1 : 57,160,253
Combo2 : 255,157,60
Combo3 : 255,140,198
Combo4 : 251,60,60

[HitObjects]
120,88,14303,1,0
392,296,15637,5,0
256,96,16803,5,0
256,96,16969,1,0
256,288,17637,5,0
144,80,18303,6,0,B|112:144|136:232,1,140
368,304,18970,2,0,B|400:240|376:152,1,140
256,264,19637,5,0
168,192,19970,1,8
256,120,20303,1,0
336,192,20637,1,8
256,264,20970,6,0,B|184:288|104:280,1,140,0|8
152,176,21637,2,0,B|224:152|304:160,1,140,0|8
368,240,22303,2,0,B|402:172|407:92,2,140,0|8|0
272,304,23303,1,8
264,192,23637,2,0,B|192:168|112:176,1,140,0|8
104,64,24303,5,0
176,96,24470,1,0
248,80,24637,1,8
320,104,24803,1,0
400,96,24970,6,0,B|400:136|384:168,1,70,4|0
456,192,25303,2,0,B|436:226|406:246,2,70,8|0|0
352,312,25970,5,8
304,256,26137,1,0
224,256,26303,2,0,B|184:256|160:224,1,70
224,176,26637,2,0,B|186:162|174:124,1,70,8|0
248,96,26970,2,0,B|217:70|219:30,2,70,0|0|8
248,96,27470,1,0
328,88,27637,6,0,B|352:120|352:160,1,70
432,160,27970,2,0,B|422:198|392:224,1,70,8|0
320,224,28303,1,0
248,200,28470,1,0
256,280,28637,1,8
264,360,28803,1,0
192,328,28970,2,0,B|120:336|32:312,2,140,0|8|0
256,192,29970,5,8
256,192,30137,1,0
256,192,30303,2,0,B|168:160,1,70,4|0
184,88,30637,2,0,B|88:120,1,70,8|0
40,128,30970,2,0,B|112:280,1,140,0|8
232,336,31637,6,0,B|264:344|304:336,1,70,4|0
280,264,31970,2,0,B|312:260|347:239,1,70,8|0
424,256,32303,1,0
456,184,32470,1,0
392,144,32637,1,8
376,72,32803,1,0
312,120,32970,6,0,B|280:96|232:96,2,70,4|0|8
256,176,33470,1,0
232,248,33637,2,0,B|264:272|312:272,2,70,4|0|8
160,272,34137,1,0
80,264,34303,2,0,B|54:305|106:366|153:347,2,140,4|8|0
96,64,35303,5,8
168,88,35470,1,0
240,64,35637,2,0,B|256:104|248:136,1,70,4|0
200,192,35970,1,8
232,264,36137,1,0
232,264,36220,1,0
232,264,36303,2,0,B|272:272|312:264,2,70,0|0|8
200,336,36803,5,0
200,336,36970,2,0,B|240:344|288:336,1,70
344,320,37303,2,0,B|384:312|432:320,1,70,8|0
432,240,37637,1,0
368,200,37803,1,0
296,216,37970,1,8
224,184,38137,1,0
160,224,38303,6,0,B|128:200|120:160,1,70
56,128,38637,2,0,B|80:96|120:88,1,70,8|0
184,120,38970,1,0
184,120,39137,1,0
184,120,39303,2,0,B|224:128|264:112,1,70,8|0
312,160,39637,2,0,B|355:137|340:58|290:51,2,140,0|8|0
320,240,40470,1,0
240,248,40637,1,8
232,168,40803,1,0
160,136,40970,6,0,B|120:120|80:128,2,70,0|0|8
232,168,41470,1,0
232,168,41553,1,0
232,168,41637,2,0,B|280:176|304:168,1,70
304,88,41970,2,0,B|346:111|371:112,1,70,8|0
448,104,42303,6,0,B|448:192|392:256,1,140,0|8
328,240,42803,1,0
272,296,42970,2,0,B|240:280|184:280,1,70
192,208,43303,1,8
136,256,43470,1,0
56,264,43637,6,0,B|24:184|64:120,1,140,0|8
136,136,44137,1,0
200,88,44303,2,0,B|224:112|272:112,1,70
336,88,44637,1,8
336,88,44803,1,0
416,88,44970,6,0,B|400:160,1,70
400,156,45303,2,0,B|352:208,1,70,8|0
352,207,45637,1,0
280,208,45803,1,0
224,256,45970,1,8
144,248,46137,1,0
72,280,46303,6,0,B|56:240|64:192,1,70,4|0
128,168,46637,2,0,B|144:128,2,35,8|0|0
208,176,46970,1,0
264,224,47137,1,0
248,296,47303,1,8
312,336,47470,1,0
376,288,47637,6,0,B|400:272|448:280,1,70
464,208,47970,2,0,B|496:240,2,35,8|0|0
408,152,48303,1,0
328,160,48470,1,0
304,88,48637,1,8
248,136,48803,1,0
184,96,48970,6,0,B|144:112|136:168,1,70
184,208,49303,1,8
112,224,49470,1,0
112,224,49553,1,0
112,224,49637,2,0,B|101:271|171:310|208:277,1,140,0|8
280,256,50137,1,0
352,288,50303,6,0,B|400:240|416:160,1,140,0|8
368,104,50803,1,0
296,128,50970,2,0,B|208:144,1,70
200,64,51303,2,0,B|128:104,1,70,8|0
128,176,51637,6,0,B|88:184|64:160,2,70,4|0|8
176,240,52137,1,0
256,232,52303,2,0,B|328:264,1,70
272,320,52637,2,0,B|192:336,1,70,8|0
128,328,52970,6,0,B|72:272|72:200,1,140,4|8
142,172,53470,1,0
144,96,53637,1,0
144,96,53803,1,0
144,96,53970,2,0,B|184:112|216:96,1,70,8|0
280,136,54303,6,0,B|336:184|352:264,1,140,4|8
224,352,54970,2,0,B|168:304|152:224,1,140,4|8
80,96,55637,6,0,B|144:128,1,70,4|0
208,88,55970,2,0,B|232:160,1,70,8|0
192,224,56303,1,4
224,296,56470,1,0
288,256,56637,1,8
352,296,56803,1,0
424,272,56970,6,0,B|440:312|416:360,2,70,4|0|8
400,200,57470,1,0
448,136,57637,2,0,B|392:96|304:88,1,140,0|8
272,152,58137,1,0
208,112,58303,2,0,B|176:128|160:160,1,70
96,120,58637,2,0,B|71:145|67:181,1,70,8|0
88,256,58970,5,0
136,312,59137,1,0
208,280,59303,1,8
288,288,59470,1,0
336,224,59637,6,0,B|344:144|400:88,1,140,0|8
456,136,60137,1,0
408,192,60303,2,0,B|350:135|271:128,1,140,0|8
248,64,60803,1,0
248,64,60970,2,0,B|199:61|172:137|212:168,2,140,0|8|0
272,304,61970,5,8
272,304,62137,1,0
272,304,62303,2,0,B|184:304|112:272,1,140,4|8
168,208,62803,1,0
168,120,62970,1,0
304,192,63303,1,8
304,40,63637,6,0,B|344:40|384:80,1,70,4|0
312,120,63970,2,0,B|349:133|373:184,1,70,8|0
320,232,64303,1,0
248,216,64470,1,0
176,232,64637,1,8
136,168,64803,1,0
64,136,64970,6,0,B|48:168|48:208,2,70,4|0|8
120,80,65470,1,0
192,104,65637,2,0,B|224:88|264:88,2,70,4|0|8
200,184,66137,1,0
256,192,66303,12,0,67637
200,160,78303,6,0,B|176:128|176:128|144:112,2,70,4|0|8
184,232,78803,1,0
184,232,78887,1,0
184,232,78970,2,0,B|216:248|216:248|256:248,1,70
320,280,79303,1,8
392,256,79470,1,0
336,200,79637,6,0,B|321:167|321:167|291:141,1,70
352,88,79970,2,0,B|320:72|320:72|280:72,1,70,8|0
216,104,80303,1,0
216,104,80470,1,0
136,96,80637,1,8
136,96,80803,1,0
104,168,80970,6,0,B|144:200|144:200|248:200,1,140,0|8
312,184,81470,1,0
352,248,81637,2,0,B|320:264|320:264|280:264,1,70
296,344,81970,2,0,B|260:341|260:341|225:321,1,70,8|0
152,328,82303,2,0,B|128:288|128:288|128:184,1,140,0|8
176,136,82803,1,0
192,64,82970,2,0,B|272:80,1,70
328,40,83303,2,0,B|352:120,1,70,8|0
296,160,83637,6,0,B|336:200|336:200|424:232,1,140,0|8
488,208,84137,1,0
472,136,84303,2,0,B|440:120|440:120|400:128,1,70
384,200,84637,2,0,B|352:224|352:224|320:224,1,70,8|0
320,304,84970,6,0,B|248:288|248:288|192:232,1,140,0|8
248,184,85470,1,0
248,184,85553,1,0
248,184,85637,2,0,B|176:160,1,70
200,88,85970,2,0,B|128:96,1,70,8|0
104,168,86303,6,0,B|64:224,2,70,0|0|8
104,168,86803,1,0
168,208,86970,2,0,B|240:168,1,70
256,248,87303,2,0,B|344:240,1,70,8|0
400,264,87637,2,0,B|440:280,2,35
392,184,87970,2,0,B|344:168,2,35,8|0|0
424,112,88303,2,0,B|424:24,2,70,0|0|8
288,192,88970,6,0,B|256:168|256:168|224:160,1,70,4|0
168,208,89303,2,0,B|146:174|146:174|118:156,1,70,8|0
48,128,89637,1,0
56,200,89803,1,0
48,280,89970,1,8
112,320,90137,1,0
192,312,90303,6,0,B|184:352,2,35
264,280,90637,2,0,B|256:240,2,35,8|0|0
336,296,90970,1,0
352,224,91137,1,0
312,160,91303,1,8
384,128,91470,1,0
464,128,91637,6,0,B|488:176|488:176|488:280,1,140,0|8
408,256,92137,1,0
392,328,92303,2,0,B|360:312|360:312|320:312,1,70
248,320,92637,1,8
248,320,92803,1,0
168,312,92970,6,0,B|152:280|152:280|152:240,1,70,0|0
208,192,93303,1,8
208,192,93470,1,0
200,112,93637,1,0
280,112,93803,1,0
328,48,93970,1,8
360,120,94137,1,0
432,104,94303,6,0,B|448:64|448:64|448:24,2,70,4|0|8
464,176,94803,1,0
464,176,94886,1,0
464,176,94970,2,0,B|424:192|424:192|384:192,1,70
424,264,95303,2,0,B|380:265|380:265|343:251,1,70,8|0
288,216,95637,5,4
256,144,95803,1,0
176,160,95970,1,8
112,120,96137,1,0
112,120,96220,1,0
112,120,96303,2,0,B|104:152|104:152|104:192,1,70
24,192,96637,2,0,B|33:223|33:223|53:258,1,70,8|0
112,304,96970,6,0,B|160:280|160:280|272:280,1,140,4|8
272,128,97637,2,0,B|224:152|224:152|112:152,1,140,4|8
272,224,98303,5,4
344,240,98470,1,0
376,168,98637,1,8
424,232,98803,1,0
488,192,98970,2,0,B|488:152|488:152|480:120,2,70,4|0|8
256,80,99637,6,0,B|232:48|184:48,1,70,4|0
192,128,99970,2,0,B|158:106|113:122,2,70,8|0|0
120,264,100637,5,8
192,248,100803,1,0
256,296,100970,2,0,B|296:304|336:296,1,70
400,272,101303,2,0,B|374:240|338:220,1,70,8|0
296,168,101637,1,0
216,176,101803,1,0
296,168,101970,1,8
240,112,102137,1,0
296,168,102303,6,0,B|328:232|416:240,1,140,0|8
400,160,102803,1,0
408,80,102970,2,0,B|368:56|328:56,1,70
272,32,103303,2,0,B|226:23|188:36,1,70,8|0
192,112,103637,2,0,B|112:112|64:56,2,140,0|8|0
328,192,104637,5,8
328,192,104803,1,0
328,192,104970,2,0,B|312:224|280:240,1,70,4|0
208,272,105303,1,8
136,296,105470,1,0
56,296,105637,2,0,B|48:216|112:152,1,140,0|8
256,168,106303,6,0,B|288:80,1,70,4|0
344,152,106637,2,0,B|416:120,1,70,8|0
400,200,106970,1,0
480,208,107137,1,0
400,200,107303,1,8
440,264,107470,1,0
400,200,107637,6,0,B|344:160|240:152,1,140,4|8
200,192,108137,1,0
152,128,108303,2,0,B|96:192,1,70,4|0
32,168,108637,2,0,B|40:248,1,70,8|0
96,288,108970,2,0,B|192:280|256:304,1,140,4|8
280,152,109637,5,4
240,88,109803,1,0
304,48,109970,2,0,B|352:48|400:32,1,70,8|0
416,104,110303,6,0,B|416:160|392:184,1,70,4|0
328,192,110637,2,0,B|328:136|352:112,2,70,8|0|0
320,272,111137,1,0
320,272,111220,1,0
320,272,111303,2,0,B|280:248|248:248,1,70,8|0
192,288,111637,5,0
112,296,111803,1,0
144,224,111970,1,8
64,232,112137,1,0
88,160,112303,2,0,B|88:120|88:120|80:80,1,70
160,72,112637,2,0,B|160:112|160:112|168:152,1,70,8|0
240,120,112970,5,0
288,184,113137,1,0
248,248,113303,1,8
304,304,113470,1,0
384,304,113637,2,0,B|408:336|408:336|440:344,2,70,0|0|8
424,240,114137,1,0
376,184,114303,2,0,B|392:112|392:112|448:48,2,140,0|8|0
296,192,115137,5,0
296,192,115220,1,0
296,192,115303,2,0,B|208:184,1,70,8|0
208,112,115637,6,0,B|296:120,1,70,4|0
352,136,115970,2,0,B|376:104|376:104|376:64,2,70,8|0|0
296,192,116470,1,0
304,272,116637,2,0,B|224:296,1,70,8|0
184,232,116970,5,4
152,160,117137,1,0
232,160,117303,1,8
200,88,117470,1,0
280,96,117637,2,0,B|352:64,1,70
400,120,117970,2,0,B|376:200,1,70,8|0
320,232,118303,6,0,B|336:264|336:264|344:312,2,70,4|0|8
256,192,118803,1,0
192,160,118970,2,0,B|176:128|176:128|168:80,2,70,4|0|8
256,192,119470,1,0
256,192,119637,12,0,120970
344,160,131637,6,0,B|368:120|408:104,1,70,4|0
416,184,131970,2,0,B|460:168|501:182,2,70,8|0|0
344,160,132470,1,0
280,208,132637,2,0,B|240:224|192:208,1,70,8|0
200,136,132970,6,0,B|120:168,1,70
120,88,133303,2,0,B|144:16,1,70,8|0
208,64,133637,1,0
280,48,133803,1,0
352,80,133970,1,8
432,88,134137,1,0
432,168,134303,6,0,B|448:216|480:240,2,70,0|0|8
368,208,134803,1,0
296,176,134970,1,0
256,240,135137,1,0
184,216,135303,1,8
112,240,135470,1,0
32,232,135637,6,0,B|6:273|58:334|105:315,2,140,0|8|0
40,152,136470,1,0
40,152,136553,1,0
40,152,136637,2,0,B|120:152,1,70,8|0
168,208,136970,6,0,B|224:144,1,70,4|0
192,80,137303,2,0,B|288:96,1,70,8|0
328,48,137637,2,0,B|352:120|336:208,1,140,0|8
320,264,138137,1,0
368,328,138303,6,0,B|408:320|432:296,1,70,4|0
392,232,138637,2,0,B|422:205|431:172,1,70,8|0
400,104,138970,1,0
320,120,139137,1,0
248,96,139303,1,8
232,168,139470,1,0
160,192,139637,6,0,B|120:176|104:136,2,70,4|0|8
160,272,140137,1,0
200,336,140303,2,0,B|240:328|288:328,1,70,4|0
264,248,140637,2,0,B|304:254|349:270,1,70,8|0
400,232,140970,2,0,B|439:262|412:338|364:336,2,140,4|8|4
392,152,141803,1,0
312,144,141970,1,8
240,112,142137,1,0
168,144,142303,6,0,B|136:104|144:56,2,70,4|0|8
168,224,142803,1,0
240,240,142970,2,0,B|248:280|240:320,1,70
320,328,143303,2,0,B|312:288|320:248,1,70,8|0
368,200,143637,6,0,B|408:208|432:240,2,70,0|0|8
336,128,144137,1,0
336,128,144220,1,0
336,128,144303,2,0,B|256:128,1,70
248,56,144637,2,0,B|176:96,1,70,8|0
112,80,144970,6,0,B|86:121|138:182|185:163,1,140,0|8
240,216,145470,1,0
272,288,145637,2,0,B|208:320,1,70
136,344,145970,2,0,B|104:264,1,70,8|0
120,200,146303,2,0,B|79:216|32:208,2,70,0|0|8
184,240,146803,1,0
184,240,146887,1,0
184,240,146970,2,0,B|256:240,1,70
240,160,147303,2,0,B|320:112,1,70,8|0
376,144,147637,6,0,B|376:64,2,70,0|0|8
336,208,148137,1,0
264,192,148303,2,0,B|240:152|192:136,1,70
216,64,148637,2,0,B|169:64|131:98,1,70,8|0
80,64,148970,2,0,B|47:99|87:168|137:158,1,140,0|8
192,216,149470,1,0
192,296,149637,2,0,B|272:320,1,70
288,240,149970,2,0,B|344:296,1,70,8|0
416,328,150303,6,0,B|448:264|440:192,1,140,0|8
400,128,150803,1,0
328,144,150970,2,0,B|296:128|288:88,1,70
216,112,151303,2,0,B|180:107|159:73,1,70,8|0
112,136,151637,6,0,B|104:176,3,35
112,208,151970,2,0,B|120:256,3,35,8|0|0|0
112,280,152303,2,0,B|144:304|192:304,1,70
176,304,152637,2,0,B|214:292|259:308,1,70,8|0
296,248,152970,6,0,B|304:168,2,70,4|0|8
368,280,153470,1,0
440,256,153637,2,0,B|464:216|464:184,1,70
400,144,153970,2,0,B|376:184|376:216,1,70,8|0
304,232,154303,6,0,B|264:216|232:224,1,70
216,296,154637,1,8
216,296,154720,1,0
216,296,154803,1,0
152,336,154970,1,0
88,288,155137,1,0
152,248,155303,1,8
144,168,155470,1,0
216,144,155637,6,0,B|216:64,2,70,0|0|8
240,216,156137,1,0
240,216,156220,1,0
240,216,156303,2,0,B|312:216,1,70
352,280,156637,2,0,B|288:328,1,70,8|0
224,296,156970,6,0,B|152:272|128:176,1,140,0|8
192,144,157470,1,0
224,72,157637,2,0,B|312:96,1,70
360,120,157970,2,0,B|336:184,1,70,8|0
272,232,158303,5,4
280,312,158470,1,0
344,264,158637,1,8
400,312,158803,1,0
456,264,158970,2,0,B|480:232|472:192,1,70
392,200,159303,2,0,B|403:161|382:126,1,70,8|0
416,64,159637,6,0,B|385:24|309:51|311:99,1,140,4|8
296,176,160137,1,0
216,184,160303,2,0,B|176:168|136:168,1,70,0|0
112,240,160637,2,0,B|152:256|192:256,1,70,8|0
264,272,160970,6,0,B|224:336,2,70,0|0|8
248,112,161637,2,0,B|288:48,2,70,4|0|8
96,112,162303,5,4
72,184,162470,1,0
96,112,162637,1,8
72,184,162803,1,0
128,232,162970,2,0,B|168:232|208:256,1,70,4|0
200,168,163303,2,0,B|237:181|266:217,1,70,8|0
304,288,163637,6,0,B|264:312|208:312,2,70,4|0|8
344,208,164137,1,0
352,120,164303,2,0,B|408:136|456:224,1,140,0|8
408,296,164803,1,0
408,296,164887,1,0
408,296,164970,2,0,B|336:312,1,70
280,240,165303,2,0,B|200:264,1,70,8|0
232,352,165637,5,0
144,320,165803,1,0
120,232,165970,1,8
176,160,166137,1,0
224,80,166303,6,0,B|176:64|136:72,2,70,0|0|8
312,56,166803,1,0
360,128,166970,2,0,B|352:176|320:200,1,70
248,152,167303,2,0,B|216:176|200:216,1,70,8|0
112,232,167637,2,0,B|93:276|155:327|198:301,2,140,0|8|0
72,152,168470,1,0
72,152,168553,1,0
72,152,168637,2,0,B|128:96,1,70,8|0
200,56,168970,6,0,B|256:104,1,70,4|0
328,152,169303,2,0,B|328:72,2,70,8|0|0
360,240,169803,1,0
280,280,169970,2,0,B|240:264|192:272,1,70,8|0
128,312,170303,6,0,B|96:280|96:240,1,70,4|0
160,184,170637,2,0,B|140:142|154:105,1,70,8|0
240,120,170970,1,0
328,128,171137,1,0
408,80,171303,1,8
416,168,171470,1,0
376,248,171637,6,0,B|408:272|424:304,2,70,4|0|8
288,208,172137,1,0
208,256,172303,2,0,B|160:248|144:216,1,70,4|0
152,128,172637,2,0,B|200:136|216:168,1,70,8|0
256,192,172970,12,0,174303
