osu file format v12

[General]
AudioFilename: The Fairy's Adventurous Tale.mp3
AudioLeadIn: 1996
PreviewTime: 94345
Countdown: 0
SampleSet: None
StackLeniency: 0.6
Mode: 0
LetterboxInBreaks: 0

[Editor]
Bookmarks: 13140,118140,118685
DistanceSpacing: 0.3
BeatDivisor: 4
GridSize: 4

[Metadata]
Title:The Fairy's Adventurous Tale
TitleUnicode:The Fairy's Adventurous Tale
Artist:Jun.A
ArtistUnicode:Jun.A
Creator:KanbeKotori
Version:kiddly's Extreme
Source:Touhou
Tags:Sound Sepher Fable Frank7654321 ignorethis Sagisawa-Yukari BakaHuang ZHSteven kiddly
BeatmapID:274236
BeatmapSetID:26480

[Difficulty]
HPDrainRate:8
CircleSize:5
OverallDifficulty:8
ApproachRate:9
SliderMultiplier:1.6
SliderTickRate:1

[Events]
//Background and Video events
0,0,"bg.jpg",0,0
//Break Periods
//Storyboard Layer 0 (Background)
//Storyboard Layer 1 (Fail)
//Storyboard Layer 2 (Pass)
//Storyboard Layer 3 (Foreground)
//Storyboard Sound Samples
//Background Colour Transformations
3,100,163,162,255

[TimingPoints]
595,272.727272727273,4,2,1,80,1,0
10413,-100,4,1,1,50,0,0
11504,-100,4,2,1,80,0,0
12458,-100,4,1,1,50,0,0
13549,-100,4,2,1,80,0,0
17640,-100,4,1,1,50,0,0
20231,-100,4,1,1,65,0,0
37685,-100,4,1,1,65,0,1
40958,-55.5555555555556,4,2,1,80,0,1
41231,-83.3333333333333,4,2,1,80,0,1
41504,-125,4,2,1,80,0,1
41776,-100,4,1,1,65,0,1
49685,-100,4,2,1,80,0,1
50776,-100,4,1,1,65,0,1
57322,-100,4,1,1,65,0,0
74776,-100,4,1,1,65,0,1
78049,-55.5555555555556,4,2,1,80,0,1
78322,-83.3333333333333,4,2,1,80,0,1
78595,-125,4,2,1,80,0,1
78867,-100,4,1,1,65,0,1
86776,-100,4,2,1,80,0,1
87867,-100,4,1,1,65,0,1
94413,-100,4,2,1,80,0,0
109685,-200,4,2,1,80,0,0
111867,-100,4,2,1,80,0,0
114049,-100,4,1,1,65,0,1
114049,-100,4,1,1,65,0,1
117322,-55.5555555555556,4,2,1,80,0,1
117595,-83.3333333333333,4,2,1,80,0,1
117867,-125,4,2,1,80,0,1
118140,-100,4,1,1,65,0,1
126049,-100,4,2,1,80,0,1
127140,-100,4,1,1,65,0,1
133685,-100,4,1,1,65,0,0

[Colours]
Combo1 : 184,14,69
Combo2 : 255,255,255
Combo3 : 12,0,238
Combo4 : 64,0,0

[HitObjects]
256,24,595,1,2,0:0:0:0:
184,80,867,1,2,0:0:0:0:
256,24,1140,1,2,0:0:0:0:
368,96,1413,1,2,0:0:0:0:
296,160,1549,5,0,0:0:0:0:
284,164,1617,1,0,0:0:0:0:
272,168,1685,2,0,B|256:192|256:192|272:248,1,80,4|0,0:0|0:0,0:0:0:0:
348,252,1958,1,2,0:0:0:0:
424,264,2095,1,0,0:0:0:0:
236,320,2231,1,0,0:0:0:0:
160,332,2368,1,2,0:0:0:0:
84,344,2504,2,0,B|68:320|68:320|84:264,1,80,2|0,0:0|0:0,0:0:0:0:
148,204,2776,6,0,L|60:196,1,80,0|0,1:0|0:0,0:0:0:0:
208,164,3049,1,0,0:0:0:0:
296,184,3185,2,0,L|216:176,1,80,0|0,1:0|0:0,0:0:0:0:
320,256,3458,1,0,1:0:0:0:
412,256,3594,2,0,L|332:248,1,80,0|0,0:0|1:0,0:0:0:0:
496,204,3867,6,0,B|452:192|452:192|432:140,1,80,4|0,0:0|0:0,0:0:0:0:
496,16,4140,2,0,L|484:104,1,80,2|0,0:0|0:0,0:0:0:0:
368,120,4413,5,0,0:0:0:0:
288,116,4549,1,2,0:0:0:0:
280,268,4685,1,2,0:0:0:0:
200,264,4821,1,2,0:0:0:0:
136,128,4958,6,0,B|152:108|152:108|144:44,2,80,0|0|0,1:0|0:0|0:0,0:0:0:0:
88,284,5367,2,0,B|72:304|72:304|80:368,2,80,0|0|0,1:0|0:0|1:0,0:0:0:0:
232,216,5776,2,0,P|264:240|260:276,1,80,0|0,0:0|1:0,0:0:0:0:
224,336,5981,1,0,0:0:0:0:
224,336,6049,6,0,L|136:328,1,80,4|0,0:0|0:0,0:0:0:0:
376,352,6322,2,0,L|288:344,1,80,2|0,0:0|0:0,0:0:0:0:
432,216,6595,6,0,L|520:224,1,80,0|2,0:0|0:0,0:0:0:0:
280,200,6867,2,0,L|368:208,1,80,2|0,0:0|0:0,0:0:0:0:
192,152,7140,5,0,1:0:0:0:
180,64,7276,1,0,0:0:0:0:
192,152,7413,1,0,0:0:0:0:
60,296,7549,5,0,1:0:0:0:
72,384,7685,1,0,0:0:0:0:
60,296,7822,1,0,1:0:0:0:
164,256,7958,5,0,0:0:0:0:
264,268,8095,1,0,1:0:0:0:
352,324,8231,6,0,B|408:344|408:344|436:320,1,80,4|0,0:0|0:0,0:0:0:0:
404,248,8504,1,2,0:0:0:0:
380,168,8640,1,0,0:0:0:0:
423,330,8776,1,0,0:0:0:0:
380,168,8913,1,2,0:0:0:0:
427,322,9049,1,2,0:0:0:0:
384,160,9185,1,2,0:0:0:0:
256,120,9322,6,0,P|280:72|252:40,1,80,0|0,1:0|0:0,0:0:0:0:
104,124,9595,2,0,P|133:168|175:160,1,80,0|0,0:0|1:0,0:0:0:0:
204,84,9867,1,0,0:0:0:0:
196,160,10004,1,0,1:0:0:0:
188,236,10140,1,0,0:0:0:0:
180,312,10276,1,0,1:0:0:0:
184,316,10345,1,0,1:0:0:0:
188,320,10413,5,0,1:0:0:0:
272,336,10685,1,0,0:0:0:0:
356,352,10958,1,0,0:0:0:0:
440,368,11231,1,0,0:0:0:0:
36,268,11504,5,8,0:0:0:0:
464,168,11776,1,8,0:0:0:0:
32,124,12049,1,8,0:0:0:0:
468,304,12322,1,8,0:0:0:0:
280,340,12458,5,0,0:0:0:0:
272,344,12526,1,0,0:0:0:0:
264,348,12594,1,0,0:0:0:0:
128,336,12867,1,0,0:0:0:0:
208,300,13140,1,0,0:0:0:0:
72,288,13413,1,0,0:0:0:0:
144,144,13685,5,8,0:0:0:0:
374,165,13958,1,8,0:0:0:0:
175,283,14231,1,8,0:0:0:0:
267,70,14504,1,8,0:1:0:0:
320,296,14640,5,0,0:0:0:0:
324,304,14708,1,0,0:0:0:0:
328,312,14776,2,0,L|432:320,1,80,0|0,1:0|0:0,0:0:0:0:
244,232,15049,2,0,L|164:225,1,80,0|0,1:0|0:0,0:0:0:0:
322,296,15322,2,0,L|316:376,1,80,0|0,1:0|0:0,0:0:0:0:
256,248,15595,2,0,L|262:168,1,80,0|0,1:0|0:0,0:0:0:0:
348,24,15867,5,0,1:0:0:0:
352,96,16004,1,0,0:0:0:0:
484,368,16140,5,0,1:0:0:0:
480,296,16277,1,0,0:0:0:0:
504,188,16413,5,0,1:0:0:0:
368,208,16549,1,0,0:0:0:0:
255,221,16685,5,0,1:0:0:0:
235,195,16754,1,0,0:0:0:0:
224,164,16822,1,0,0:0:0:0:
224,132,16890,1,0,0:0:0:0:
235,102,16958,2,0,B|251:54|215:13,1,80,0|0,1:0|0:0,0:0:0:0:
24,148,17231,2,0,B|8:196|44:237,1,80,0|0,1:0|0:0,0:0:0:0:
172,380,17504,5,0,1:0:0:0:
260,344,17640,1,0,0:0:0:0:
274,349,17708,1,0,0:0:0:0:
289,352,17776,1,0,0:0:0:0:
304,354,17845,1,0,0:0:0:0:
319,355,17913,1,0,0:0:0:0:
334,353,17981,1,0,0:0:0:0:
349,350,18049,5,8,0:0:0:0:
412,184,18185,1,8,0:0:0:0:
273,202,18322,5,8,0:0:0:0:
336,36,18458,1,8,0:0:0:0:
256,192,18526,12,0,19958,0:0:0:0:
36,232,20095,5,0,0:0:0:0:
32,240,20163,1,0,0:0:0:0:
28,248,20231,2,0,B|84:240|84:240|120:268|120:268|184:256,1,160,0|8,0:0|0:0,0:0:0:0:
88,332,20640,2,0,L|8:344,1,80
208,188,20913,2,0,L|288:176,1,80,0|8,0:0|0:0,0:0:0:0:
340,300,21185,5,0,0:0:0:0:
456,328,21322,2,0,P|496:256|444:192,1,160,0|8,0:0|0:0,0:0:0:0:
408,120,21731,1,0,0:0:0:0:
416,112,21799,1,0,0:0:0:0:
424,104,21867,1,0,0:0:0:0:
356,172,22004,1,8,0:0:0:0:
272,36,22140,1,8,0:0:0:0:
204,104,22277,1,0,0:0:0:0:
212,96,22345,1,0,0:0:0:0:
220,88,22413,6,0,B|252:120|252:120|232:240,1,160,0|8,0:0|0:0,0:0:0:0:
216,336,22822,1,0,0:0:0:0:
216,336,23095,1,0,0:0:0:0:
304,300,23231,1,8,0:0:0:0:
312,196,23367,1,8,0:0:0:0:
224,232,23504,2,0,L|124:224,1,80,0|8,0:0|0:0,0:0:0:0:
372,248,23776,2,0,L|272:240,1,80,8|0,0:0|0:0,0:0:0:0:
400,316,24049,5,8,0:0:0:0:
472,356,24185,1,0,0:0:0:0:
468,276,24322,1,8,0:0:0:0:
464,196,24458,1,8,0:0:0:0:
468,188,24526,1,0,0:0:0:0:
472,180,24595,6,0,B|416:188|416:188|380:160|380:160|316:172,1,160,0|8,0:0|0:0,0:0:0:0:
204,56,25004,1,0,0:0:0:0:
204,56,25140,2,0,B|236:84|236:84|224:176,1,120
160,136,25413,2,0,L|148:215,1,80,8|0,0:0|0:0,0:0:0:0:
268,348,25685,2,0,L|280:269,1,80
388,24,25958,2,0,L|376:103,1,80,8|0,0:0|0:0,0:0:0:0:
276,356,26367,6,0,L|288:277,1,80,8|8,0:0|0:0,0:0:0:0:
396,32,26640,2,0,L|384:111,1,80
368,204,26913,1,0,0:0:0:0:
436,264,27049,1,8,0:0:0:0:
352,296,27185,1,0,0:0:0:0:
356,212,27322,5,8,0:0:0:0:
264,196,27459,1,0,0:0:0:0:
352,296,27595,1,8,0:0:0:0:
204,264,27731,1,0,0:0:0:0:
196,268,27799,1,0,0:0:0:0:
188,272,27867,6,0,P|180:316|200:348,1,80,10|0,0:0|0:0,0:0:0:0:
64,108,28140,2,0,P|72:64|52:32,1,80,8|2,0:0|0:0,0:0:0:0:
64,108,28549,1,0,0:0:0:0:
140,164,28685,1,8,0:0:0:0:
204,60,28822,1,0,0:0:0:0:
200,52,28890,1,0,0:0:0:0:
196,44,28958,6,0,B|316:72|316:72|340:40,1,160,0|8,0:0|0:0,0:0:0:0:
488,8,29367,2,0,P|508:48|500:88,1,80
368,300,29640,2,0,P|348:260|356:220,1,80,0|8,0:0|0:0,0:0:0:0:
408,160,29913,1,0,0:0:0:0:
456,228,30049,6,0,B|400:236|400:236|364:208|364:208|300:220,1,160,0|8,0:0|0:0,0:0:0:0:
212,348,30458,1,0,0:0:0:0:
200,340,30526,1,0,0:0:0:0:
188,332,30595,2,0,L|109:347,2,80,0|0|8,0:0|0:0|0:0,0:0:0:0:
92,220,31004,1,0,0:0:0:0:
88,240,31072,1,0,0:0:0:0:
76,256,31140,2,8,B|32:256|0:228|0:228|4:184|52:164,1,160,0|8,0:0|0:0,0:0:0:0:
184,196,31549,2,0,P|284:216|352:188,1,160
440,160,31958,1,8,0:0:0:0:
440,160,32095,1,8,0:0:0:0:
440,160,32231,6,0,B|460:184|460:184|448:248,1,80,0|8,0:0|0:0,0:0:0:0:
384,360,32504,2,0,B|356:344|356:344|346:280,1,80,8|0,0:0|0:0,0:0:0:0:
328,192,32776,1,8,0:0:0:0:
312,92,32913,1,0,0:0:0:0:
256,148,33049,1,8,0:0:0:0:
240,48,33186,1,0,0:0:0:0:
216,40,33254,1,0,0:0:0:0:
192,40,33322,6,0,B|164:72|164:72|180:152,1,120
196,212,33595,2,0,L|216:308,1,80,8|0,0:0|0:0,0:0:0:0:
100,156,33867,2,0,L|120:252,1,80
32,360,34140,2,0,P|0:336|20:272,1,80,8|8,0:0|0:0,0:0:0:0:
96,292,34413,6,0,B|151:304|151:304|174:343|174:343|238:355,1,160,0|8,0:0|0:0,0:0:0:0:
80,292,34822,2,0,P|152:256|132:176,1,160
40,180,35231,2,0,B|24:160|24:160|40:100,1,80,8|8,0:0|0:0,0:0:0:0:
156,88,35504,5,0,0:0:0:0:
224,72,35640,1,8,0:0:0:0:
292,56,35776,1,8,0:0:0:0:
276,124,35913,1,0,0:0:0:0:
220,172,36049,6,0,L|132:172,1,80,8|0,0:0|0:0,0:0:0:0:
356,212,36322,2,0,L|268:212,1,80,8|0,0:0|0:0,0:0:0:0:
432,280,36595,1,8,0:0:0:0:
464,176,36731,1,0,0:0:0:0:
388,108,36867,1,8,0:0:0:0:
356,212,37003,5,0,0:0:0:0:
344,216,37072,1,0,0:0:0:0:
332,220,37140,1,0,0:0:0:0:
320,224,37208,1,0,0:0:0:0:
308,228,37276,1,0,0:0:0:0:
296,232,37345,1,0,0:0:0:0:
284,236,37413,1,0,0:0:0:0:
272,240,37481,1,0,0:0:0:0:
260,244,37549,1,0,0:0:0:0:
248,248,37617,1,0,0:0:0:0:
236,252,37685,6,0,P|220:292|248:308,1,80
124,384,37958,2,0,P|140:344|112:328,1,80,8|0,0:0|0:0,0:0:0:0:
32,304,38231,1,0,0:0:0:0:
20,232,38367,1,0,0:0:0:0:
8,164,38504,1,8,0:0:0:0:
120,256,38640,1,0,0:0:0:0:
220,184,38776,6,0,L|312:192,1,80
76,172,39049,2,0,L|168:180,1,80,8|0,0:0|0:0,0:0:0:0:
8,164,39322,6,0,B|-8:88|-8:88|32:56,2,120,0|8|8,0:0|0:0|0:0,0:0:0:0:
132,192,39867,5,0,0:0:0:0:
169,269,40004,1,0,0:0:0:0:
94,311,40140,1,8,0:0:0:0:
57,233,40276,1,0,0:0:0:0:
76,173,40412,5,0,0:0:0:0:
189,210,40549,1,0,0:0:0:0:
150,329,40685,1,8,0:0:0:0:
37,292,40822,1,0,0:0:0:0:
116,248,40958,6,0,P|192:248|236:296,1,143.999995605469,2|0,0:0|0:0,0:0:0:0:
228,156,41231,6,0,P|272:200|276:248,1,95.9999970703126,2|0,0:0|0:0,0:0:0:0:
332,128,41504,6,0,P|340:152|336:192,1,64,2|0,0:0|0:0,0:0:0:0:
260,60,41776,5,0,0:0:0:0:
252,48,41845,1,0,0:0:0:0:
244,36,41913,1,0,0:0:0:0:
256,28,41981,1,0,0:0:0:0:
268,20,42049,2,0,B|381:47|381:47|417:15|417:15,1,160,0|8,0:0|0:0,0:0:0:0:
488,48,42458,1,0,0:0:0:0:
484,176,42595,2,0,B|468:196|468:196|492:260,1,80
440,124,42867,2,0,B|364:216|364:216|424:204,1,160,8|0,0:0|0:0,0:0:0:0:
116,256,43413,5,8,0:0:0:0:
403,208,43685,5,0,0:0:0:0:
308,224,43822,1,0,0:0:0:0:
212,240,43958,1,8,0:0:0:0:
116,256,44095,1,0,0:0:0:0:
84,120,44231,6,0,L|72:208,1,80
168,4,44504,2,0,L|156:92,1,80,8|0,0:0|0:0,0:0:0:0:
79,130,44776,6,0,L|0:120,1,80
164,92,45049,2,0,L|252:104,1,80,8|0,0:0|0:0,0:0:0:0:
449,87,45322,6,0,B|465:4,1,80,0|8,0:0|0:0,0:0:0:0:
374,306,45595,2,0,B|390:389,1,80,8|0,0:0|0:0,0:0:0:0:
475,241,45867,6,0,P|480:211|452:173,1,80,8|0,0:0|0:0,0:0:0:0:
135,312,46140,2,0,P|130:342|158:380,1,80,8|0,0:0|0:0,0:0:0:0:
253,278,46413,6,0,P|300:216|236:152,1,160,0|8,0:0|0:0,0:0:0:0:
156,200,46822,1,0,0:0:0:0:
56,248,46958,2,0,L|70:335,1,80
32,104,47231,2,0,L|46:191,1,80,8|0,0:0|0:0,0:0:0:0:
56,248,47435,5,0,0:0:0:0:
56,248,47504,2,0,P|92:272|76:308,1,80
156,128,47776,2,0,P|120:104|136:68,1,80,8|0,0:0|0:0,0:0:0:0:
96,184,48049,1,0,0:0:0:0:
256,228,48254,1,8,0:0:0:0:
416,184,48458,1,8,0:0:0:0:
369,289,48595,5,0,0:0:0:0:
448,280,48731,1,0,0:0:0:0:
494,343,48867,1,8,0:0:0:0:
369,289,49004,5,0,0:0:0:0:
477,208,49140,1,0,0:0:0:0:
494,343,49276,1,0,0:0:0:0:
369,289,49413,1,8,0:0:0:0:
256,320,49549,1,0,0:0:0:0:
144,348,49685,2,0,B|88:340|88:340|72:304,1,80,2|0,0:0|0:0,0:0:0:0:
160,224,49958,2,0,B|216:232|216:232|225:253,1,80,2|0,0:0|0:0,0:0:0:0:
40,224,50231,6,0,B|24:128,1,80,2|0,0:0|0:0,0:0:0:0:
149,78,50504,2,0,B|136:0,1,80,2|0,0:0|0:0,0:0:0:0:
128,176,50776,6,0,B|180:184|180:184|240:156|240:156|300:164,1,160,0|8,0:0|0:0,0:0:0:0:
420,148,51322,1,0,0:0:0:0:
492,115,51459,1,0,0:0:0:0:
484,35,51595,1,8,0:0:0:0:
405,18,51731,1,0,0:0:0:0:
332,96,51867,6,0,B|307:120|307:120|319:176,1,80,8|8,0:0|0:0,0:0:0:0:
328,172,52072,1,0,0:0:0:0:
340,180,52140,1,8,0:0:0:0:
432,192,52276,2,0,B|346:179|346:179|291:222|291:222|194:204,1,240,0|8,0:0|0:0,0:0:0:0:
193,220,52754,1,0,0:0:0:0:
183,237,52822,1,0,0:0:0:0:
183,256,52890,1,0,0:0:0:0:
194,272,52958,6,0,L|282:290,1,80
48,280,53231,2,0,L|136:298,1,80,8|0,0:0|0:0,0:0:0:0:
200,348,53504,1,0,0:0:0:0:
304,344,53640,1,0,0:0:0:0:
340,280,53776,1,8,0:0:0:0:
444,284,53912,1,0,0:0:0:0:
492,384,54049,6,0,B|516:364|516:364|508:312,1,80
492,228,54322,2,8,L|472:140,1,80,8|0,0:0|0:0,0:0:0:0:
416,84,54595,1,0,1:0:0:0:
350,129,54731,1,0,1:0:0:0:
304,64,54867,1,8,1:0:0:0:
370,18,55004,5,8,2:0:0:0:
368,29,55072,1,0,0:0:0:0:
365,40,55140,1,8,0:0:0:0:
350,129,55276,1,0,0:0:0:0:
251,205,55413,1,8,0:0:0:0:
236,116,55549,1,0,0:0:0:0:
135,55,55685,1,8,0:0:0:0:
120,144,55821,1,0,0:0:0:0:
24,200,55958,1,8,0:0:0:0:
96,320,56095,5,8,0:0:0:0:
96,328,56163,1,0,0:0:0:0:
96,336,56231,1,0,0:0:0:0:
176,280,56367,1,8,0:0:0:0:
176,272,56435,1,0,0:0:0:0:
176,264,56503,1,0,0:0:0:0:
56,296,56640,2,0,B|111:307|111:307|135:346|135:346|199:356,1,160,8|0,0:0|0:0,0:0:0:0:
272,304,57049,1,0,0:0:0:0:
356,364,57185,5,0,0:0:0:0:
368,356,57254,1,0,0:0:0:0:
380,348,57322,2,8,P|448:336|428:256,1,160,0|8,0:0|0:0,0:0:0:0:
356,272,57731,2,0,L|368:176,1,80
464,144,58004,1,0,0:0:0:0:
452,36,58140,1,8,0:0:0:0:
344,20,58276,1,0,0:0:0:0:
256,128,58413,6,0,B|212:136|212:136|144:84|144:84|96:96,1,160,0|8,0:0|0:0,0:0:0:0:
52,156,58822,1,0,0:0:0:0:
80,300,58958,2,0,L|96:392,1,80
52,156,59231,2,0,L|68:248,1,80,8|0,0:0|0:0,0:0:0:0:
80,300,59435,1,0,0:0:0:0:
80,300,59504,2,0,B|92:376|92:376|176:384,1,160,0|8,0:0|0:0,0:0:0:0:
240,344,59913,2,0,L|404:344,1,160
352,264,60322,5,8,0:0:0:0:
340,192,60458,1,8,0:0:0:0:
392,100,60595,2,0,B|416:124|416:124|400:184,1,80,0|8,0:0|0:0,0:0:0:0:
440,24,60867,2,0,B|464:48|464:48|448:108,1,80,8|0,0:0|0:0,0:0:0:0:
356,16,61140,5,8,0:0:0:0:
340,84,61276,1,0,0:0:0:0:
188,48,61413,1,8,0:0:0:0:
172,116,61549,1,0,0:0:0:0:
160,112,61617,1,0,0:0:0:0:
148,108,61685,2,0,B|44:136|44:136|84:180,1,160,0|8,0:0|0:0,0:0:0:0:
156,248,62095,5,0,0:0:0:0:
192,304,62231,2,0,P|228:252|200:196,1,120
156,248,62504,2,0,L|152:344,1,80,8|0,0:0|0:0,0:0:0:0:
276,136,62776,2,0,L|280:40,1,80
272,212,63049,1,8,0:0:0:0:
272,212,63185,1,0,0:0:0:0:
272,212,63458,5,8,0:0:0:0:
372,200,63594,1,8,0:0:0:0:
472,184,63731,1,0,0:0:0:0:
424,264,63867,6,0,B|444:288|444:288|432:352,1,80
312,144,64140,2,0,B|292:120|292:120|304:56,1,80,8|0,0:0|0:0,0:0:0:0:
272,212,64413,1,0,0:0:0:0:
260,304,64549,1,0,0:0:0:0:
168,248,64685,1,8,0:0:0:0:
156,340,64821,1,0,0:0:0:0:
144,348,64890,1,0,0:0:0:0:
132,356,64958,6,0,P|104:328|108:280,1,80,10|0,0:0|0:0,0:0:0:0:
352,312,65231,2,0,P|380:340|380:378,1,80,8|2,0:0|0:0,0:0:0:0:
132,356,65640,5,0,0:0:0:0:
168,248,65776,1,8,0:0:0:0:
52,292,65913,1,0,0:0:0:0:
40,296,65981,1,0,0:0:0:0:
28,300,66049,2,0,B|0:272|0:272|28:148,1,160,0|8,0:0|0:0,0:0:0:0:
120,48,66458,2,0,P|160:68|164:108,1,80
148,172,66731,1,0,0:0:0:0:
8,132,66867,2,0,L|92:140,1,80,8|0,0:0|0:0,0:0:0:0:
148,172,67140,6,0,B|212:176|212:176|224:184|228:196|228:196|328:200,1,160,0|8,0:0|0:0,0:0:0:0:
224,264,67549,1,0,0:0:0:0:
228,336,67685,1,0,0:0:0:0:
280,128,67822,1,0,0:0:0:0:
276,56,67958,1,8,0:0:0:0:
372,56,68095,5,0,0:0:0:0:
400,60,68163,1,0,0:0:0:0:
428,64,68231,2,0,P|464:136|416:216,1,160,0|8,0:0|0:0,0:0:0:0:
504,376,68640,2,0,P|473:308|509:236,1,160
408,260,69049,1,8,0:0:0:0:
336,264,69185,1,8,0:0:0:0:
264,268,69322,1,0,0:0:0:0:
244,372,69458,1,8,0:0:0:0:
168,240,69595,1,8,0:0:0:0:
148,344,69731,1,0,0:0:0:0:
72,288,69867,6,0,B|12:308|12:308|-20:288,2,80,8|0|8,0:0|0:0|0:0,0:0:0:0:
80,196,70276,1,8,0:0:0:0:
64,184,70345,1,0,0:0:0:0:
48,172,70413,2,0,B|120:160|120:160|160:196|160:196,1,120
220,176,70685,2,0,L|305:160,1,80,8|0,0:0|0:0,0:0:0:0:
376,184,70958,1,8,0:0:0:0:
396,188,71026,1,0,0:0:0:0:
416,192,71095,1,0,0:0:0:0:
484,128,71231,1,8,0:0:0:0:
477,108,71299,1,0,0:0:0:0:
470,89,71368,1,0,0:0:0:0:
496,228,71504,6,0,B|512:316|512:316|428:356,1,160,0|8,0:0|0:0,0:0:0:0:
352,356,71913,2,0,P|320:284|404:276,1,160
352,356,72322,2,0,L|256:348,1,80,8|0,0:0|0:0,0:0:0:0:
176,188,72595,5,0,0:0:0:0:
168,292,72731,1,0,0:0:0:0:
256,256,72867,1,8,0:0:0:0:
264,152,73003,1,0,0:0:0:0:
176,188,73140,2,0,L|76:180,1,80
324,204,73412,2,0,L|224:196,1,80,8|0,0:0|0:0,0:0:0:0:
376,260,73685,5,0,0:0:0:0:
480,312,73822,1,8,0:0:0:0:
472,164,73958,1,8,0:0:0:0:
368,112,74095,5,0,0:0:0:0:
348,115,74163,1,0,0:0:0:0:
328,117,74231,1,0,0:0:0:0:
308,117,74299,1,0,0:0:0:0:
288,114,74367,1,0,0:0:0:0:
268,109,74435,1,0,0:0:0:0:
248,103,74504,1,0,0:0:0:0:
229,95,74572,1,0,0:0:0:0:
211,84,74640,1,0,0:0:0:0:
195,71,74708,1,0,0:0:0:0:
180,57,74776,6,0,B|144:96|184:144,1,80
128,184,75049,2,0,B|72:196|72:196|92:212,1,80,8|0,0:0|0:0,0:0:0:0:
152,252,75322,1,0,0:0:0:0:
220,236,75458,1,0,0:0:0:0:
288,220,75595,1,8,0:0:0:0:
244,328,75731,1,0,0:0:0:0:
388,296,75867,6,0,L|300:316,1,80
512,332,76140,2,0,L|424:352,1,80,8|0,0:0|0:0,0:0:0:0:
476,248,76413,2,0,P|504:200|476:148,2,120,0|8|8,0:0|0:0|0:0,0:0:0:0:
400,200,76958,1,0,0:0:0:0:
324,196,77095,1,0,0:0:0:0:
248,192,77231,1,8,0:0:0:0:
172,188,77368,1,0,0:0:0:0:
72,272,77504,6,0,B|64:300|64:300|80:360,1,80,0|8,0:0|0:0,0:0:0:0:
36,116,77776,2,0,B|44:88|44:88|28:28,1,80,8|0,0:0|0:0,0:0:0:0:
160,72,78049,6,0,L|184:220,1,143.999995605469,2|0,0:0|0:0,0:0:0:0:
380,240,78322,6,0,L|392:136,1,95.9999970703126,2|0,0:0|0:0,0:0:0:0:
232,264,78595,6,0,L|244:336,1,64,2|0,0:0|0:0,0:0:0:0:
332,320,78867,5,0,0:0:0:0:
355,343,78935,1,0,0:0:0:0:
387,354,79004,1,0,0:0:0:0:
420,355,79072,1,0,0:0:0:0:
453,348,79140,2,0,B|472:292|472:292|452:248|452:248|464:188,1,160,0|8,0:0|0:0,0:0:0:0:
392,148,79549,5,0,0:0:0:0:
456,104,79685,2,0,P|504:104|528:144,1,80
296,104,79958,2,0,P|348:40|424:40,1,160,8|0,0:0|0:0,0:0:0:0:
336,328,80504,1,8,0:0:0:0:
420,38,80776,5,0,0:0:0:0:
392,136,80913,1,8,0:0:0:0:
364,232,81049,1,8,0:0:0:0:
336,328,81185,1,0,0:0:0:0:
244,360,81322,6,0,P|208:340|144:352,1,80
88,364,81595,1,8,0:0:0:0:
88,364,81731,1,0,0:0:0:0:
99,208,81867,6,0,P|117:244|101:308,1,80,0|0,0:0|0:0,0:0:0:0:
88,364,82140,1,8,0:0:0:0:
88,364,82276,1,8,0:0:0:0:
100,208,82413,6,0,L|8:216,1,80,8|0,0:0|0:0,0:0:0:0:
248,196,82685,2,0,L|156:204,1,80,8|0,0:0|0:0,0:0:0:0:
396,284,82958,6,0,L|488:276,1,80,8|0,0:0|0:0,0:0:0:0:
248,296,83230,2,0,L|340:288,1,80,8|0,0:0|0:0,0:0:0:0:
356,356,83504,6,0,B|416:312|416:312|392:216,1,160,0|8,0:0|0:0,0:0:0:0:
376,152,83913,1,0,0:0:0:0:
468,180,84049,2,0,B|504:204|504:204|488:248,1,80
408,60,84322,2,0,B|372:36|372:36|388:-8,1,80,8|0,0:0|0:0,0:0:0:0:
452,4,84527,1,0,0:0:0:0:
452,4,84595,5,0,0:0:0:0:
480,96,84731,1,0,0:0:0:0:
440,184,84867,1,8,0:0:0:0:
348,216,85004,1,0,0:0:0:0:
252,204,85140,5,0,0:0:0:0:
364,356,85345,1,8,0:0:0:0:
440,184,85549,1,8,0:0:0:0:
352,260,85685,6,0,L|444:268,1,80
352,260,85958,1,8,0:0:0:0:
272,312,86095,1,0,0:0:0:0:
247,236,86231,6,0,L|275:323,1,80
247,236,86504,1,8,0:0:0:0:
167,182,86641,1,0,0:0:0:0:
88,175,86776,6,0,L|180:183,1,80,2|0,0:0|0:0,0:0:0:0:
424,175,87049,2,0,L|332:183,1,80,2|0,0:0|0:0,0:0:0:0:
64,108,87322,6,0,L|156:116,1,80,2|0,0:0|0:0,0:0:0:0:
448,108,87595,2,0,L|368:114,1,80,2|0,0:0|0:0,0:0:0:0:
256,176,87867,6,0,B|248:236|248:236|264:284|264:284|256:348,1,160,0|8,0:0|0:0,0:0:0:0:
176,288,88276,1,0,0:0:0:0:
88,300,88413,2,0,P|80:340|104:372,1,80
148,128,88685,2,0,P|156:88|132:56,1,80,8|0,0:0|0:0,0:0:0:0:
308,166,88958,2,8,P|289:202|304:239,1,80,8|0,0:0|0:0,0:0:0:0:
315,247,89163,1,0,0:0:0:0:
326,256,89231,1,8,0:0:0:0:
440,248,89367,6,0,B|354:235|354:235|299:278|299:278|202:260,1,240,0|8,0:0|0:0,0:0:0:0:
212,252,89845,1,0,0:0:0:0:
208,240,89913,1,0,0:0:0:0:
204,228,89981,1,0,0:0:0:0:
200,216,90049,6,0,P|176:248|180:304,1,80
328,164,90322,2,0,P|288:158|241:189,1,80,8|0,0:0|0:0,0:0:0:0:
328,320,90595,6,0,P|304:288|308:232,1,80
456,372,90867,2,0,P|416:377|369:346,1,80,8|8,0:0|0:0,0:0:0:0:
436,212,91140,6,0,P|444:250|418:300,1,80,0|8,0:0|0:0,0:0:0:0:
341,112,91413,2,0,P|379:123|409:170,1,80,8|0,0:0|0:0,0:0:0:0:
252,72,91685,6,0,P|276:40|272:-16,1,80,8|0,0:0|0:0,0:0:0:0:
124,124,91958,2,0,P|163:129|210:98,1,80,8|8,0:0|0:0,0:0:0:0:
252,72,92163,5,0,0:0:0:0:
252,72,92231,1,8,0:0:0:0:
340,80,92367,1,0,0:0:0:0:
508,172,92504,1,8,0:0:0:0:
420,180,92640,1,0,0:0:0:0:
288,160,92776,5,8,0:0:0:0:
272,316,92912,1,0,0:0:0:0:
188,272,93049,5,8,0:0:0:0:
128,176,93185,2,0,L|120:220,2,40,8|0|0,0:0|0:0|0:0,0:0:0:0:
196,312,93458,2,0,L|188:268,2,40,8|0|0,0:0|0:0|0:0,0:0:0:0:
88,260,93731,2,0,L|256:240,1,160,8|0,0:0|0:0,0:0:0:0:
436,204,94140,2,8,L|428:300,1,80
424,352,94413,1,0,1:0:0:0:
424,352,94685,6,0,P|488:284|480:224,1,160,8|0,1:0|1:0,0:0:0:0:
397,253,95095,1,2,0:0:0:0:
344,185,95231,1,8,1:0:0:0:
392,113,95367,1,2,0:0:0:0:
475,137,95504,1,0,1:0:0:0:
397,253,95776,5,8,1:0:0:0:
397,253,95913,2,0,B|340:264|340:264|312:296|312:296|248:308,2,160,2|2|8,0:0|0:0|0:0,0:0:0:0:
444,372,96731,5,2,0:0:0:0:
472,292,96867,1,8,1:0:0:0:
397,253,97003,1,2,0:0:0:0:
444,372,97140,5,0,1:0:0:0:
397,253,97276,1,2,0:0:0:0:
495,175,97413,1,8,1:0:0:0:
448,56,97549,1,2,0:0:0:0:
397,253,97685,1,0,1:0:0:0:
260,112,97822,1,2,0:0:0:0:
212,212,98095,6,0,L|216:248,1,20,2|0,0:0|0:0,0:0:0:0:
212,212,98367,5,2,0:0:0:0:
240,312,98503,1,8,1:0:0:0:
168,304,98640,1,2,0:0:0:0:
96,300,98776,2,0,B|24:272|24:272|40:168,1,160,0|8,1:0|1:0,1:0:0:0:
172,24,99185,2,2,B|100:52|100:52|116:156,2,160
236,104,99867,1,0,1:0:0:0:
320,72,100004,2,0,L|404:76,1,80,2|8,0:0|1:0,0:0:0:0:
464,36,100276,5,2,0:0:0:0:
452,24,100345,1,0,0:0:0:0:
440,12,100413,2,0,B|428:56|428:56|444:132|444:132|432:188,1,160,0|8,1:0|1:0,1:0:0:0:
412,264,100822,1,0,0:0:0:0:
412,264,101095,5,2,0:0:0:0:
304,224,101231,1,8,1:0:0:0:
288,292,101367,1,2,0:0:0:0:
332,348,101504,5,0,1:0:0:0:
412,264,101640,1,2,0:0:0:0:
304,224,101776,1,8,1:0:0:0:
384,140,101912,1,2,0:0:0:0:
368,72,102049,5,0,1:0:0:0:
296,68,102185,1,2,0:0:0:0:
168,104,102322,5,8,1:0:0:0:
96,100,102458,1,2,0:0:0:0:
296,68,102595,5,8,1:0:0:0:
312,160,102731,1,2,0:0:0:0:
160,196,102867,1,8,1:0:0:0:
168,104,103003,1,2,0:0:0:0:
240,316,103140,5,4,1:0:0:0:
240,316,103413,5,8,1:0:0:0:
240,316,103685,1,0,1:0:0:0:
452,368,103822,1,2,0:0:0:0:
240,316,104095,2,0,B|292:308|292:308|344:340|344:340|396:332,1,160,2|2,0:0|0:0,0:0:0:0:
452,368,104504,5,8,1:0:0:0:
512,288,104640,1,2,0:0:0:0:
460,236,104776,2,0,B|424:200|424:200|444:72,1,160,0|8,1:0|0:0,0:0:0:0:
456,16,105185,1,2,0:0:0:0:
344,72,105458,5,2,0:0:0:0:
272,80,105595,1,8,1:0:0:0:
200,88,105731,1,2,0:0:0:0:
128,156,105867,5,0,1:0:0:0:
24,136,106004,1,2,0:0:0:0:
96,68,106140,1,8,1:0:0:0:
200,88,106277,1,2,0:0:0:0:
24,136,106413,5,0,1:0:0:0:
152,264,106549,1,2,0:0:0:0:
200,88,106685,1,8,1:0:0:0:
24,136,106822,1,2,0:0:0:0:
132,172,106958,5,0,1:0:0:0:
204,164,107095,1,2,0:0:0:0:
296,244,107231,5,8,1:0:0:0:
368,236,107368,1,2,0:0:0:0:
452,296,107504,6,0,P|476:220|416:148,1,160,0|8,1:0|1:0,0:0:0:0:
368,236,108049,5,0,1:0:0:0:
296,244,108185,1,2,0:0:0:0:
224,252,108322,1,0,1:0:0:0:
268,148,108595,5,0,1:0:0:0:
196,132,108731,1,0,1:0:0:0:
180,140,108799,1,0,1:0:0:0:
164,148,108867,1,0,1:0:0:0:
84,140,109004,2,0,B|64:204|64:204|144:280|144:280|116:356,1,240,0|0,1:0|1:0,0:0:0:0:
118,333,109481,1,0,1:0:0:0:
113,329,109549,1,0,1:0:0:0:
109,324,109617,1,0,1:0:0:0:
104,320,109685,6,0,P|179:342|266:346,1,160,0|8,1:0|0:0,1:0:0:0:
416,308,110640,1,0,1:0:0:0:
416,308,110776,2,0,P|428:360|416:392,2,80,0|0|8,1:0|1:0|0:0,0:0:0:0:
308,224,111731,5,2,0:0:0:0:
308,224,111799,1,0,0:0:0:0:
308,224,111867,2,0,P|312:192|288:176,1,53.3333333333333,8|0,1:0|0:0,0:0:0:0:
212,240,112049,1,0,0:0:0:0:
212,240,112140,2,0,L|204:304,1,53.3333333333333,8|0,1:0|0:0,0:0:0:0:
168,124,112322,1,0,0:0:0:0:
168,124,112413,2,0,L|176:52,1,53.3333333333333,8|0,1:0|0:0,0:0:0:0:
304,136,112595,1,0,0:0:0:0:
304,136,112685,2,0,L|360:148,1,53.3333333333333,8|0,1:0|0:0,0:0:0:0:
488,136,112867,5,0,0:0:0:0:
488,136,112958,2,0,P|504:180|488:228,1,80,8|0,1:0|1:0,0:0:0:0:
484,220,113163,1,0,1:0:0:0:
472,228,113231,1,0,1:0:0:0:
392,184,113367,2,0,B|336:188|336:188|304:224|304:224|236:228,1,160,8|8,0:0|0:0,0:0:0:0:
200,308,113776,1,0,1:0:0:0:
120,264,113913,1,0,1:0:0:0:
136,172,114049,6,0,B|128:128|128:128|88:100,1,80
16,276,114322,2,0,B|24:320|24:320|64:348,1,80,8|0,0:0|0:0,0:0:0:0:
120,264,114595,5,0,0:0:0:0:
232,256,114731,1,0,0:0:0:0:
192,320,114867,1,8,0:0:0:0:
304,312,115003,1,0,0:0:0:0:
424,288,115140,6,0,L|408:380,1,80
452,148,115413,2,0,L|436:240,1,80,8|0,0:0|0:0,0:0:0:0:
376,116,115685,6,0,P|392:72|464:60,2,120,0|8|8,0:0|0:0|0:0,0:0:0:0:
360,204,116231,1,0,0:0:0:0:
280,208,116367,1,0,0:0:0:0:
240,332,116504,1,8,0:0:0:0:
160,336,116640,1,0,0:0:0:0:
112,256,116776,6,0,L|124:172,1,80
0,332,117049,2,0,L|12:248,1,80,8|8,0:0|0:0,0:0:0:0:
112,256,117322,6,0,B|184:280|184:280|272:256,1,143.999995605469,2|0,0:0|0:0,0:0:0:0:
488,328,117595,6,0,B|440:312|440:312|380:332,1,95.9999970703126,2|0,0:0|0:0,0:0:0:0:
312,360,117867,6,0,L|324:284,1,64,2|0,0:0|0:0,0:0:0:0:
367,162,118140,5,8,0:0:0:0:
368,196,118208,1,0,0:0:0:0:
382,225,118277,1,0,0:0:0:0:
404,249,118345,1,0,0:0:0:0:
434,268,118413,2,0,B|453:212|453:212|434:167|434:167|447:108,1,160,0|8,0:0|0:0,0:0:0:0:
392,52,118822,5,0,0:0:0:0:
248,64,118958,2,0,L|336:56,1,80
104,76,119231,2,0,L|192:68,1,80,8|0,0:0|0:0,0:0:0:0:
160,4,119504,6,0,B|212:52|212:52|188:148,1,160,0|8,0:0|0:0,0:0:0:0:
168,232,119913,1,0,0:0:0:0:
80,248,120049,2,0,L|-4:264,1,80
240,348,120322,2,0,L|324:332,1,80,8|0,0:0|0:0,0:0:0:0:
400,376,120595,5,0,0:0:0:0:
392,288,120731,1,0,0:0:0:0:
496,296,120867,1,8,0:0:0:0:
492,204,121003,1,0,0:0:0:0:
392,288,121140,5,0,0:0:0:0:
378,144,121276,1,8,0:0:0:0:
492,204,121413,1,8,0:0:0:0:
485,53,121549,1,0,0:0:0:0:
392,288,121685,6,0,L|388:372,1,80,8|0,0:0|0:0,0:0:0:0:
492,204,121958,2,0,L|496:288,1,80,8|0,0:0|0:0,0:0:0:0:
378,144,122231,6,0,L|374:228,1,80,8|0,0:0|0:0,0:0:0:0:
486,53,122504,2,0,L|490:137,1,80,8|0,0:0|0:0,0:0:0:0:
312,200,122776,6,0,P|264:136|308:60,1,160,0|8,0:0|0:0,0:0:0:0:
364,124,123185,1,0,0:0:0:0:
364,124,123322,2,0,L|456:116,1,80
384,332,123595,2,0,L|292:340,1,80,8|0,0:0|0:0,0:0:0:0:
220,360,123867,5,0,0:0:0:0:
228,280,124004,1,0,0:0:0:0:
100,184,124140,5,8,0:0:0:0:
108,104,124277,1,0,0:0:0:0:
100,184,124413,5,0,0:0:0:0:
228,280,124617,1,8,0:0:0:0:
80,344,124822,1,8,0:0:0:0:
132,272,124958,6,0,P|172:268|216:284,1,80
340,364,125231,1,8,0:0:0:0:
340,364,125367,1,0,0:0:0:0:
488,220,125504,6,0,P|448:216|404:232,1,80
280,312,125777,1,8,0:0:0:0:
280,312,125913,1,0,0:0:0:0:
335,259,126049,6,0,P|323:212|347:166,1,80,2|0,0:0|0:0,0:0:0:0:
428,364,126322,2,0,P|384:343|362:297,1,80,2|0,0:0|0:0,0:0:0:0:
461,213,126595,6,0,P|472:166|448:120,1,80,2|0,0:0|0:0,0:0:0:0:
368,318,126868,2,0,P|411:297|433:251,1,80,2|0,0:0|0:0,0:0:0:0:
292,344,127140,6,0,B|236:336|236:336|200:364|200:364|136:352,1,160,0|8,0:0|0:0,0:0:0:0:
68,376,127549,1,0,0:0:0:0:
8,328,127685,2,0,P|-8:288|12:244,1,80
148,56,127958,2,0,P|164:96|144:140,1,80,8|0,0:0|0:0,0:0:0:0:
324,168,128231,2,0,P|305:204|320:241,1,80,8|8,0:0|0:0,0:0:0:0:
331,249,128436,1,0,0:0:0:0:
342,258,128504,1,8,0:0:0:0:
456,250,128640,6,0,B|370:237|370:237|315:280|315:280|218:262,1,240,0|8,0:0|0:0,0:0:0:0:
224,272,129117,1,0,0:0:0:0:
216,280,129185,1,0,0:0:0:0:
208,288,129254,1,0,0:0:0:0:
200,296,129322,5,0,0:0:0:0:
124,292,129458,1,0,0:0:0:0:
104,172,129595,5,8,0:0:0:0:
28,168,129731,1,0,0:0:0:0:
124,292,129867,6,0,L|136:376,1,80
28,168,130140,2,8,L|40:252,1,80
172,220,130413,5,0,0:0:0:0:
248,216,130549,1,0,0:0:0:0:
268,96,130686,5,8,0:0:0:0:
344,92,130822,1,0,0:0:0:0:
248,216,130958,6,0,L|236:300,1,80,8|0,0:0|0:0,0:0:0:0:
344,92,131231,2,0,L|332:176,1,80,8|8,0:0|0:0,0:0:0:0:
348,180,131435,1,0,0:0:0:0:
364,188,131504,1,0,0:0:0:0:
448,220,131640,5,8,0:0:0:0:
448,220,131708,1,0,0:0:0:0:
448,220,131776,1,0,0:0:0:0:
368,288,131913,5,8,0:0:0:0:
372,308,131981,1,0,0:0:0:0:
376,328,132050,1,0,0:0:0:0:
296,368,132185,5,8,0:0:0:0:
296,368,132254,1,0,0:0:0:0:
296,368,132322,1,0,0:0:0:0:
232,240,132458,5,8,0:0:0:0:
240,200,132526,1,0,0:0:0:0:
248,160,132595,1,0,0:0:0:0:
112,40,132731,1,8,0:0:0:0:
112,40,132799,1,0,0:0:0:0:
112,40,132867,1,0,0:0:0:0:
0,200,133004,2,0,B|56:192|56:192|92:220|92:220|156:208,1,160,8|0,0:0|0:0,0:0:0:0:
248,160,133413,5,0,0:0:0:0:
376,348,133549,1,0,0:0:0:0:
472,208,133685,1,4,0:0:0:0:
