osu file format v12

[General]
AudioFilename: The Fairy's Adventurous Tale.mp3
AudioLeadIn: 1996
PreviewTime: 94345
Countdown: 0
SampleSet: Soft
StackLeniency: 0.6
Mode: 3
LetterboxInBreaks: 0
SpecialStyle: 0

[Editor]
Bookmarks: 20231,28958,57322,74776,94413,114049,133685
DistanceSpacing: 1.6
BeatDivisor: 4
GridSize: 8

[Metadata]
Title:The Fairy's Adventurous Tale
TitleUnicode:The Fairy's Adventurous Tale
Artist:Jun.A
ArtistUnicode:Jun.A
Creator:KanbeKotori
Version:ignorethis's Another (Lv 12)
Source:Touhou
Tags:Sound Sepher Fable Frank7654321 ignorethis Sagisawa-Yukari BakaHuang ZHSteven kiddly
BeatmapID:259320
BeatmapSetID:26480

[Difficulty]
HPDrainRate:8
CircleSize:8
OverallDifficulty:10
ApproachRate:9
SliderMultiplier:1.56
SliderTickRate:1

[Events]
//Background and Video events
0,0,"bg.jpg",0,0
//Break Periods
//Storyboard Layer 0 (Background)
//Storyboard Layer 1 (Fail)
//Storyboard Layer 2 (Pass)
//Storyboard Layer 3 (Foreground)
//Storyboard Sound Samples
//Background Colour Transformations
3,100,163,162,255

[TimingPoints]
595,272.727272727273,4,2,1,100,1,0
10413,-100,4,1,2,40,0,0
20231,-100,4,1,2,30,0,0

[Colours]
Combo1 : 184,14,69
Combo2 : 255,255,255
Combo3 : 12,0,238
Combo4 : 245,251,147

[HitObjects]
32,192,595,1,2,0:0:0:0:
32,192,867,1,2,0:0:0:0:
32,192,1140,1,2,0:0:0:0:
32,192,1413,1,2,0:0:0:0:
224,192,1549,1,0,0:0:0:0:
288,192,1617,1,0,0:0:0:0:
352,192,1685,1,0,0:0:0:0:
32,192,1685,1,4,0:0:0:0:
160,192,1685,1,0,0:0:0:0:
416,192,1822,1,0,0:0:0:0:
96,192,1958,1,0,0:0:0:0:
288,192,2095,1,0,0:0:0:0:
416,192,2231,1,0,0:0:0:0:
160,192,2367,1,0,0:0:0:0:
288,192,2504,1,0,0:0:0:0:
480,192,2640,1,0,0:0:0:0:
160,192,2776,128,2,3049:0:0:0:0:
96,192,2776,1,0,0:0:0:0:
288,192,2913,1,0,0:0:0:0:
416,192,3049,1,0,0:0:0:0:
288,192,3185,128,2,3867:0:0:0:0:
160,192,3185,1,0,0:0:0:0:
352,192,3322,1,0,0:0:0:0:
480,192,3458,1,0,0:0:0:0:
96,192,3595,1,0,0:0:0:0:
224,192,3731,1,0,0:0:0:0:
160,192,3867,1,0,0:0:0:0:
416,192,4004,1,0,0:0:0:0:
96,192,4140,1,0,0:0:0:0:
288,192,4277,1,0,0:0:0:0:
416,192,4413,1,0,0:0:0:0:
160,192,4549,1,0,0:0:0:0:
288,192,4686,1,0,0:0:0:0:
480,192,4822,1,0,0:0:0:0:
160,192,4958,128,2,5231:0:0:0:0:
96,192,4958,1,0,0:0:0:0:
288,192,5095,1,0,0:0:0:0:
416,192,5231,1,0,0:0:0:0:
160,192,5367,1,0,0:0:0:0:
352,192,5367,128,2,6049:0:0:0:0:
288,192,5504,1,0,0:0:0:0:
480,192,5640,1,0,0:0:0:0:
96,192,5777,1,0,0:0:0:0:
224,192,5913,1,0,0:0:0:0:
288,192,5981,1,0,0:0:0:0:
32,192,6049,1,4,0:0:0:0:
160,192,6049,1,0,0:0:0:0:
416,192,6186,1,0,0:0:0:0:
96,192,6322,1,0,0:0:0:0:
288,192,6459,1,0,0:0:0:0:
416,192,6595,1,0,0:0:0:0:
160,192,6731,1,0,0:0:0:0:
288,192,6868,1,0,0:0:0:0:
480,192,7004,1,0,0:0:0:0:
160,192,7140,128,2,7413:0:0:0:0:
96,192,7140,1,0,0:0:0:0:
288,192,7277,1,0,0:0:0:0:
416,192,7413,1,0,0:0:0:0:
160,192,7549,1,0,0:0:0:0:
288,192,7549,128,2,8231:0:0:0:0:
352,192,7686,1,0,0:0:0:0:
480,192,7822,1,0,0:0:0:0:
96,192,7959,1,0,0:0:0:0:
224,192,8095,1,0,0:0:0:0:
160,192,8231,1,0,0:0:0:0:
416,192,8368,1,0,0:0:0:0:
96,192,8504,1,0,0:0:0:0:
288,192,8641,1,0,0:0:0:0:
416,192,8777,1,0,0:0:0:0:
160,192,8913,1,0,0:0:0:0:
288,192,9050,1,0,0:0:0:0:
480,192,9186,1,0,0:0:0:0:
160,192,9322,128,2,9595:0:0:0:0:
96,192,9322,1,0,0:0:0:0:
288,192,9459,1,0,0:0:0:0:
416,192,9595,1,0,0:0:0:0:
160,192,9731,1,0,0:0:0:0:
352,192,9731,128,2,10413:0:0:0:0:
288,192,9868,1,0,0:0:0:0:
480,192,10004,1,0,0:0:0:0:
96,192,10141,1,0,0:0:0:0:
224,192,10277,1,0,0:0:0:0:
288,192,10345,1,0,0:0:0:0:
416,192,10413,1,0,0:0:0:0:
96,192,10413,1,0,0:0:0:0:
32,192,10413,1,4,0:0:0:0:
224,192,10549,1,0,0:0:0:0:
96,192,10685,1,8,0:0:0:0:
352,192,10685,1,0,0:0:0:0:
416,192,10822,1,0,0:0:0:0:
96,192,10958,1,8,0:0:0:0:
480,192,10958,1,0,0:0:0:0:
288,192,10958,1,0,0:0:0:0:
160,192,11095,1,0,0:0:0:0:
288,192,11231,1,0,0:0:0:0:
96,192,11231,1,8,0:0:0:0:
352,192,11367,1,0,0:0:0:0:
96,192,11504,1,8,0:0:0:0:
480,192,11504,128,0,11776:0:0:0:0:
224,192,11504,1,0,0:0:0:0:
288,192,11640,1,0,0:0:0:0:
96,192,11776,1,8,0:0:0:0:
416,192,11776,1,0,0:0:0:0:
352,192,11913,128,0,12595:0:0:0:0:
160,192,11913,1,0,0:0:0:0:
96,192,12049,1,8,0:0:0:0:
288,192,12049,1,0,0:0:0:0:
416,192,12185,1,0,0:0:0:0:
96,192,12322,1,8,0:0:0:0:
288,192,12322,1,0,0:0:0:0:
480,192,12458,1,0,0:0:0:0:
160,192,12458,1,0,0:0:0:0:
224,192,12526,1,0,0:0:0:0:
288,192,12595,1,0,0:0:0:0:
32,192,12595,1,4,0:0:0:0:
224,192,12731,1,0,0:0:0:0:
96,192,12867,1,8,0:0:0:0:
352,192,12867,1,0,0:0:0:0:
416,192,13004,1,0,0:0:0:0:
288,192,13140,1,0,0:0:0:0:
480,192,13140,1,0,0:0:0:0:
96,192,13140,1,8,0:0:0:0:
160,192,13277,1,0,0:0:0:0:
96,192,13413,1,8,0:0:0:0:
288,192,13413,1,0,0:0:0:0:
352,192,13549,1,0,0:0:0:0:
224,192,13686,1,0,0:0:0:0:
480,192,13686,128,0,13958:0:0:0:0:
96,192,13686,1,8,0:0:0:0:
288,192,13822,1,0,0:0:0:0:
416,192,13958,1,0,0:0:0:0:
96,192,13958,1,8,0:0:0:0:
288,192,14095,128,0,14776:0:0:0:0:
160,192,14095,1,0,0:0:0:0:
352,192,14231,1,0,0:0:0:0:
96,192,14231,1,8,0:0:0:0:
416,192,14367,1,0,0:0:0:0:
224,192,14504,1,0,0:0:0:0:
96,192,14504,1,8,0:0:0:0:
480,192,14640,1,0,0:0:0:0:
160,192,14640,1,0,0:0:0:0:
224,192,14708,1,0,0:0:0:0:
352,192,14776,1,4,0:0:0:0:
32,192,14776,1,4,0:0:0:0:
224,192,14913,1,0,0:0:0:0:
480,192,14913,1,8,0:0:0:0:
352,192,15049,1,0,0:0:0:0:
96,192,15049,1,0,0:0:0:0:
480,192,15185,1,8,0:0:0:0:
416,192,15186,1,0,0:0:0:0:
96,192,15322,1,0,0:0:0:0:
288,192,15322,1,0,0:0:0:0:
480,192,15458,1,8,0:0:0:0:
160,192,15459,1,0,0:0:0:0:
288,192,15595,1,0,0:0:0:0:
96,192,15595,1,0,0:0:0:0:
352,192,15731,1,0,0:0:0:0:
480,192,15731,1,8,0:0:0:0:
416,192,15867,128,0,16140:0:0:0:0:
96,192,15868,1,0,0:0:0:0:
224,192,15868,1,0,0:0:0:0:
288,192,16004,1,0,0:0:0:0:
480,192,16004,1,8,0:0:0:0:
96,192,16140,1,0,0:0:0:0:
352,192,16140,1,0,0:0:0:0:
288,192,16276,128,0,16958:0:0:0:0:
480,192,16276,1,8,0:0:0:0:
160,192,16277,1,0,0:0:0:0:
96,192,16413,1,0,0:0:0:0:
224,192,16413,1,0,0:0:0:0:
352,192,16549,1,0,0:0:0:0:
480,192,16549,1,8,0:0:0:0:
224,192,16685,1,0,0:0:0:0:
96,192,16686,1,0,0:0:0:0:
224,192,16822,1,0,0:0:0:0:
480,192,16822,1,8,0:0:0:0:
352,192,16890,1,0,0:0:0:0:
416,192,16958,1,4,0:0:0:0:
32,192,16958,1,4,0:0:0:0:
480,192,17095,1,8,0:0:0:0:
224,192,17095,1,0,0:0:0:0:
96,192,17231,1,0,0:0:0:0:
352,192,17231,1,0,0:0:0:0:
480,192,17367,1,8,0:0:0:0:
416,192,17368,1,0,0:0:0:0:
288,192,17504,1,0,0:0:0:0:
96,192,17504,1,0,0:0:0:0:
480,192,17640,1,8,0:0:0:0:
160,192,17641,1,0,0:0:0:0:
288,192,17708,1,0,0:0:0:0:
416,192,17776,1,0,0:0:0:0:
96,192,17777,1,0,0:0:0:0:
224,192,17845,1,0,0:0:0:0:
480,192,17913,1,8,0:0:0:0:
352,192,17913,1,0,0:0:0:0:
160,192,17981,1,0,0:0:0:0:
480,192,18049,128,4,18322:0:0:0:0:
96,192,18049,128,4,18322:0:0:0:0:
288,192,18049,128,4,18322:0:0:0:0:
160,192,18185,1,0,0:0:0:0:
416,192,18185,1,0,0:0:0:0:
224,192,18322,1,0,0:0:0:0:
352,192,18322,1,0,0:0:0:0:
160,192,18458,128,4,20231:0:0:0:0:
416,192,18458,128,4,20231:0:0:0:0:
480,192,19276,1,0,0:0:0:0:
32,192,19413,1,4,0:0:0:0:
352,192,19413,1,0,0:0:0:0:
288,192,19549,1,0,0:0:0:0:
224,192,19685,1,0,0:0:0:0:
32,192,19685,1,4,0:0:0:0:
96,192,19822,1,0,0:0:0:0:
32,192,19958,1,4,0:0:0:0:
96,192,20095,1,0,0:0:0:0:
288,192,20095,1,0,0:0:0:0:
224,192,20163,1,0,0:0:0:0:
352,192,20163,1,0,0:0:0:0:
32,192,20231,1,4,0:0:0:0:
288,192,20231,1,0,0:0:0:0:
480,192,20231,1,0,0:0:0:0:
96,192,20367,1,0,0:0:0:0:
224,192,20367,1,0,0:0:0:0:
480,192,20367,1,0,0:0:0:0:
160,192,20504,1,8,0:0:0:0:
416,192,20504,1,8,0:0:0:0:
288,192,20504,1,8,0:0:0:0:
480,192,20640,1,0,0:0:0:0:
352,192,20640,1,0,0:0:0:0:
96,192,20640,1,0,0:0:0:0:
160,192,20776,1,0,0:0:0:0:
288,192,20776,1,0,0:0:0:0:
480,192,20776,1,0,0:0:0:0:
96,192,20913,1,0,0:0:0:0:
480,192,20913,1,0,0:0:0:0:
224,192,20913,1,0,0:0:0:0:
160,192,21049,1,8,0:0:0:0:
416,192,21049,1,8,0:0:0:0:
288,192,21049,1,8,0:0:0:0:
96,192,21185,1,0,0:0:0:0:
480,192,21185,1,0,0:0:0:0:
224,192,21185,1,0,0:0:0:0:
480,192,21322,1,0,0:0:0:0:
160,192,21322,1,0,0:0:0:0:
352,192,21322,1,0,0:0:0:0:
96,192,21458,1,0,0:0:0:0:
224,192,21458,1,0,0:0:0:0:
480,192,21458,1,0,0:0:0:0:
416,192,21595,1,8,0:0:0:0:
160,192,21595,1,8,0:0:0:0:
288,192,21595,1,8,0:0:0:0:
480,192,21731,1,0,0:0:0:0:
96,192,21731,1,0,0:0:0:0:
224,192,21731,1,0,0:0:0:0:
480,192,21867,1,0,0:0:0:0:
160,192,21867,1,0,0:0:0:0:
352,192,21867,1,0,0:0:0:0:
480,192,22004,1,0,0:0:0:0:
224,192,22004,1,0,0:0:0:0:
96,192,22004,1,0,0:0:0:0:
416,192,22140,1,8,0:0:0:0:
160,192,22140,1,8,0:0:0:0:
288,192,22140,1,8,0:0:0:0:
480,192,22276,1,0,0:0:0:0:
224,192,22276,1,0,0:0:0:0:
96,192,22276,1,0,0:0:0:0:
288,192,22345,1,0,0:0:0:0:
416,192,22345,1,0,0:0:0:0:
480,192,22413,1,0,0:0:0:0:
160,192,22413,1,0,0:0:0:0:
352,192,22413,1,0,0:0:0:0:
480,192,22549,1,0,0:0:0:0:
96,192,22549,1,0,0:0:0:0:
288,192,22549,1,0,0:0:0:0:
416,192,22685,1,8,0:0:0:0:
160,192,22685,1,8,0:0:0:0:
288,192,22685,1,8,0:0:0:0:
480,192,22822,1,0,0:0:0:0:
96,192,22822,1,0,0:0:0:0:
352,192,22822,1,0,0:0:0:0:
480,192,22958,1,0,0:0:0:0:
160,192,22958,1,0,0:0:0:0:
288,192,22958,1,0,0:0:0:0:
480,192,23095,1,0,0:0:0:0:
96,192,23095,1,0,0:0:0:0:
352,192,23095,1,0,0:0:0:0:
416,192,23231,1,8,0:0:0:0:
160,192,23231,1,8,0:0:0:0:
288,192,23231,1,8,0:0:0:0:
480,192,23367,1,0,0:0:0:0:
96,192,23367,1,0,0:0:0:0:
352,192,23367,1,0,0:0:0:0:
480,192,23504,1,0,0:0:0:0:
160,192,23504,1,0,0:0:0:0:
288,192,23504,1,0,0:0:0:0:
480,192,23640,1,0,0:0:0:0:
96,192,23640,1,0,0:0:0:0:
352,192,23640,1,0,0:0:0:0:
416,192,23776,1,8,0:0:0:0:
160,192,23776,1,8,0:0:0:0:
288,192,23776,1,8,0:0:0:0:
480,192,23913,1,0,0:0:0:0:
96,192,23913,1,0,0:0:0:0:
224,192,23913,1,0,0:0:0:0:
480,192,24049,1,0,0:0:0:0:
160,192,24049,1,0,0:0:0:0:
352,192,24049,1,0,0:0:0:0:
480,192,24185,1,0,0:0:0:0:
96,192,24185,1,0,0:0:0:0:
288,192,24185,1,0,0:0:0:0:
416,192,24322,1,8,0:0:0:0:
224,192,24322,1,0,0:0:0:0:
96,192,24390,1,0,0:0:0:0:
288,192,24390,1,8,0:0:0:0:
224,192,24458,1,8,0:0:0:0:
480,192,24458,1,0,0:0:0:0:
352,192,24526,1,0,0:0:0:0:
96,192,24526,1,8,0:0:0:0:
288,192,24595,1,0,0:0:0:0:
480,192,24595,1,0,0:0:0:0:
32,192,24595,1,4,0:0:0:0:
160,192,24595,1,0,0:0:0:0:
96,192,24731,1,0,0:0:0:0:
480,192,24731,1,0,0:0:0:0:
352,192,24731,1,0,0:0:0:0:
416,192,24867,1,8,0:0:0:0:
160,192,24867,1,8,0:0:0:0:
288,192,24867,1,8,0:0:0:0:
480,192,25004,1,0,0:0:0:0:
352,192,25004,1,0,0:0:0:0:
96,192,25004,1,0,0:0:0:0:
480,192,25140,1,0,0:0:0:0:
160,192,25140,1,0,0:0:0:0:
288,192,25140,1,0,0:0:0:0:
480,192,25276,1,0,0:0:0:0:
96,192,25276,1,0,0:0:0:0:
352,192,25276,1,0,0:0:0:0:
416,192,25413,1,8,0:0:0:0:
160,192,25413,1,8,0:0:0:0:
288,192,25413,1,8,0:0:0:0:
480,192,25549,1,0,0:0:0:0:
288,192,25549,1,0,0:0:0:0:
96,192,25549,1,0,0:0:0:0:
480,192,25685,1,0,0:0:0:0:
32,192,25685,1,0,0:0:0:0:
160,192,25685,1,0,0:0:0:0:
352,192,25685,1,0,0:0:0:0:
480,192,25822,1,0,0:0:0:0:
96,192,25822,1,0,0:0:0:0:
224,192,25822,1,0,0:0:0:0:
416,192,25958,1,8,0:0:0:0:
160,192,25958,1,8,0:0:0:0:
288,192,25958,1,8,0:0:0:0:
480,192,26095,1,0,0:0:0:0:
96,192,26095,1,0,0:0:0:0:
352,192,26095,1,0,0:0:0:0:
480,192,26231,1,0,0:0:0:0:
160,192,26231,1,0,0:0:0:0:
288,192,26231,1,0,0:0:0:0:
480,192,26367,1,0,0:0:0:0:
96,192,26367,1,0,0:0:0:0:
352,192,26367,1,0,0:0:0:0:
416,192,26504,1,8,0:0:0:0:
160,192,26504,1,8,0:0:0:0:
288,192,26504,1,8,0:0:0:0:
480,192,26640,1,0,0:0:0:0:
96,192,26640,1,0,0:0:0:0:
224,192,26640,1,0,0:0:0:0:
480,192,26776,1,0,0:0:0:0:
160,192,26776,1,0,0:0:0:0:
32,192,26776,1,0,0:0:0:0:
352,192,26776,1,0,0:0:0:0:
224,192,26913,1,0,0:0:0:0:
480,192,26913,1,0,0:0:0:0:
96,192,26913,1,0,0:0:0:0:
416,192,27049,1,8,0:0:0:0:
160,192,27049,1,8,0:0:0:0:
288,192,27049,1,8,0:0:0:0:
480,192,27185,1,0,0:0:0:0:
96,192,27185,1,0,0:0:0:0:
352,192,27185,1,0,0:0:0:0:
480,192,27322,1,0,0:0:0:0:
160,192,27322,1,0,0:0:0:0:
288,192,27322,1,0,0:0:0:0:
480,192,27458,1,0,0:0:0:0:
96,192,27458,1,0,0:0:0:0:
352,192,27458,1,0,0:0:0:0:
416,192,27595,1,8,0:0:0:0:
160,192,27595,1,8,0:0:0:0:
288,192,27595,1,8,0:0:0:0:
352,192,27731,1,8,0:0:0:0:
224,192,27731,1,8,0:0:0:0:
288,192,27799,1,8,0:0:0:0:
160,192,27799,1,8,0:0:0:0:
480,192,27799,1,8,0:0:0:0:
224,192,27867,1,8,0:0:0:0:
96,192,27867,1,8,0:0:0:0:
416,192,27867,1,8,0:0:0:0:
416,192,28004,1,8,0:0:0:0:
160,192,28004,1,8,0:0:0:0:
288,192,28004,1,8,0:0:0:0:
416,192,28140,1,0,0:0:0:0:
96,192,28140,1,0,0:0:0:0:
288,192,28140,1,0,0:0:0:0:
288,192,28276,128,0,28958:0:0:0:0:
416,192,28276,128,0,28958:0:0:0:0:
96,192,28276,128,4,28958:0:0:0:0:
224,192,28413,1,0,0:0:0:0:
224,192,28549,1,0,0:0:0:0:
352,192,28617,1,0,0:0:0:0:
224,192,28685,1,0,0:0:0:0:
160,192,28754,1,0,0:0:0:0:
224,192,28822,1,0,0:0:0:0:
352,192,28890,1,0,0:0:0:0:
160,192,28958,1,0,0:0:0:0:
32,192,28958,1,4,0:0:0:0:
480,192,28958,1,0,0:0:0:0:
96,192,29094,1,0,0:0:0:0:
480,192,29094,1,0,0:0:0:0:
224,192,29094,1,0,0:0:0:0:
416,192,29231,1,8,0:0:0:0:
288,192,29231,1,8,0:0:0:0:
160,192,29231,1,8,0:0:0:0:
352,192,29367,1,0,0:0:0:0:
480,192,29367,1,0,0:0:0:0:
96,192,29367,1,0,0:0:0:0:
288,192,29503,1,0,0:0:0:0:
160,192,29503,1,0,0:0:0:0:
480,192,29503,1,0,0:0:0:0:
480,192,29640,1,0,0:0:0:0:
96,192,29640,1,0,0:0:0:0:
224,192,29640,1,0,0:0:0:0:
416,192,29776,1,8,0:0:0:0:
288,192,29776,1,8,0:0:0:0:
160,192,29776,1,8,0:0:0:0:
480,192,29912,1,0,0:0:0:0:
96,192,29912,1,0,0:0:0:0:
224,192,29912,1,0,0:0:0:0:
160,192,30049,1,0,0:0:0:0:
480,192,30049,1,0,0:0:0:0:
352,192,30185,1,0,0:0:0:0:
96,192,30185,1,0,0:0:0:0:
480,192,30185,1,0,0:0:0:0:
288,192,30322,1,8,0:0:0:0:
160,192,30322,1,8,0:0:0:0:
416,192,30322,1,8,0:0:0:0:
480,192,30458,1,0,0:0:0:0:
224,192,30458,1,0,0:0:0:0:
96,192,30458,1,0,0:0:0:0:
352,192,30594,1,0,0:0:0:0:
480,192,30594,1,0,0:0:0:0:
160,192,30594,1,0,0:0:0:0:
480,192,30731,1,0,0:0:0:0:
224,192,30731,1,0,0:0:0:0:
96,192,30731,1,0,0:0:0:0:
288,192,30867,1,8,0:0:0:0:
160,192,30867,1,8,0:0:0:0:
416,192,30867,1,8,0:0:0:0:
480,192,31003,1,0,0:0:0:0:
96,192,31003,1,0,0:0:0:0:
352,192,31072,1,0,0:0:0:0:
224,192,31072,1,0,0:0:0:0:
288,192,31140,1,0,0:0:0:0:
160,192,31140,1,0,0:0:0:0:
480,192,31140,1,0,0:0:0:0:
288,192,31276,1,0,0:0:0:0:
96,192,31276,1,0,0:0:0:0:
480,192,31276,1,0,0:0:0:0:
288,192,31412,1,8,0:0:0:0:
160,192,31412,1,8,0:0:0:0:
416,192,31412,1,8,0:0:0:0:
352,192,31549,1,0,0:0:0:0:
96,192,31549,1,0,0:0:0:0:
480,192,31549,1,0,0:0:0:0:
480,192,31685,1,0,0:0:0:0:
160,192,31685,1,0,0:0:0:0:
288,192,31685,1,0,0:0:0:0:
352,192,31822,1,0,0:0:0:0:
480,192,31822,1,0,0:0:0:0:
96,192,31822,1,0,0:0:0:0:
288,192,31958,1,8,0:0:0:0:
160,192,31958,1,8,0:0:0:0:
416,192,31958,1,8,0:0:0:0:
96,192,32094,1,0,0:0:0:0:
352,192,32094,1,0,0:0:0:0:
480,192,32094,1,0,0:0:0:0:
160,192,32231,1,0,0:0:0:0:
480,192,32231,1,0,0:0:0:0:
288,192,32231,1,0,0:0:0:0:
480,192,32367,1,0,0:0:0:0:
96,192,32367,1,0,0:0:0:0:
352,192,32367,1,0,0:0:0:0:
160,192,32503,1,8,0:0:0:0:
416,192,32503,1,8,0:0:0:0:
288,192,32503,1,8,0:0:0:0:
96,192,32640,1,0,0:0:0:0:
480,192,32640,1,0,0:0:0:0:
224,192,32640,1,0,0:0:0:0:
480,192,32776,1,0,0:0:0:0:
160,192,32776,1,0,0:0:0:0:
352,192,32776,1,0,0:0:0:0:
96,192,32912,1,0,0:0:0:0:
288,192,32912,1,0,0:0:0:0:
480,192,32912,1,0,0:0:0:0:
416,192,33049,1,8,0:0:0:0:
224,192,33049,1,0,0:0:0:0:
288,192,33117,1,8,0:0:0:0:
96,192,33117,1,0,0:0:0:0:
224,192,33185,1,8,0:0:0:0:
480,192,33185,1,0,0:0:0:0:
96,192,33253,1,8,0:0:0:0:
352,192,33253,1,0,0:0:0:0:
160,192,33322,1,0,0:0:0:0:
32,192,33322,1,4,0:0:0:0:
288,192,33322,1,0,0:0:0:0:
480,192,33322,1,0,0:0:0:0:
96,192,33458,1,0,0:0:0:0:
480,192,33458,1,0,0:0:0:0:
160,192,33594,1,8,0:0:0:0:
416,192,33594,1,8,0:0:0:0:
288,192,33594,1,8,0:0:0:0:
96,192,33731,1,0,0:0:0:0:
480,192,33731,1,0,0:0:0:0:
352,192,33731,1,0,0:0:0:0:
480,192,33867,1,0,0:0:0:0:
160,192,33867,1,0,0:0:0:0:
288,192,33867,1,0,0:0:0:0:
96,192,34003,1,0,0:0:0:0:
480,192,34003,1,0,0:0:0:0:
352,192,34003,1,0,0:0:0:0:
416,192,34140,1,8,0:0:0:0:
288,192,34140,1,8,0:0:0:0:
160,192,34140,1,8,0:0:0:0:
480,192,34276,1,0,0:0:0:0:
96,192,34276,1,0,0:0:0:0:
224,192,34276,1,0,0:0:0:0:
160,192,34412,1,0,0:0:0:0:
32,192,34412,1,4,0:0:0:0:
480,192,34412,1,0,0:0:0:0:
352,192,34412,1,0,0:0:0:0:
480,192,34549,1,0,0:0:0:0:
224,192,34549,1,0,0:0:0:0:
96,192,34549,1,0,0:0:0:0:
160,192,34685,1,8,0:0:0:0:
416,192,34685,1,8,0:0:0:0:
288,192,34685,1,8,0:0:0:0:
224,192,34822,1,0,0:0:0:0:
96,192,34822,1,0,0:0:0:0:
480,192,34822,1,0,0:0:0:0:
160,192,34958,1,0,0:0:0:0:
288,192,34958,1,0,0:0:0:0:
480,192,34958,1,0,0:0:0:0:
96,192,35094,1,0,0:0:0:0:
480,192,35094,1,0,0:0:0:0:
352,192,35094,1,0,0:0:0:0:
160,192,35231,1,8,0:0:0:0:
416,192,35231,1,8,0:0:0:0:
288,192,35231,1,8,0:0:0:0:
480,192,35367,1,0,0:0:0:0:
96,192,35367,1,0,0:0:0:0:
352,192,35367,1,0,0:0:0:0:
480,192,35503,1,0,0:0:0:0:
32,192,35503,1,4,0:0:0:0:
288,192,35504,1,0,0:0:0:0:
160,192,35504,1,0,0:0:0:0:
480,192,35640,1,0,0:0:0:0:
352,192,35640,1,0,0:0:0:0:
96,192,35640,1,0,0:0:0:0:
416,192,35776,1,8,0:0:0:0:
288,192,35776,1,8,0:0:0:0:
160,192,35776,1,8,0:0:0:0:
352,192,35912,1,0,0:0:0:0:
480,192,35912,1,0,0:0:0:0:
96,192,35912,1,0,0:0:0:0:
480,192,36049,1,0,0:0:0:0:
160,192,36049,1,0,0:0:0:0:
288,192,36117,1,0,0:0:0:0:
96,192,36185,1,0,0:0:0:0:
480,192,36185,1,0,0:0:0:0:
352,192,36185,1,0,0:0:0:0:
288,192,36322,1,8,0:0:0:0:
160,192,36322,1,8,0:0:0:0:
416,192,36322,1,8,0:0:0:0:
352,192,36458,1,0,0:0:0:0:
224,192,36458,1,0,0:0:0:0:
480,192,36526,1,0,0:0:0:0:
160,192,36526,1,0,0:0:0:0:
288,192,36526,1,0,0:0:0:0:
224,192,36594,1,8,0:0:0:0:
96,192,36594,1,8,0:0:0:0:
416,192,36594,1,8,0:0:0:0:
96,192,36731,1,8,0:0:0:0:
224,192,36731,1,8,0:0:0:0:
416,192,36731,1,8,0:0:0:0:
96,192,36867,1,8,0:0:0:0:
224,192,36867,1,8,0:0:0:0:
416,192,36867,1,8,0:0:0:0:
96,192,37004,1,8,0:0:0:0:
224,192,37004,1,8,0:0:0:0:
416,192,37004,1,8,0:0:0:0:
96,192,37140,1,8,0:0:0:0:
224,192,37140,1,8,0:0:0:0:
416,192,37140,1,8,0:0:0:0:
96,192,37276,1,0,0:0:0:0:
288,192,37276,1,0,0:0:0:0:
224,192,37345,1,0,0:0:0:0:
416,192,37345,1,0,0:0:0:0:
480,192,37413,1,8,0:0:0:0:
288,192,37413,1,0,0:0:0:0:
352,192,37481,1,8,0:0:0:0:
160,192,37481,1,0,0:0:0:0:
288,192,37549,1,8,0:0:0:0:
96,192,37549,1,0,0:0:0:0:
352,192,37617,1,0,0:0:0:0:
160,192,37617,1,8,0:0:0:0:
224,192,37685,1,0,0:0:0:0:
416,192,37685,1,0,0:0:0:0:
32,192,37685,1,0,0:0:0:0:
96,192,37822,1,0,0:0:0:0:
352,192,37822,1,0,0:0:0:0:
480,192,37822,1,0,0:0:0:0:
160,192,37958,1,8,0:0:0:0:
416,192,37958,1,8,0:0:0:0:
288,192,37958,1,8,0:0:0:0:
96,192,38095,1,0,0:0:0:0:
224,192,38095,1,0,0:0:0:0:
480,192,38095,1,0,0:0:0:0:
96,192,38231,1,0,0:0:0:0:
288,192,38231,1,0,0:0:0:0:
416,192,38231,1,0,0:0:0:0:
96,192,38367,1,0,0:0:0:0:
224,192,38367,1,0,0:0:0:0:
352,192,38367,1,0,0:0:0:0:
160,192,38504,1,8,0:0:0:0:
288,192,38504,1,8,0:0:0:0:
416,192,38504,1,8,0:0:0:0:
96,192,38640,1,0,0:0:0:0:
224,192,38640,1,0,0:0:0:0:
416,192,38640,1,0,0:0:0:0:
96,192,38776,1,0,0:0:0:0:
288,192,38776,1,0,0:0:0:0:
480,192,38776,1,0,0:0:0:0:
96,192,38913,1,0,0:0:0:0:
352,192,38913,1,0,0:0:0:0:
160,192,39049,1,8,0:0:0:0:
288,192,39049,1,8,0:0:0:0:
416,192,39049,1,8,0:0:0:0:
96,192,39185,1,0,0:0:0:0:
224,192,39185,1,0,0:0:0:0:
352,192,39185,1,0,0:0:0:0:
96,192,39322,1,0,0:0:0:0:
288,192,39322,1,0,0:0:0:0:
480,192,39322,1,0,0:0:0:0:
352,192,39390,1,0,0:0:0:0:
160,192,39390,1,0,0:0:0:0:
416,192,39458,1,8,0:0:0:0:
288,192,39458,1,8,0:0:0:0:
224,192,39526,1,8,0:0:0:0:
352,192,39526,1,8,0:0:0:0:
160,192,39595,1,8,0:0:0:0:
288,192,39595,1,8,0:0:0:0:
96,192,39731,1,0,0:0:0:0:
224,192,39731,1,0,0:0:0:0:
480,192,39731,1,0,0:0:0:0:
224,192,39867,1,0,0:0:0:0:
416,192,39867,1,0,0:0:0:0:
96,192,39868,1,0,0:0:0:0:
96,192,40004,1,0,0:0:0:0:
352,192,40004,1,0,0:0:0:0:
480,192,40004,1,0,0:0:0:0:
288,192,40140,1,8,0:0:0:0:
416,192,40140,1,8,0:0:0:0:
160,192,40140,1,8,0:0:0:0:
96,192,40276,1,0,0:0:0:0:
224,192,40276,1,0,0:0:0:0:
352,192,40276,1,0,0:0:0:0:
96,192,40413,1,0,0:0:0:0:
288,192,40413,1,0,0:0:0:0:
480,192,40413,1,0,0:0:0:0:
96,192,40549,1,0,0:0:0:0:
224,192,40549,1,0,0:0:0:0:
416,192,40549,1,0,0:0:0:0:
288,192,40685,1,8,0:0:0:0:
416,192,40685,1,8,0:0:0:0:
160,192,40685,1,8,0:0:0:0:
96,192,40822,1,0,0:0:0:0:
288,192,40822,1,0,0:0:0:0:
480,192,40822,1,0,0:0:0:0:
224,192,40958,1,0,0:0:0:0:
416,192,40958,1,0,0:0:0:0:
32,192,40958,1,4,0:0:0:0:
96,192,40959,1,0,0:0:0:0:
96,192,41095,1,0,0:0:0:0:
224,192,41095,1,0,0:0:0:0:
352,192,41095,1,0,0:0:0:0:
32,192,41231,1,4,0:0:0:0:
288,192,41231,1,8,0:0:0:0:
416,192,41231,1,8,0:0:0:0:
160,192,41231,1,8,0:0:0:0:
96,192,41367,1,0,0:0:0:0:
288,192,41367,1,0,0:0:0:0:
480,192,41367,1,0,0:0:0:0:
96,192,41504,1,0,0:0:0:0:
224,192,41504,1,0,0:0:0:0:
416,192,41504,1,0,0:0:0:0:
32,192,41504,1,4,0:0:0:0:
96,192,41640,1,0,0:0:0:0:
288,192,41640,1,0,0:0:0:0:
480,192,41640,1,0,0:0:0:0:
352,192,41776,1,0,0:0:0:0:
32,192,41776,1,4,0:0:0:0:
160,192,41776,1,0,0:0:0:0:
480,192,41776,1,8,0:0:0:0:
224,192,41845,1,0,0:0:0:0:
416,192,41845,1,8,0:0:0:0:
96,192,41913,1,0,0:0:0:0:
288,192,41913,1,8,0:0:0:0:
224,192,41981,1,8,0:0:0:0:
352,192,41981,1,0,0:0:0:0:
32,192,42049,1,4,0:0:0:0:
288,192,42049,1,0,0:0:0:0:
160,192,42049,1,0,0:0:0:0:
96,192,42050,1,0,0:0:0:0:
352,192,42185,1,0,0:0:0:0:
480,192,42185,1,0,0:0:0:0:
96,192,42186,1,0,0:0:0:0:
160,192,42322,1,8,0:0:0:0:
288,192,42322,1,8,0:0:0:0:
416,192,42322,1,8,0:0:0:0:
96,192,42458,1,0,0:0:0:0:
224,192,42458,1,0,0:0:0:0:
416,192,42458,1,0,0:0:0:0:
96,192,42595,1,0,0:0:0:0:
288,192,42595,1,0,0:0:0:0:
480,192,42595,1,0,0:0:0:0:
96,192,42731,1,0,0:0:0:0:
224,192,42731,1,0,0:0:0:0:
352,192,42731,1,0,0:0:0:0:
160,192,42867,1,8,0:0:0:0:
288,192,42867,1,8,0:0:0:0:
416,192,42867,1,8,0:0:0:0:
96,192,43004,1,0,0:0:0:0:
224,192,43004,1,0,0:0:0:0:
352,192,43004,1,0,0:0:0:0:
96,192,43140,1,0,0:0:0:0:
288,192,43140,1,0,0:0:0:0:
416,192,43140,1,0,0:0:0:0:
96,192,43276,1,0,0:0:0:0:
224,192,43276,1,0,0:0:0:0:
480,192,43276,1,0,0:0:0:0:
160,192,43413,1,8,0:0:0:0:
288,192,43413,1,8,0:0:0:0:
416,192,43413,1,8,0:0:0:0:
96,192,43549,1,0,0:0:0:0:
352,192,43549,1,0,0:0:0:0:
224,192,43549,1,0,0:0:0:0:
96,192,43685,1,0,0:0:0:0:
288,192,43685,1,0,0:0:0:0:
416,192,43685,1,0,0:0:0:0:
96,192,43822,1,0,0:0:0:0:
224,192,43822,1,0,0:0:0:0:
352,192,43822,1,0,0:0:0:0:
160,192,43958,1,8,0:0:0:0:
288,192,43958,1,8,0:0:0:0:
416,192,43958,1,8,0:0:0:0:
96,192,44095,1,0,0:0:0:0:
224,192,44095,1,0,0:0:0:0:
480,192,44095,1,0,0:0:0:0:
96,192,44231,1,0,0:0:0:0:
288,192,44231,1,0,0:0:0:0:
416,192,44231,1,0,0:0:0:0:
96,192,44367,1,0,0:0:0:0:
224,192,44367,1,0,0:0:0:0:
352,192,44367,1,0,0:0:0:0:
160,192,44504,1,8,0:0:0:0:
288,192,44504,1,8,0:0:0:0:
416,192,44504,1,8,0:0:0:0:
96,192,44640,1,0,0:0:0:0:
224,192,44640,1,0,0:0:0:0:
352,192,44640,1,0,0:0:0:0:
96,192,44776,1,0,0:0:0:0:
288,192,44776,1,0,0:0:0:0:
480,192,44776,1,0,0:0:0:0:
96,192,44913,1,0,0:0:0:0:
224,192,44913,1,0,0:0:0:0:
416,192,44913,1,0,0:0:0:0:
160,192,45049,1,8,0:0:0:0:
288,192,45049,1,8,0:0:0:0:
416,192,45049,1,8,0:0:0:0:
96,192,45185,1,0,0:0:0:0:
224,192,45185,1,0,0:0:0:0:
352,192,45185,1,0,0:0:0:0:
96,192,45322,1,0,0:0:0:0:
32,192,45322,1,4,0:0:0:0:
288,192,45322,1,0,0:0:0:0:
416,192,45322,1,0,0:0:0:0:
96,192,45458,1,0,0:0:0:0:
224,192,45458,1,0,0:0:0:0:
352,192,45458,1,0,0:0:0:0:
160,192,45595,1,8,0:0:0:0:
32,192,45595,1,4,0:0:0:0:
288,192,45595,1,8,0:0:0:0:
416,192,45595,1,8,0:0:0:0:
96,192,45731,1,0,0:0:0:0:
224,192,45731,1,0,0:0:0:0:
480,192,45731,1,0,0:0:0:0:
96,192,45867,1,0,0:0:0:0:
32,192,45867,1,4,0:0:0:0:
288,192,45867,1,0,0:0:0:0:
416,192,45867,1,0,0:0:0:0:
96,192,46004,1,0,0:0:0:0:
224,192,46004,1,0,0:0:0:0:
352,192,46004,1,0,0:0:0:0:
288,192,46140,1,0,0:0:0:0:
32,192,46140,1,4,0:0:0:0:
416,192,46140,1,8,0:0:0:0:
160,192,46208,1,0,0:0:0:0:
352,192,46208,1,8,0:0:0:0:
96,192,46276,1,0,0:0:0:0:
288,192,46276,1,8,0:0:0:0:
160,192,46345,1,8,0:0:0:0:
352,192,46345,1,0,0:0:0:0:
416,192,46412,1,0,0:0:0:0:
32,192,46412,1,0,0:0:0:0:
96,192,46413,1,0,0:0:0:0:
288,192,46413,1,0,0:0:0:0:
96,192,46549,1,0,0:0:0:0:
352,192,46549,1,0,0:0:0:0:
480,192,46549,1,0,0:0:0:0:
160,192,46685,1,8,0:0:0:0:
416,192,46685,1,8,0:0:0:0:
288,192,46685,1,8,0:0:0:0:
96,192,46822,1,0,0:0:0:0:
224,192,46822,1,0,0:0:0:0:
480,192,46822,1,0,0:0:0:0:
96,192,46958,1,0,0:0:0:0:
288,192,46958,1,0,0:0:0:0:
416,192,46958,1,0,0:0:0:0:
96,192,47094,1,0,0:0:0:0:
224,192,47094,1,0,0:0:0:0:
352,192,47094,1,0,0:0:0:0:
160,192,47231,1,8,0:0:0:0:
288,192,47231,1,8,0:0:0:0:
416,192,47231,1,8,0:0:0:0:
96,192,47367,1,0,0:0:0:0:
224,192,47367,1,0,0:0:0:0:
416,192,47367,1,0,0:0:0:0:
96,192,47503,1,0,0:0:0:0:
288,192,47503,1,0,0:0:0:0:
480,192,47503,1,0,0:0:0:0:
96,192,47640,1,0,0:0:0:0:
352,192,47640,1,0,0:0:0:0:
160,192,47776,1,8,0:0:0:0:
288,192,47776,1,8,0:0:0:0:
416,192,47776,1,8,0:0:0:0:
96,192,47912,1,0,0:0:0:0:
224,192,47912,1,0,0:0:0:0:
352,192,47912,1,0,0:0:0:0:
160,192,48049,1,0,0:0:0:0:
352,192,48049,1,0,0:0:0:0:
480,192,48049,1,0,0:0:0:0:
288,192,48117,1,0,0:0:0:0:
96,192,48117,1,0,0:0:0:0:
224,192,48185,1,8,0:0:0:0:
416,192,48185,1,8,0:0:0:0:
288,192,48254,1,0,0:0:0:0:
160,192,48254,1,0,0:0:0:0:
96,192,48322,1,0,0:0:0:0:
352,192,48322,1,0,0:0:0:0:
96,192,48458,1,0,0:0:0:0:
224,192,48458,1,0,0:0:0:0:
480,192,48458,1,0,0:0:0:0:
224,192,48594,1,0,0:0:0:0:
416,192,48594,1,0,0:0:0:0:
96,192,48595,1,0,0:0:0:0:
96,192,48731,1,0,0:0:0:0:
352,192,48731,1,0,0:0:0:0:
480,192,48731,1,0,0:0:0:0:
288,192,48867,1,8,0:0:0:0:
416,192,48867,1,8,0:0:0:0:
160,192,48867,1,8,0:0:0:0:
96,192,49003,1,0,0:0:0:0:
224,192,49003,1,0,0:0:0:0:
352,192,49003,1,0,0:0:0:0:
96,192,49140,1,0,0:0:0:0:
288,192,49140,1,0,0:0:0:0:
480,192,49140,1,0,0:0:0:0:
96,192,49276,1,0,0:0:0:0:
224,192,49276,1,0,0:0:0:0:
416,192,49276,1,0,0:0:0:0:
288,192,49412,1,8,0:0:0:0:
416,192,49412,1,8,0:0:0:0:
160,192,49412,1,8,0:0:0:0:
96,192,49549,1,0,0:0:0:0:
288,192,49549,1,0,0:0:0:0:
480,192,49549,1,0,0:0:0:0:
224,192,49685,1,0,0:0:0:0:
416,192,49685,1,0,0:0:0:0:
32,192,49685,1,4,0:0:0:0:
96,192,49686,1,0,0:0:0:0:
96,192,49822,1,0,0:0:0:0:
224,192,49822,1,0,0:0:0:0:
352,192,49822,1,0,0:0:0:0:
32,192,49958,1,4,0:0:0:0:
288,192,49958,1,8,0:0:0:0:
416,192,49958,1,8,0:0:0:0:
160,192,49958,1,8,0:0:0:0:
96,192,50094,1,0,0:0:0:0:
288,192,50094,1,0,0:0:0:0:
480,192,50094,1,0,0:0:0:0:
96,192,50231,1,0,0:0:0:0:
224,192,50231,1,0,0:0:0:0:
416,192,50231,1,0,0:0:0:0:
32,192,50231,1,4,0:0:0:0:
96,192,50367,1,0,0:0:0:0:
288,192,50367,1,0,0:0:0:0:
480,192,50367,1,0,0:0:0:0:
32,192,50503,1,4,0:0:0:0:
160,192,50503,1,0,0:0:0:0:
480,192,50503,1,8,0:0:0:0:
288,192,50504,1,0,0:0:0:0:
224,192,50572,1,0,0:0:0:0:
416,192,50572,1,8,0:0:0:0:
96,192,50640,1,0,0:0:0:0:
352,192,50640,1,8,0:0:0:0:
160,192,50708,1,0,0:0:0:0:
288,192,50708,1,8,0:0:0:0:
32,192,50776,1,4,0:0:0:0:
352,192,50776,1,0,0:0:0:0:
224,192,50776,1,0,0:0:0:0:
96,192,50777,1,0,0:0:0:0:
352,192,50912,1,0,0:0:0:0:
480,192,50912,1,0,0:0:0:0:
96,192,50913,1,0,0:0:0:0:
160,192,51049,1,8,0:0:0:0:
288,192,51049,1,8,0:0:0:0:
416,192,51049,1,8,0:0:0:0:
96,192,51185,1,0,0:0:0:0:
224,192,51185,1,0,0:0:0:0:
416,192,51185,1,0,0:0:0:0:
96,192,51322,1,0,0:0:0:0:
288,192,51322,1,0,0:0:0:0:
480,192,51322,1,0,0:0:0:0:
96,192,51458,1,0,0:0:0:0:
224,192,51458,1,0,0:0:0:0:
352,192,51458,1,0,0:0:0:0:
160,192,51594,1,8,0:0:0:0:
288,192,51594,1,8,0:0:0:0:
416,192,51594,1,8,0:0:0:0:
96,192,51731,1,0,0:0:0:0:
224,192,51731,1,0,0:0:0:0:
352,192,51731,1,0,0:0:0:0:
96,192,51867,1,0,0:0:0:0:
288,192,51867,1,0,0:0:0:0:
416,192,51867,1,0,0:0:0:0:
32,192,51867,1,4,0:0:0:0:
96,192,52004,1,8,0:0:0:0:
224,192,52004,1,8,0:0:0:0:
416,192,52004,1,8,0:0:0:0:
352,192,52072,1,8,0:0:0:0:
480,192,52072,1,8,0:0:0:0:
160,192,52140,1,0,0:0:0:0:
288,192,52140,1,0,0:0:0:0:
416,192,52140,1,0,0:0:0:0:
96,192,52276,1,0,0:0:0:0:
224,192,52276,1,0,0:0:0:0:
416,192,52276,1,0,0:0:0:0:
96,192,52413,1,8,0:0:0:0:
288,192,52413,1,8,0:0:0:0:
480,192,52413,1,8,0:0:0:0:
96,192,52549,1,0,0:0:0:0:
224,192,52549,1,0,0:0:0:0:
416,192,52549,1,0,0:0:0:0:
160,192,52685,1,8,0:0:0:0:
288,192,52685,1,8,0:0:0:0:
416,192,52685,1,8,0:0:0:0:
96,192,52822,1,0,0:0:0:0:
224,192,52822,1,0,0:0:0:0:
352,192,52822,1,0,0:0:0:0:
96,192,52958,1,0,0:0:0:0:
288,192,52958,1,0,0:0:0:0:
416,192,52958,1,0,0:0:0:0:
32,192,52958,1,4,0:0:0:0:
96,192,53094,1,0,0:0:0:0:
224,192,53094,1,0,0:0:0:0:
352,192,53094,1,0,0:0:0:0:
160,192,53231,1,8,0:0:0:0:
288,192,53231,1,8,0:0:0:0:
416,192,53231,1,8,0:0:0:0:
96,192,53367,1,0,0:0:0:0:
224,192,53367,1,0,0:0:0:0:
352,192,53367,1,0,0:0:0:0:
96,192,53503,1,0,0:0:0:0:
288,192,53503,1,0,0:0:0:0:
480,192,53503,1,0,0:0:0:0:
96,192,53640,1,0,0:0:0:0:
224,192,53640,1,0,0:0:0:0:
416,192,53640,1,0,0:0:0:0:
160,192,53776,1,8,0:0:0:0:
288,192,53776,1,8,0:0:0:0:
416,192,53776,1,8,0:0:0:0:
96,192,53912,1,0,0:0:0:0:
224,192,53912,1,0,0:0:0:0:
352,192,53912,1,0,0:0:0:0:
96,192,54049,1,0,0:0:0:0:
32,192,54049,1,4,0:0:0:0:
288,192,54049,1,0,0:0:0:0:
416,192,54049,1,0,0:0:0:0:
96,192,54185,1,0,0:0:0:0:
224,192,54185,1,0,0:0:0:0:
352,192,54185,1,0,0:0:0:0:
160,192,54322,1,8,0:0:0:0:
288,192,54322,1,8,0:0:0:0:
416,192,54322,1,8,0:0:0:0:
96,192,54458,1,0,0:0:0:0:
224,192,54458,1,0,0:0:0:0:
480,192,54458,1,0,0:0:0:0:
96,192,54594,1,0,0:0:0:0:
288,192,54594,1,0,0:0:0:0:
416,192,54594,1,0,0:0:0:0:
96,192,54731,1,0,0:0:0:0:
224,192,54731,1,0,0:0:0:0:
352,192,54731,1,0,0:0:0:0:
160,192,54867,1,8,0:0:0:0:
288,192,54867,1,8,0:0:0:0:
416,192,54867,1,8,0:0:0:0:
224,192,55003,1,0,0:0:0:0:
352,192,55003,1,0,0:0:0:0:
32,192,55140,1,0,0:0:0:0:
96,192,55140,1,0,0:0:0:0:
288,192,55140,1,0,0:0:0:0:
480,192,55140,1,0,0:0:0:0:
160,192,55276,1,0,0:0:0:0:
416,192,55276,1,0,0:0:0:0:
224,192,55276,1,0,0:0:0:0:
352,192,55276,1,0,0:0:0:0:
96,192,55413,1,8,0:0:0:0:
288,192,55413,1,8,0:0:0:0:
480,192,55413,1,8,0:0:0:0:
32,192,55413,1,8,0:0:0:0:
160,192,55549,1,0,0:0:0:0:
416,192,55549,1,0,0:0:0:0:
224,192,55549,1,0,0:0:0:0:
352,192,55549,1,0,0:0:0:0:
96,192,55685,1,8,0:0:0:0:
288,192,55685,1,8,0:0:0:0:
480,192,55685,1,8,0:0:0:0:
32,192,55685,1,8,0:0:0:0:
160,192,55822,1,0,0:0:0:0:
224,192,55822,1,0,0:0:0:0:
352,192,55822,1,0,0:0:0:0:
416,192,55822,1,0,0:0:0:0:
96,192,55958,1,8,0:0:0:0:
288,192,55958,1,8,0:0:0:0:
480,192,55958,1,8,0:0:0:0:
32,192,55958,1,8,0:0:0:0:
160,192,56095,1,8,0:0:0:0:
352,192,56095,1,8,0:0:0:0:
224,192,56163,1,8,0:0:0:0:
416,192,56163,1,8,0:0:0:0:
288,192,56231,1,8,0:0:0:0:
480,192,56231,1,8,0:0:0:0:
224,192,56367,1,8,0:0:0:0:
416,192,56367,1,8,0:0:0:0:
160,192,56435,1,8,0:0:0:0:
352,192,56435,1,8,0:0:0:0:
96,192,56504,1,8,0:0:0:0:
288,192,56504,1,8,0:0:0:0:
160,192,56640,128,0,56913:0:0:0:0:
416,192,56640,128,0,56913:0:0:0:0:
288,192,56640,128,0,56913:0:0:0:0:
96,192,56981,1,8,0:0:0:0:
352,192,56981,1,0,0:0:0:0:
224,192,57049,1,8,0:0:0:0:
416,192,57049,1,0,0:0:0:0:
288,192,57117,1,8,0:0:0:0:
480,192,57117,1,0,0:0:0:0:
160,192,57185,1,0,0:0:0:0:
352,192,57185,1,8,0:0:0:0:
416,192,57254,1,8,0:0:0:0:
224,192,57254,1,0,0:0:0:0:
32,192,57322,1,4,0:0:0:0:
480,192,57322,1,8,0:0:0:0:
160,192,57322,1,0,0:0:0:0:
288,192,57322,128,0,57595:0:0:0:0:
480,192,57458,1,0,0:0:0:0:
96,192,57458,1,0,0:0:0:0:
160,192,57595,1,8,0:0:0:0:
416,192,57595,1,8,0:0:0:0:
96,192,57731,1,0,0:0:0:0:
480,192,57731,1,0,0:0:0:0:
224,192,57731,128,0,58140:0:0:0:0:
352,192,57731,1,0,0:0:0:0:
480,192,57867,1,0,0:0:0:0:
160,192,57867,1,0,0:0:0:0:
288,192,57867,1,0,0:0:0:0:
480,192,58004,1,0,0:0:0:0:
96,192,58004,1,0,0:0:0:0:
352,192,58004,1,0,0:0:0:0:
416,192,58140,1,8,0:0:0:0:
288,192,58140,1,8,0:0:0:0:
160,192,58140,1,8,0:0:0:0:
224,192,58276,1,0,0:0:0:0:
96,192,58276,1,0,0:0:0:0:
480,192,58276,1,0,0:0:0:0:
480,192,58413,1,0,0:0:0:0:
160,192,58413,1,0,0:0:0:0:
352,192,58413,128,0,58822:0:0:0:0:
224,192,58549,1,0,0:0:0:0:
96,192,58549,1,0,0:0:0:0:
480,192,58549,1,0,0:0:0:0:
160,192,58685,1,8,0:0:0:0:
288,192,58686,1,8,0:0:0:0:
416,192,58686,1,8,0:0:0:0:
96,192,58822,1,0,0:0:0:0:
480,192,58822,1,0,0:0:0:0:
224,192,58822,1,0,0:0:0:0:
160,192,58822,128,0,59367:0:0:0:0:
480,192,58958,1,0,0:0:0:0:
352,192,58958,1,0,0:0:0:0:
480,192,59095,1,0,0:0:0:0:
224,192,59095,1,0,0:0:0:0:
96,192,59095,1,0,0:0:0:0:
288,192,59231,1,8,0:0:0:0:
416,192,59231,1,8,0:0:0:0:
224,192,59367,1,0,0:0:0:0:
96,192,59367,1,0,0:0:0:0:
480,192,59367,1,0,0:0:0:0:
288,192,59436,1,0,0:0:0:0:
416,192,59436,1,0,0:0:0:0:
160,192,59504,1,0,0:0:0:0:
480,192,59504,1,0,0:0:0:0:
352,192,59504,128,0,60049:0:0:0:0:
288,192,59640,1,0,0:0:0:0:
96,192,59640,1,0,0:0:0:0:
480,192,59640,1,0,0:0:0:0:
160,192,59776,1,8,0:0:0:0:
416,192,59776,1,8,0:0:0:0:
288,192,59776,1,8,0:0:0:0:
96,192,59913,1,0,0:0:0:0:
480,192,59913,1,0,0:0:0:0:
480,192,60049,1,0,0:0:0:0:
160,192,60049,1,0,0:0:0:0:
288,192,60049,1,0,0:0:0:0:
224,192,60185,1,0,0:0:0:0:
96,192,60186,1,0,0:0:0:0:
480,192,60186,1,0,0:0:0:0:
416,192,60322,1,8,0:0:0:0:
160,192,60322,1,8,0:0:0:0:
288,192,60322,1,8,0:0:0:0:
352,192,60458,1,0,0:0:0:0:
96,192,60458,1,0,0:0:0:0:
480,192,60458,1,0,0:0:0:0:
224,192,60595,128,0,61004:0:0:0:0:
480,192,60595,1,0,0:0:0:0:
160,192,60595,1,0,0:0:0:0:
288,192,60595,1,0,0:0:0:0:
96,192,60731,1,0,0:0:0:0:
480,192,60731,1,0,0:0:0:0:
352,192,60731,1,0,0:0:0:0:
416,192,60867,1,8,0:0:0:0:
288,192,60867,1,8,0:0:0:0:
160,192,60867,1,8,0:0:0:0:
480,192,61004,1,0,0:0:0:0:
96,192,61004,1,0,0:0:0:0:
480,192,61140,1,0,0:0:0:0:
352,192,61140,1,0,0:0:0:0:
160,192,61140,1,0,0:0:0:0:
96,192,61276,1,0,0:0:0:0:
480,192,61276,1,0,0:0:0:0:
288,192,61276,1,0,0:0:0:0:
416,192,61413,1,8,0:0:0:0:
224,192,61413,1,0,0:0:0:0:
288,192,61481,1,8,0:0:0:0:
96,192,61481,1,0,0:0:0:0:
480,192,61549,1,0,0:0:0:0:
224,192,61549,1,8,0:0:0:0:
96,192,61617,1,8,0:0:0:0:
416,192,61617,1,0,0:0:0:0:
352,192,61685,128,0,62231:0:0:0:0:
480,192,61686,1,0,0:0:0:0:
160,192,61686,1,0,0:0:0:0:
32,192,61686,1,4,0:0:0:0:
96,192,61822,1,0,0:0:0:0:
480,192,61822,1,0,0:0:0:0:
416,192,61958,1,8,0:0:0:0:
160,192,61958,1,8,0:0:0:0:
288,192,61958,1,8,0:0:0:0:
96,192,62095,1,0,0:0:0:0:
480,192,62095,1,0,0:0:0:0:
288,192,62231,1,0,0:0:0:0:
160,192,62231,1,0,0:0:0:0:
480,192,62231,1,0,0:0:0:0:
224,192,62231,128,0,62367:0:0:0:0:
480,192,62367,1,0,0:0:0:0:
352,192,62367,1,0,0:0:0:0:
96,192,62367,1,0,0:0:0:0:
160,192,62504,1,8,0:0:0:0:
288,192,62504,1,8,0:0:0:0:
416,192,62504,128,8,62640:0:0:0:0:
96,192,62640,1,0,0:0:0:0:
224,192,62640,1,0,0:0:0:0:
480,192,62640,1,0,0:0:0:0:
352,192,62776,1,0,0:0:0:0:
32,192,62776,1,4,0:0:0:0:
480,192,62776,1,0,0:0:0:0:
160,192,62776,1,0,0:0:0:0:
224,192,62776,128,0,63049:0:0:0:0:
288,192,62913,1,0,0:0:0:0:
96,192,62913,1,0,0:0:0:0:
480,192,62913,1,0,0:0:0:0:
416,192,63049,1,8,0:0:0:0:
160,192,63049,1,8,0:0:0:0:
288,192,63049,1,8,0:0:0:0:
224,192,63185,128,0,63458:0:0:0:0:
96,192,63186,1,0,0:0:0:0:
480,192,63186,1,0,0:0:0:0:
352,192,63186,1,0,0:0:0:0:
288,192,63322,1,0,0:0:0:0:
160,192,63322,1,0,0:0:0:0:
480,192,63322,1,0,0:0:0:0:
480,192,63458,1,0,0:0:0:0:
352,192,63458,1,0,0:0:0:0:
96,192,63458,1,0,0:0:0:0:
160,192,63595,1,8,0:0:0:0:
288,192,63595,1,8,0:0:0:0:
416,192,63595,1,8,0:0:0:0:
96,192,63731,1,0,0:0:0:0:
224,192,63731,1,0,0:0:0:0:
480,192,63731,1,0,0:0:0:0:
160,192,63867,128,0,64140:0:0:0:0:
480,192,63867,1,0,0:0:0:0:
352,192,63867,1,0,0:0:0:0:
32,192,63867,1,4,0:0:0:0:
480,192,64004,1,0,0:0:0:0:
96,192,64004,1,0,0:0:0:0:
224,192,64004,1,0,0:0:0:0:
416,192,64140,1,8,0:0:0:0:
288,192,64140,1,8,0:0:0:0:
480,192,64276,1,0,0:0:0:0:
96,192,64276,1,0,0:0:0:0:
352,192,64276,1,0,0:0:0:0:
416,192,64276,128,0,64685:0:0:0:0:
288,192,64413,1,0,0:0:0:0:
480,192,64413,1,0,0:0:0:0:
160,192,64413,1,0,0:0:0:0:
352,192,64549,1,0,0:0:0:0:
96,192,64549,1,0,0:0:0:0:
480,192,64549,1,0,0:0:0:0:
160,192,64686,1,8,0:0:0:0:
416,192,64686,1,0,0:0:0:0:
288,192,64686,1,8,0:0:0:0:
352,192,64822,1,0,0:0:0:0:
224,192,64822,1,0,0:0:0:0:
160,192,64890,1,0,0:0:0:0:
288,192,64890,1,0,0:0:0:0:
480,192,64890,1,0,0:0:0:0:
224,192,64958,1,0,0:0:0:0:
96,192,64958,1,0,0:0:0:0:
416,192,64958,1,0,0:0:0:0:
288,192,65095,1,8,0:0:0:0:
160,192,65095,1,8,0:0:0:0:
416,192,65095,1,8,0:0:0:0:
416,192,65231,1,0,0:0:0:0:
96,192,65231,1,0,0:0:0:0:
288,192,65231,1,0,0:0:0:0:
96,192,65367,128,0,66049:0:0:0:0:
288,192,65367,128,0,66049:0:0:0:0:
416,192,65367,128,0,66049:0:0:0:0:
480,192,65572,1,0,0:0:0:0:
352,192,65640,1,0,0:0:0:0:
224,192,65708,1,0,0:0:0:0:
160,192,65776,1,0,0:0:0:0:
224,192,65845,1,0,0:0:0:0:
352,192,65913,1,0,0:0:0:0:
480,192,65981,1,0,0:0:0:0:
160,192,66049,1,0,0:0:0:0:
32,192,66049,1,4,0:0:0:0:
352,192,66049,128,0,66322:0:0:0:0:
480,192,66185,1,0,0:0:0:0:
224,192,66185,1,0,0:0:0:0:
96,192,66185,1,0,0:0:0:0:
160,192,66322,1,8,0:0:0:0:
288,192,66322,1,8,0:0:0:0:
416,192,66322,1,8,0:0:0:0:
480,192,66458,1,0,0:0:0:0:
352,192,66458,1,0,0:0:0:0:
96,192,66458,1,0,0:0:0:0:
288,192,66458,128,0,67004:0:0:0:0:
480,192,66594,1,0,0:0:0:0:
160,192,66594,1,0,0:0:0:0:
352,192,66731,1,0,0:0:0:0:
480,192,66731,1,0,0:0:0:0:
96,192,66731,1,0,0:0:0:0:
416,192,66867,1,8,0:0:0:0:
160,192,66867,1,8,0:0:0:0:
480,192,67003,1,0,0:0:0:0:
224,192,67003,1,0,0:0:0:0:
96,192,67003,1,0,0:0:0:0:
160,192,67140,128,0,67413:0:0:0:0:
480,192,67140,1,0,0:0:0:0:
96,192,67276,1,0,0:0:0:0:
352,192,67276,1,0,0:0:0:0:
480,192,67276,1,0,0:0:0:0:
416,192,67413,1,8,0:0:0:0:
288,192,67413,1,8,0:0:0:0:
96,192,67549,1,0,0:0:0:0:
480,192,67549,1,0,0:0:0:0:
288,192,67549,128,0,68095:0:0:0:0:
352,192,67685,1,0,0:0:0:0:
480,192,67685,1,0,0:0:0:0:
96,192,67822,1,0,0:0:0:0:
480,192,67822,1,0,0:0:0:0:
224,192,67822,1,0,0:0:0:0:
416,192,67958,1,8,0:0:0:0:
160,192,67958,1,8,0:0:0:0:
96,192,68094,1,0,0:0:0:0:
480,192,68094,1,0,0:0:0:0:
224,192,68163,1,0,0:0:0:0:
416,192,68163,1,0,0:0:0:0:
480,192,68231,1,0,0:0:0:0:
160,192,68231,1,0,0:0:0:0:
352,192,68231,128,0,68776:0:0:0:0:
96,192,68367,1,0,0:0:0:0:
288,192,68367,1,0,0:0:0:0:
480,192,68367,1,0,0:0:0:0:
288,192,68503,1,8,0:0:0:0:
160,192,68503,1,8,0:0:0:0:
416,192,68503,1,8,0:0:0:0:
480,192,68640,1,0,0:0:0:0:
96,192,68640,1,0,0:0:0:0:
224,192,68640,1,0,0:0:0:0:
288,192,68776,1,0,0:0:0:0:
480,192,68776,1,0,0:0:0:0:
160,192,68776,1,0,0:0:0:0:
352,192,68913,1,0,0:0:0:0:
96,192,68913,1,0,0:0:0:0:
480,192,68913,1,0,0:0:0:0:
160,192,69049,1,8,0:0:0:0:
288,192,69049,1,8,0:0:0:0:
416,192,69049,1,8,0:0:0:0:
480,192,69185,1,0,0:0:0:0:
96,192,69185,1,0,0:0:0:0:
160,192,69322,1,0,0:0:0:0:
480,192,69322,1,0,0:0:0:0:
288,192,69322,128,0,69867:0:0:0:0:
96,192,69458,1,0,0:0:0:0:
480,192,69458,1,0,0:0:0:0:
352,192,69458,1,0,0:0:0:0:
224,192,69526,1,0,0:0:0:0:
160,192,69594,1,8,0:0:0:0:
416,192,69594,1,8,0:0:0:0:
224,192,69731,1,0,0:0:0:0:
480,192,69731,1,0,0:0:0:0:
96,192,69731,1,0,0:0:0:0:
480,192,69867,1,0,0:0:0:0:
352,192,69867,1,0,0:0:0:0:
160,192,69867,1,0,0:0:0:0:
288,192,70003,1,0,0:0:0:0:
96,192,70003,1,0,0:0:0:0:
480,192,70003,1,0,0:0:0:0:
416,192,70140,1,8,0:0:0:0:
224,192,70140,1,0,0:0:0:0:
288,192,70208,1,8,0:0:0:0:
96,192,70208,1,0,0:0:0:0:
480,192,70276,1,0,0:0:0:0:
224,192,70276,1,8,0:0:0:0:
96,192,70344,1,8,0:0:0:0:
416,192,70345,1,0,0:0:0:0:
32,192,70413,1,4,0:0:0:0:
160,192,70413,1,0,0:0:0:0:
480,192,70413,1,0,0:0:0:0:
288,192,70413,1,0,0:0:0:0:
352,192,70413,128,0,70822:0:0:0:0:
96,192,70549,1,0,0:0:0:0:
480,192,70549,1,0,0:0:0:0:
288,192,70685,1,8,0:0:0:0:
160,192,70685,1,8,0:0:0:0:
416,192,70685,1,8,0:0:0:0:
96,192,70822,1,0,0:0:0:0:
480,192,70822,1,0,0:0:0:0:
224,192,70822,1,0,0:0:0:0:
160,192,70958,1,0,0:0:0:0:
480,192,70958,1,0,0:0:0:0:
288,192,70958,128,0,71095:0:0:0:0:
352,192,71094,1,0,0:0:0:0:
96,192,71094,1,0,0:0:0:0:
480,192,71094,1,0,0:0:0:0:
160,192,71231,1,8,0:0:0:0:
416,192,71231,1,8,0:0:0:0:
288,192,71231,1,8,0:0:0:0:
224,192,71231,128,0,71367:0:0:0:0:
96,192,71367,1,0,0:0:0:0:
480,192,71367,1,0,0:0:0:0:
352,192,71503,1,0,0:0:0:0:
32,192,71503,1,4,0:0:0:0:
480,192,71503,1,0,0:0:0:0:
160,192,71504,128,0,71776:0:0:0:0:
96,192,71640,1,0,0:0:0:0:
224,192,71640,1,0,0:0:0:0:
480,192,71640,1,0,0:0:0:0:
288,192,71776,1,8,0:0:0:0:
416,192,71776,1,8,0:0:0:0:
224,192,71913,1,0,0:0:0:0:
480,192,71913,1,0,0:0:0:0:
96,192,71913,1,0,0:0:0:0:
288,192,71913,128,0,72185:0:0:0:0:
480,192,72049,1,0,0:0:0:0:
160,192,72049,1,0,0:0:0:0:
96,192,72185,1,0,0:0:0:0:
480,192,72185,1,0,0:0:0:0:
352,192,72185,1,0,0:0:0:0:
288,192,72322,1,8,0:0:0:0:
160,192,72322,1,8,0:0:0:0:
416,192,72322,128,8,72458:0:0:0:0:
352,192,72458,1,0,0:0:0:0:
96,192,72458,1,0,0:0:0:0:
480,192,72458,1,0,0:0:0:0:
480,192,72594,1,0,0:0:0:0:
32,192,72594,1,4,0:0:0:0:
160,192,72595,1,0,0:0:0:0:
288,192,72595,1,0,0:0:0:0:
352,192,72595,128,0,72867:0:0:0:0:
480,192,72731,1,0,0:0:0:0:
96,192,72731,1,0,0:0:0:0:
288,192,72867,1,8,0:0:0:0:
416,192,72867,1,8,0:0:0:0:
160,192,72867,1,8,0:0:0:0:
480,192,73003,1,0,0:0:0:0:
96,192,73003,1,0,0:0:0:0:
224,192,73004,128,0,73413:0:0:0:0:
352,192,73004,1,0,0:0:0:0:
480,192,73140,1,0,0:0:0:0:
160,192,73140,1,0,0:0:0:0:
288,192,73208,1,0,0:0:0:0:
480,192,73276,1,0,0:0:0:0:
96,192,73276,1,0,0:0:0:0:
352,192,73276,1,0,0:0:0:0:
416,192,73413,1,8,0:0:0:0:
288,192,73413,1,8,0:0:0:0:
160,192,73413,1,8,0:0:0:0:
224,192,73549,1,0,0:0:0:0:
288,192,73617,1,0,0:0:0:0:
416,192,73617,1,0,0:0:0:0:
480,192,73685,1,8,0:0:0:0:
224,192,73685,1,8,0:0:0:0:
96,192,73685,1,8,0:0:0:0:
352,192,73685,1,8,0:0:0:0:
416,192,73822,1,0,0:0:0:0:
288,192,73822,1,0,0:0:0:0:
160,192,73822,1,0,0:0:0:0:
96,192,73958,1,8,0:0:0:0:
480,192,73958,1,8,0:0:0:0:
224,192,73958,1,8,0:0:0:0:
352,192,73958,1,8,0:0:0:0:
288,192,74095,1,0,0:0:0:0:
416,192,74095,1,0,0:0:0:0:
160,192,74095,1,0,0:0:0:0:
96,192,74231,1,8,0:0:0:0:
480,192,74231,1,8,0:0:0:0:
224,192,74231,1,8,0:0:0:0:
352,192,74231,1,8,0:0:0:0:
480,192,74367,1,8,0:0:0:0:
96,192,74367,1,8,0:0:0:0:
160,192,74435,1,8,0:0:0:0:
416,192,74435,1,8,0:0:0:0:
352,192,74504,1,8,0:0:0:0:
224,192,74504,1,8,0:0:0:0:
288,192,74572,1,8,0:0:0:0:
224,192,74640,1,8,0:0:0:0:
352,192,74640,1,8,0:0:0:0:
416,192,74708,1,8,0:0:0:0:
160,192,74708,1,8,0:0:0:0:
96,192,74776,1,0,0:0:0:0:
224,192,74776,1,0,0:0:0:0:
32,192,74776,1,0,0:0:0:0:
480,192,74776,1,0,0:0:0:0:
352,192,74776,128,0,75185:0:0:0:0:
96,192,74913,1,0,0:0:0:0:
480,192,74913,1,0,0:0:0:0:
224,192,74913,1,0,0:0:0:0:
416,192,75049,1,8,0:0:0:0:
288,192,75049,1,8,0:0:0:0:
160,192,75049,1,8,0:0:0:0:
224,192,75186,1,0,0:0:0:0:
480,192,75186,1,0,0:0:0:0:
96,192,75186,1,0,0:0:0:0:
96,192,75322,1,0,0:0:0:0:
416,192,75322,1,0,0:0:0:0:
288,192,75322,128,0,75458:0:0:0:0:
224,192,75458,1,0,0:0:0:0:
96,192,75458,1,0,0:0:0:0:
352,192,75458,1,0,0:0:0:0:
160,192,75595,1,8,0:0:0:0:
416,192,75595,1,8,0:0:0:0:
288,192,75595,1,8,0:0:0:0:
480,192,75595,128,0,75731:0:0:0:0:
224,192,75731,1,0,0:0:0:0:
96,192,75731,1,0,0:0:0:0:
416,192,75731,1,0,0:0:0:0:
96,192,75867,1,0,0:0:0:0:
480,192,75867,1,0,0:0:0:0:
288,192,75867,1,0,0:0:0:0:
224,192,75867,128,0,76276:0:0:0:0:
352,192,76004,1,0,0:0:0:0:
96,192,76004,1,0,0:0:0:0:
416,192,76140,1,8,0:0:0:0:
160,192,76140,1,8,0:0:0:0:
288,192,76140,1,8,0:0:0:0:
352,192,76276,1,0,0:0:0:0:
96,192,76276,1,0,0:0:0:0:
288,192,76413,1,0,0:0:0:0:
96,192,76413,1,0,0:0:0:0:
480,192,76413,1,0,0:0:0:0:
224,192,76413,128,0,76549:0:0:0:0:
352,192,76481,1,0,0:0:0:0:
160,192,76481,1,0,0:0:0:0:
416,192,76549,1,0,0:0:0:0:
352,192,76617,1,0,0:0:0:0:
288,192,76617,128,0,76754:0:0:0:0:
416,192,76685,1,8,0:0:0:0:
160,192,76686,1,8,0:0:0:0:
480,192,76822,1,0,0:0:0:0:
96,192,76822,1,0,0:0:0:0:
224,192,76822,1,0,0:0:0:0:
352,192,76822,128,0,76958:0:0:0:0:
416,192,76958,1,0,0:0:0:0:
224,192,76958,128,0,77913:0:0:0:0:
96,192,76959,1,0,0:0:0:0:
352,192,77095,1,0,0:0:0:0:
480,192,77095,1,0,0:0:0:0:
96,192,77095,1,0,0:0:0:0:
416,192,77231,1,8,0:0:0:0:
288,192,77231,1,8,0:0:0:0:
160,192,77231,1,8,0:0:0:0:
96,192,77367,1,0,0:0:0:0:
352,192,77367,1,0,0:0:0:0:
480,192,77504,1,0,0:0:0:0:
96,192,77504,1,0,0:0:0:0:
288,192,77504,1,0,0:0:0:0:
480,192,77640,1,0,0:0:0:0:
96,192,77640,1,0,0:0:0:0:
352,192,77640,1,0,0:0:0:0:
288,192,77776,1,8,0:0:0:0:
160,192,77776,1,8,0:0:0:0:
416,192,77776,1,8,0:0:0:0:
96,192,77913,1,0,0:0:0:0:
480,192,77913,1,0,0:0:0:0:
288,192,77913,1,0,0:0:0:0:
416,192,78049,1,0,0:0:0:0:
32,192,78049,1,4,0:0:0:0:
96,192,78050,1,0,0:0:0:0:
96,192,78186,1,0,0:0:0:0:
224,192,78186,1,0,0:0:0:0:
352,192,78186,1,0,0:0:0:0:
288,192,78322,1,8,0:0:0:0:
416,192,78322,1,8,0:0:0:0:
160,192,78322,1,8,0:0:0:0:
32,192,78322,1,4,0:0:0:0:
480,192,78458,1,0,0:0:0:0:
96,192,78458,1,0,0:0:0:0:
288,192,78458,1,0,0:0:0:0:
416,192,78595,1,0,0:0:0:0:
96,192,78595,1,0,0:0:0:0:
224,192,78595,1,0,0:0:0:0:
32,192,78595,1,4,0:0:0:0:
352,192,78663,1,0,0:0:0:0:
480,192,78731,1,0,0:0:0:0:
96,192,78731,1,0,0:0:0:0:
288,192,78731,1,0,0:0:0:0:
160,192,78867,1,8,0:0:0:0:
352,192,78867,1,8,0:0:0:0:
480,192,78867,1,8,0:0:0:0:
32,192,78867,1,4,0:0:0:0:
224,192,78936,1,0,0:0:0:0:
416,192,78936,1,0,0:0:0:0:
96,192,79004,1,0,0:0:0:0:
288,192,79004,1,0,0:0:0:0:
352,192,79072,1,0,0:0:0:0:
224,192,79072,1,0,0:0:0:0:
160,192,79140,1,0,0:0:0:0:
32,192,79140,1,4,0:0:0:0:
288,192,79140,128,0,79549:0:0:0:0:
96,192,79141,1,0,0:0:0:0:
480,192,79276,1,0,0:0:0:0:
352,192,79276,1,0,0:0:0:0:
96,192,79277,1,0,0:0:0:0:
416,192,79413,1,8,0:0:0:0:
160,192,79413,1,8,0:0:0:0:
416,192,79549,1,0,0:0:0:0:
96,192,79549,1,0,0:0:0:0:
224,192,79549,1,0,0:0:0:0:
224,192,79685,128,0,79822:0:0:0:0:
480,192,79686,1,0,0:0:0:0:
96,192,79686,1,0,0:0:0:0:
288,192,79686,1,0,0:0:0:0:
96,192,79822,1,0,0:0:0:0:
352,192,79822,1,0,0:0:0:0:
160,192,79958,1,8,0:0:0:0:
288,192,79958,1,8,0:0:0:0:
416,192,79958,128,8,80095:0:0:0:0:
352,192,80095,1,0,0:0:0:0:
224,192,80095,1,0,0:0:0:0:
96,192,80095,1,0,0:0:0:0:
96,192,80231,1,0,0:0:0:0:
416,192,80231,1,0,0:0:0:0:
288,192,80231,1,0,0:0:0:0:
480,192,80231,128,0,80640:0:0:0:0:
96,192,80367,1,0,0:0:0:0:
224,192,80367,1,0,0:0:0:0:
352,192,80367,1,0,0:0:0:0:
160,192,80504,1,8,0:0:0:0:
288,192,80504,1,8,0:0:0:0:
416,192,80504,1,8,0:0:0:0:
96,192,80640,1,0,0:0:0:0:
352,192,80640,1,0,0:0:0:0:
224,192,80640,1,0,0:0:0:0:
416,192,80776,1,0,0:0:0:0:
96,192,80776,1,0,0:0:0:0:
224,192,80776,128,0,80913:0:0:0:0:
96,192,80913,1,0,0:0:0:0:
352,192,80913,1,0,0:0:0:0:
160,192,81049,1,8,0:0:0:0:
288,192,81049,1,8,0:0:0:0:
416,192,81049,128,8,81185:0:0:0:0:
96,192,81186,1,0,0:0:0:0:
480,192,81186,1,0,0:0:0:0:
224,192,81186,1,0,0:0:0:0:
416,192,81322,1,0,0:0:0:0:
96,192,81322,1,0,0:0:0:0:
288,192,81322,1,0,0:0:0:0:
352,192,81322,128,0,81595:0:0:0:0:
224,192,81458,1,0,0:0:0:0:
96,192,81458,1,0,0:0:0:0:
416,192,81595,1,8,0:0:0:0:
288,192,81595,1,8,0:0:0:0:
160,192,81595,1,8,0:0:0:0:
96,192,81731,1,0,0:0:0:0:
224,192,81731,128,0,82822:0:0:0:0:
480,192,81867,1,0,0:0:0:0:
96,192,81867,1,0,0:0:0:0:
288,192,81867,1,0,0:0:0:0:
480,192,82004,1,0,0:0:0:0:
96,192,82004,1,0,0:0:0:0:
352,192,82004,1,0,0:0:0:0:
288,192,82140,1,8,0:0:0:0:
160,192,82140,1,8,0:0:0:0:
416,192,82140,1,8,0:0:0:0:
96,192,82276,1,0,0:0:0:0:
352,192,82276,1,0,0:0:0:0:
96,192,82413,1,0,0:0:0:0:
288,192,82413,1,0,0:0:0:0:
416,192,82413,1,0,0:0:0:0:
32,192,82413,1,4,0:0:0:0:
96,192,82549,1,0,0:0:0:0:
352,192,82549,1,0,0:0:0:0:
32,192,82685,1,4,0:0:0:0:
160,192,82685,1,8,0:0:0:0:
288,192,82685,1,8,0:0:0:0:
416,192,82685,1,8,0:0:0:0:
480,192,82822,1,0,0:0:0:0:
96,192,82822,1,0,0:0:0:0:
416,192,82958,1,0,0:0:0:0:
288,192,82958,1,0,0:0:0:0:
96,192,82958,1,0,0:0:0:0:
32,192,82958,1,4,0:0:0:0:
224,192,83095,1,0,0:0:0:0:
96,192,83095,1,0,0:0:0:0:
352,192,83095,1,0,0:0:0:0:
416,192,83231,1,8,0:0:0:0:
32,192,83231,1,4,0:0:0:0:
352,192,83299,1,8,0:0:0:0:
288,192,83367,1,8,0:0:0:0:
224,192,83435,1,8,0:0:0:0:
416,192,83504,1,0,0:0:0:0:
288,192,83504,1,0,0:0:0:0:
96,192,83504,1,0,0:0:0:0:
32,192,83504,1,4,0:0:0:0:
352,192,83504,128,0,83913:0:0:0:0:
480,192,83640,1,0,0:0:0:0:
96,192,83640,1,0,0:0:0:0:
224,192,83640,1,0,0:0:0:0:
416,192,83776,1,8,0:0:0:0:
160,192,83776,1,8,0:0:0:0:
288,192,83776,1,8,0:0:0:0:
480,192,83913,1,0,0:0:0:0:
224,192,83913,1,0,0:0:0:0:
96,192,83913,1,0,0:0:0:0:
416,192,84049,1,0,0:0:0:0:
96,192,84049,1,0,0:0:0:0:
288,192,84049,128,0,84185:0:0:0:0:
352,192,84185,1,0,0:0:0:0:
96,192,84185,1,0,0:0:0:0:
224,192,84185,1,0,0:0:0:0:
288,192,84322,1,8,0:0:0:0:
160,192,84322,1,8,0:0:0:0:
416,192,84322,128,8,84458:0:0:0:0:
224,192,84458,1,0,0:0:0:0:
96,192,84458,1,0,0:0:0:0:
416,192,84458,1,0,0:0:0:0:
480,192,84595,1,0,0:0:0:0:
288,192,84595,1,0,0:0:0:0:
96,192,84595,1,0,0:0:0:0:
160,192,84595,128,0,85004:0:0:0:0:
96,192,84731,1,0,0:0:0:0:
352,192,84731,1,0,0:0:0:0:
480,192,84731,1,0,0:0:0:0:
416,192,84867,1,8,0:0:0:0:
288,192,84867,1,8,0:0:0:0:
96,192,85004,1,0,0:0:0:0:
352,192,85004,1,0,0:0:0:0:
224,192,85004,1,0,0:0:0:0:
352,192,85140,1,0,0:0:0:0:
480,192,85140,1,0,0:0:0:0:
224,192,85140,128,0,85276:0:0:0:0:
288,192,85208,1,0,0:0:0:0:
96,192,85208,1,0,0:0:0:0:
416,192,85276,1,0,0:0:0:0:
160,192,85345,1,8,0:0:0:0:
288,192,85345,128,0,85481:0:0:0:0:
96,192,85413,1,0,0:0:0:0:
352,192,85413,1,0,0:0:0:0:
352,192,85549,128,0,85685:0:0:0:0:
480,192,85549,1,0,0:0:0:0:
96,192,85549,1,0,0:0:0:0:
224,192,85549,1,0,0:0:0:0:
416,192,85685,1,0,0:0:0:0:
224,192,85685,1,0,0:0:0:0:
480,192,85685,128,0,86640:0:0:0:0:
96,192,85685,1,0,0:0:0:0:
352,192,85822,1,0,0:0:0:0:
96,192,85822,1,0,0:0:0:0:
224,192,85822,1,0,0:0:0:0:
288,192,85958,1,8,0:0:0:0:
160,192,85958,1,8,0:0:0:0:
416,192,85958,1,8,0:0:0:0:
224,192,86095,1,0,0:0:0:0:
96,192,86095,1,0,0:0:0:0:
352,192,86095,1,0,0:0:0:0:
96,192,86231,1,0,0:0:0:0:
288,192,86231,1,0,0:0:0:0:
96,192,86367,1,0,0:0:0:0:
416,192,86367,1,0,0:0:0:0:
224,192,86367,1,0,0:0:0:0:
160,192,86504,1,8,0:0:0:0:
416,192,86504,1,8,0:0:0:0:
288,192,86504,1,8,0:0:0:0:
288,192,86640,1,0,0:0:0:0:
96,192,86640,1,0,0:0:0:0:
224,192,86776,1,0,0:0:0:0:
416,192,86776,1,0,0:0:0:0:
32,192,86776,1,4,0:0:0:0:
96,192,86776,1,0,0:0:0:0:
352,192,86913,1,0,0:0:0:0:
96,192,86913,1,0,0:0:0:0:
224,192,86913,1,0,0:0:0:0:
416,192,87049,1,8,0:0:0:0:
288,192,87049,1,8,0:0:0:0:
160,192,87049,1,8,0:0:0:0:
32,192,87049,1,4,0:0:0:0:
480,192,87185,1,0,0:0:0:0:
96,192,87185,1,0,0:0:0:0:
288,192,87185,1,0,0:0:0:0:
224,192,87322,1,0,0:0:0:0:
416,192,87322,1,0,0:0:0:0:
96,192,87322,1,0,0:0:0:0:
32,192,87322,1,4,0:0:0:0:
160,192,87458,1,8,0:0:0:0:
288,192,87458,1,8,0:0:0:0:
416,192,87458,1,8,0:0:0:0:
32,192,87595,1,4,0:0:0:0:
96,192,87595,1,0,0:0:0:0:
352,192,87595,1,0,0:0:0:0:
480,192,87595,1,8,0:0:0:0:
416,192,87663,1,8,0:0:0:0:
224,192,87663,1,0,0:0:0:0:
352,192,87731,1,8,0:0:0:0:
160,192,87731,1,0,0:0:0:0:
96,192,87799,1,0,0:0:0:0:
288,192,87799,1,8,0:0:0:0:
416,192,87867,1,0,0:0:0:0:
352,192,87867,128,0,88276:0:0:0:0:
160,192,87867,1,0,0:0:0:0:
480,192,88004,1,0,0:0:0:0:
96,192,88004,1,0,0:0:0:0:
224,192,88004,1,0,0:0:0:0:
160,192,88140,1,8,0:0:0:0:
288,192,88140,1,8,0:0:0:0:
416,192,88140,1,8,0:0:0:0:
96,192,88276,1,0,0:0:0:0:
224,192,88276,1,0,0:0:0:0:
416,192,88276,1,0,0:0:0:0:
96,192,88413,1,0,0:0:0:0:
480,192,88413,1,0,0:0:0:0:
288,192,88413,128,0,88549:0:0:0:0:
96,192,88549,1,0,0:0:0:0:
224,192,88549,1,0,0:0:0:0:
352,192,88549,1,0,0:0:0:0:
160,192,88685,1,8,0:0:0:0:
288,192,88685,1,8,0:0:0:0:
416,192,88685,128,8,88822:0:0:0:0:
224,192,88822,1,0,0:0:0:0:
352,192,88822,1,0,0:0:0:0:
96,192,88822,1,0,0:0:0:0:
416,192,88958,1,0,0:0:0:0:
288,192,88958,1,0,0:0:0:0:
96,192,88958,1,0,0:0:0:0:
32,192,88958,1,4,0:0:0:0:
480,192,88958,128,0,89231:0:0:0:0:
416,192,89095,1,0,0:0:0:0:
96,192,89095,1,0,0:0:0:0:
224,192,89095,1,0,0:0:0:0:
352,192,89163,1,0,0:0:0:0:
416,192,89231,1,8,0:0:0:0:
288,192,89231,1,8,0:0:0:0:
160,192,89231,1,8,0:0:0:0:
416,192,89367,1,0,0:0:0:0:
96,192,89367,1,0,0:0:0:0:
224,192,89367,1,0,0:0:0:0:
352,192,89367,128,0,89640:0:0:0:0:
96,192,89504,1,0,0:0:0:0:
480,192,89504,1,0,0:0:0:0:
288,192,89504,1,0,0:0:0:0:
224,192,89640,1,0,0:0:0:0:
96,192,89640,1,0,0:0:0:0:
416,192,89640,1,0,0:0:0:0:
416,192,89776,1,8,0:0:0:0:
160,192,89776,1,8,0:0:0:0:
288,192,89776,128,8,89913:0:0:0:0:
224,192,89913,1,0,0:0:0:0:
96,192,89913,1,0,0:0:0:0:
352,192,89913,1,0,0:0:0:0:
96,192,90049,1,0,0:0:0:0:
416,192,90049,1,0,0:0:0:0:
32,192,90049,1,4,0:0:0:0:
224,192,90049,128,0,92095:0:0:0:0:
96,192,90185,1,0,0:0:0:0:
352,192,90185,1,0,0:0:0:0:
288,192,90322,1,8,0:0:0:0:
416,192,90322,1,8,0:0:0:0:
160,192,90322,1,8,0:0:0:0:
96,192,90458,1,0,0:0:0:0:
352,192,90458,1,0,0:0:0:0:
480,192,90595,1,0,0:0:0:0:
288,192,90595,1,0,0:0:0:0:
96,192,90595,1,0,0:0:0:0:
96,192,90731,1,0,0:0:0:0:
416,192,90731,1,0,0:0:0:0:
416,192,90867,1,8,0:0:0:0:
160,192,90867,1,8,0:0:0:0:
288,192,90867,1,8,0:0:0:0:
352,192,91003,1,0,0:0:0:0:
96,192,91003,1,0,0:0:0:0:
96,192,91140,1,0,0:0:0:0:
288,192,91140,1,0,0:0:0:0:
416,192,91140,1,0,0:0:0:0:
96,192,91276,1,0,0:0:0:0:
352,192,91276,1,0,0:0:0:0:
416,192,91413,1,8,0:0:0:0:
288,192,91413,1,8,0:0:0:0:
160,192,91413,1,8,0:0:0:0:
480,192,91549,1,0,0:0:0:0:
96,192,91549,1,0,0:0:0:0:
352,192,91549,1,0,0:0:0:0:
416,192,91685,1,0,0:0:0:0:
96,192,91685,1,0,0:0:0:0:
288,192,91685,1,0,0:0:0:0:
352,192,91822,1,0,0:0:0:0:
96,192,91822,1,0,0:0:0:0:
288,192,91958,1,8,0:0:0:0:
160,192,91958,1,8,0:0:0:0:
416,192,91958,1,8,0:0:0:0:
352,192,92094,1,0,0:0:0:0:
160,192,92231,1,8,0:0:0:0:
416,192,92231,1,8,0:0:0:0:
32,192,92231,1,8,0:0:0:0:
288,192,92231,128,0,93322:0:0:0:0:
352,192,92367,1,0,0:0:0:0:
480,192,92367,1,0,0:0:0:0:
96,192,92367,1,0,0:0:0:0:
224,192,92367,1,0,0:0:0:0:
416,192,92504,1,8,0:0:0:0:
160,192,92504,1,8,0:0:0:0:
32,192,92504,1,8,0:0:0:0:
352,192,92640,1,0,0:0:0:0:
96,192,92640,1,0,0:0:0:0:
480,192,92640,1,0,0:0:0:0:
224,192,92640,1,0,0:0:0:0:
160,192,92776,1,8,0:0:0:0:
416,192,92776,1,8,0:0:0:0:
32,192,92776,1,8,0:0:0:0:
224,192,92913,1,0,0:0:0:0:
480,192,92913,1,0,0:0:0:0:
352,192,92913,1,0,0:0:0:0:
96,192,92913,1,0,0:0:0:0:
416,192,93049,1,8,0:0:0:0:
160,192,93049,1,8,0:0:0:0:
32,192,93049,1,8,0:0:0:0:
96,192,93185,1,0,0:0:0:0:
224,192,93185,1,0,0:0:0:0:
480,192,93185,1,0,0:0:0:0:
352,192,93186,1,0,0:0:0:0:
416,192,93322,1,0,0:0:0:0:
32,192,93322,1,0,0:0:0:0:
160,192,93322,1,0,0:0:0:0:
96,192,93458,1,8,0:0:0:0:
288,192,93458,1,8,0:0:0:0:
352,192,93526,1,8,0:0:0:0:
160,192,93526,1,8,0:0:0:0:
416,192,93595,1,8,0:0:0:0:
224,192,93595,1,8,0:0:0:0:
416,192,93731,128,8,94004:0:0:0:0:
288,192,93731,128,8,94004:0:0:0:0:
160,192,93731,128,8,94004:0:0:0:0:
96,192,94072,1,0,0:0:0:0:
288,192,94140,1,8,0:0:0:0:
160,192,94208,1,8,0:0:0:0:
352,192,94276,1,8,0:0:0:0:
224,192,94345,1,8,0:0:0:0:
32,192,94413,1,4,0:0:0:0:
416,192,94413,128,4,95231:0:0:0:0:
288,192,94413,1,0,0:0:0:0:
224,192,94549,1,0,0:0:0:0:
160,192,94685,1,0,0:0:0:0:
352,192,94822,1,0,0:0:0:0:
288,192,94958,1,0,0:0:0:0:
224,192,95095,1,0,0:0:0:0:
160,192,95231,1,0,0:0:0:0:
96,192,95367,1,0,0:0:0:0:
160,192,95504,128,4,96390:0:0:0:0:
288,192,95504,1,0,0:0:0:0:
352,192,95640,1,0,0:0:0:0:
416,192,95776,1,0,0:0:0:0:
224,192,95913,1,0,0:0:0:0:
288,192,96049,1,0,0:0:0:0:
352,192,96185,1,0,0:0:0:0:
416,192,96322,1,0,0:0:0:0:
480,192,96458,1,0,0:0:0:0:
352,192,96595,128,4,97413:0:0:0:0:
288,192,96595,1,0,0:0:0:0:
224,192,96731,1,0,0:0:0:0:
160,192,96867,1,0,0:0:0:0:
288,192,97004,1,0,0:0:0:0:
224,192,97140,1,0,0:0:0:0:
160,192,97276,1,0,0:0:0:0:
96,192,97413,1,0,0:0:0:0:
160,192,97549,1,0,0:0:0:0:
224,192,97685,1,0,0:0:0:0:
288,192,97822,1,0,0:0:0:0:
352,192,97958,1,0,0:0:0:0:
416,192,98095,1,0,0:0:0:0:
224,192,98231,128,0,98504:0:0:0:0:
480,192,98231,1,0,0:0:0:0:
288,192,98367,1,0,0:0:0:0:
352,192,98504,1,0,0:0:0:0:
416,192,98640,1,0,0:0:0:0:
352,192,98708,1,0,0:0:0:0:
96,192,98776,128,4,99595:0:0:0:0:
288,192,98776,1,0,0:0:0:0:
224,192,98913,1,0,0:0:0:0:
160,192,99049,1,0,0:0:0:0:
224,192,99185,1,0,0:0:0:0:
352,192,99322,1,0,0:0:0:0:
416,192,99458,1,0,0:0:0:0:
480,192,99595,1,0,0:0:0:0:
416,192,99731,1,0,0:0:0:0:
224,192,99867,128,4,100685:0:0:0:0:
288,192,99867,1,0,0:0:0:0:
160,192,100004,1,0,0:0:0:0:
96,192,100140,1,0,0:0:0:0:
288,192,100276,1,0,0:0:0:0:
160,192,100413,1,0,0:0:0:0:
288,192,100549,1,0,0:0:0:0:
352,192,100685,1,0,0:0:0:0:
480,192,100822,1,0,0:0:0:0:
416,192,100958,128,4,102322:0:0:0:0:
352,192,100958,1,0,0:0:0:0:
288,192,101095,1,0,0:0:0:0:
160,192,101231,1,0,0:0:0:0:
96,192,101367,1,0,0:0:0:0:
224,192,101504,1,0,0:0:0:0:
288,192,101640,1,0,0:0:0:0:
352,192,101776,1,0,0:0:0:0:
480,192,101913,1,0,0:0:0:0:
288,192,102049,1,0,0:0:0:0:
160,192,102185,1,0,0:0:0:0:
352,192,102322,1,0,0:0:0:0:
224,192,102458,1,0,0:0:0:0:
288,192,102595,128,0,102867:0:0:0:0:
416,192,102595,1,0,0:0:0:0:
160,192,102595,1,0,0:0:0:0:
352,192,102731,1,0,0:0:0:0:
96,192,102731,1,0,0:0:0:0:
480,192,102867,1,0,0:0:0:0:
416,192,103004,1,0,0:0:0:0:
224,192,103004,1,0,0:0:0:0:
96,192,103140,128,4,103958:0:0:0:0:
288,192,103140,1,0,0:0:0:0:
224,192,103276,1,0,0:0:0:0:
352,192,103276,1,0,0:0:0:0:
288,192,103413,1,8,0:0:0:0:
416,192,103413,1,8,0:0:0:0:
352,192,103549,1,0,0:0:0:0:
480,192,103549,1,0,0:0:0:0:
288,192,103685,1,0,0:0:0:0:
416,192,103685,1,0,0:0:0:0:
224,192,103822,1,0,0:0:0:0:
352,192,103822,1,0,0:0:0:0:
160,192,103958,1,8,0:0:0:0:
288,192,103958,1,8,0:0:0:0:
96,192,104095,1,0,0:0:0:0:
224,192,104095,1,0,0:0:0:0:
224,192,104231,128,0,105049:0:0:0:0:
352,192,104231,1,0,0:0:0:0:
160,192,104231,1,0,0:0:0:0:
96,192,104367,1,0,0:0:0:0:
288,192,104367,1,0,0:0:0:0:
160,192,104504,1,8,0:0:0:0:
352,192,104504,1,8,0:0:0:0:
288,192,104640,1,0,0:0:0:0:
480,192,104640,1,0,0:0:0:0:
160,192,104776,1,0,0:0:0:0:
416,192,104776,1,0,0:0:0:0:
96,192,104913,1,0,0:0:0:0:
288,192,104913,1,0,0:0:0:0:
160,192,105049,1,8,0:0:0:0:
352,192,105049,1,8,0:0:0:0:
96,192,105185,1,0,0:0:0:0:
288,192,105185,1,0,0:0:0:0:
352,192,105322,128,0,106685:0:0:0:0:
224,192,105322,1,0,0:0:0:0:
416,192,105322,1,0,0:0:0:0:
160,192,105458,1,0,0:0:0:0:
480,192,105458,1,0,0:0:0:0:
224,192,105595,1,8,0:0:0:0:
416,192,105595,1,8,0:0:0:0:
96,192,105731,1,0,0:0:0:0:
288,192,105731,1,0,0:0:0:0:
224,192,105867,1,0,0:0:0:0:
416,192,105867,1,0,0:0:0:0:
96,192,106004,1,0,0:0:0:0:
288,192,106004,1,0,0:0:0:0:
160,192,106140,1,8,0:0:0:0:
416,192,106140,1,8,0:0:0:0:
224,192,106276,1,0,0:0:0:0:
480,192,106276,1,0,0:0:0:0:
160,192,106413,1,0,0:0:0:0:
416,192,106413,1,0,0:0:0:0:
96,192,106549,1,0,0:0:0:0:
288,192,106549,1,0,0:0:0:0:
160,192,106685,1,8,0:0:0:0:
416,192,106685,1,8,0:0:0:0:
96,192,106822,1,0,0:0:0:0:
288,192,106822,1,0,0:0:0:0:
416,192,106958,128,0,107231:0:0:0:0:
224,192,106958,1,0,0:0:0:0:
352,192,106958,1,0,0:0:0:0:
96,192,107095,1,0,0:0:0:0:
288,192,107095,1,0,0:0:0:0:
160,192,107231,1,8,0:0:0:0:
352,192,107231,1,8,0:0:0:0:
288,192,107367,1,0,0:0:0:0:
480,192,107367,1,0,0:0:0:0:
160,192,107504,128,0,108322:0:0:0:0:
96,192,107504,1,4,0:0:0:0:
352,192,107504,1,0,0:0:0:0:
224,192,107504,1,0,0:0:0:0:
288,192,107640,1,0,0:0:0:0:
416,192,107640,1,0,0:0:0:0:
96,192,107640,1,0,0:0:0:0:
352,192,107776,1,8,0:0:0:0:
480,192,107776,1,8,0:0:0:0:
96,192,107776,1,8,0:0:0:0:
288,192,107913,1,0,0:0:0:0:
416,192,107913,1,0,0:0:0:0:
96,192,107913,1,0,0:0:0:0:
224,192,108049,1,0,0:0:0:0:
352,192,108049,1,0,0:0:0:0:
96,192,108049,1,0,0:0:0:0:
288,192,108185,1,0,0:0:0:0:
416,192,108185,1,0,0:0:0:0:
96,192,108185,1,0,0:0:0:0:
352,192,108322,1,0,0:0:0:0:
480,192,108322,1,0,0:0:0:0:
96,192,108322,1,0,0:0:0:0:
96,192,108458,1,8,0:0:0:0:
288,192,108458,1,8,0:0:0:0:
416,192,108458,1,8,0:0:0:0:
352,192,108595,128,0,108867:0:0:0:0:
96,192,108595,1,0,0:0:0:0:
160,192,108595,1,0,0:0:0:0:
288,192,108595,1,0,0:0:0:0:
96,192,108731,1,0,0:0:0:0:
288,192,108731,1,8,0:0:0:0:
416,192,108731,1,0,0:0:0:0:
480,192,108799,1,0,0:0:0:0:
224,192,108799,1,8,0:0:0:0:
96,192,108867,1,0,0:0:0:0:
288,192,108867,1,0,0:0:0:0:
160,192,108867,1,8,0:0:0:0:
224,192,109004,128,0,109276:0:0:0:0:
96,192,109004,1,0,0:0:0:0:
416,192,109004,1,0,0:0:0:0:
288,192,109004,1,0,0:0:0:0:
96,192,109140,1,0,0:0:0:0:
352,192,109140,1,8,0:0:0:0:
480,192,109140,1,0,0:0:0:0:
352,192,109276,1,8,0:0:0:0:
416,192,109276,1,0,0:0:0:0:
96,192,109276,1,0,0:0:0:0:
288,192,109345,1,8,0:0:0:0:
160,192,109345,1,0,0:0:0:0:
416,192,109413,128,0,109549:0:0:0:0:
96,192,109413,1,0,0:0:0:0:
224,192,109413,1,8,0:0:0:0:
480,192,109413,1,0,0:0:0:0:
352,192,109481,1,0,0:0:0:0:
288,192,109481,1,8,0:0:0:0:
96,192,109549,1,0,0:0:0:0:
224,192,109549,1,8,0:0:0:0:
480,192,109549,1,0,0:0:0:0:
352,192,109685,128,0,111322:0:0:0:0:
96,192,109685,1,0,0:0:0:0:
224,192,109685,1,0,0:0:0:0:
416,192,109685,1,0,0:0:0:0:
288,192,109958,1,0,0:0:0:0:
160,192,110231,1,8,0:0:0:0:
288,192,110504,1,0,0:0:0:0:
96,192,110708,1,0,0:0:0:0:
96,192,110776,1,0,0:0:0:0:
288,192,110913,1,0,0:0:0:0:
96,192,111049,1,0,0:0:0:0:
96,192,111117,1,0,0:0:0:0:
224,192,111185,1,8,0:0:0:0:
416,192,111458,1,0,0:0:0:0:
224,192,111595,1,0,0:0:0:0:
480,192,111731,1,0,0:0:0:0:
416,192,111799,1,0,0:0:0:0:
352,192,111867,1,0,0:0:0:0:
224,192,111867,1,0,0:0:0:0:
160,192,111958,1,0,0:0:0:0:
288,192,111958,1,0,0:0:0:0:
224,192,112049,1,0,0:0:0:0:
352,192,112049,1,0,0:0:0:0:
96,192,112140,1,0,0:0:0:0:
288,192,112140,1,0,0:0:0:0:
160,192,112231,1,0,0:0:0:0:
352,192,112231,1,0,0:0:0:0:
224,192,112322,1,0,0:0:0:0:
416,192,112322,1,0,0:0:0:0:
160,192,112413,1,0,0:0:0:0:
352,192,112413,1,0,0:0:0:0:
224,192,112504,1,0,0:0:0:0:
416,192,112504,1,0,0:0:0:0:
288,192,112595,1,0,0:0:0:0:
480,192,112595,1,0,0:0:0:0:
224,192,112685,1,0,0:0:0:0:
416,192,112685,1,0,0:0:0:0:
352,192,112776,1,0,0:0:0:0:
160,192,112776,1,0,0:0:0:0:
288,192,112867,1,0,0:0:0:0:
96,192,112867,1,0,0:0:0:0:
160,192,112890,1,0,0:0:0:0:
352,192,112890,1,0,0:0:0:0:
224,192,112913,1,0,0:0:0:0:
416,192,112913,1,0,0:0:0:0:
288,192,112935,1,0,0:0:0:0:
480,192,112935,1,0,0:0:0:0:
32,192,112958,1,4,0:0:0:0:
160,192,112958,128,0,113095:0:0:0:0:
416,192,112958,128,0,113095:0:0:0:0:
96,192,113163,1,0,0:0:0:0:
352,192,113163,1,0,0:0:0:0:
416,192,113231,1,0,0:0:0:0:
160,192,113231,1,0,0:0:0:0:
480,192,113367,128,0,113504:0:0:0:0:
288,192,113367,128,0,113504:0:0:0:0:
96,192,113367,128,0,113504:0:0:0:0:
224,192,113572,1,0,0:0:0:0:
96,192,113640,1,0,0:0:0:0:
288,192,113708,1,0,0:0:0:0:
160,192,113776,1,0,0:0:0:0:
352,192,113845,1,0,0:0:0:0:
224,192,113913,1,0,0:0:0:0:
416,192,113981,1,0,0:0:0:0:
288,192,114049,1,0,0:0:0:0:
480,192,114049,1,0,0:0:0:0:
352,192,114049,128,0,114458:0:0:0:0:
96,192,114049,1,0,0:0:0:0:
32,192,114049,1,4,0:0:0:0:
96,192,114186,1,0,0:0:0:0:
480,192,114186,1,0,0:0:0:0:
416,192,114322,1,8,0:0:0:0:
160,192,114322,1,8,0:0:0:0:
288,192,114322,1,8,0:0:0:0:
96,192,114459,1,0,0:0:0:0:
480,192,114459,1,0,0:0:0:0:
224,192,114459,1,0,0:0:0:0:
96,192,114595,1,0,0:0:0:0:
416,192,114595,1,0,0:0:0:0:
288,192,114595,128,0,114731:0:0:0:0:
96,192,114731,1,0,0:0:0:0:
224,192,114731,1,0,0:0:0:0:
352,192,114731,1,0,0:0:0:0:
160,192,114868,1,8,0:0:0:0:
480,192,114868,128,0,115004:0:0:0:0:
416,192,114868,1,8,0:0:0:0:
288,192,114868,1,8,0:0:0:0:
96,192,115004,1,0,0:0:0:0:
224,192,115004,1,0,0:0:0:0:
416,192,115004,1,0,0:0:0:0:
288,192,115140,1,0,0:0:0:0:
224,192,115140,128,0,115549:0:0:0:0:
96,192,115140,1,0,0:0:0:0:
480,192,115140,1,0,0:0:0:0:
352,192,115277,1,0,0:0:0:0:
96,192,115277,1,0,0:0:0:0:
160,192,115413,1,8,0:0:0:0:
288,192,115413,1,8,0:0:0:0:
416,192,115413,1,8,0:0:0:0:
352,192,115549,1,0,0:0:0:0:
96,192,115549,1,0,0:0:0:0:
288,192,115686,1,0,0:0:0:0:
224,192,115686,128,0,115822:0:0:0:0:
96,192,115686,1,0,0:0:0:0:
480,192,115686,1,0,0:0:0:0:
160,192,115754,1,0,0:0:0:0:
352,192,115754,1,0,0:0:0:0:
416,192,115822,1,0,0:0:0:0:
352,192,115890,1,0,0:0:0:0:
288,192,115890,128,0,116027:0:0:0:0:
160,192,115959,1,0,0:0:0:0:
224,192,116095,1,0,0:0:0:0:
480,192,116095,1,0,0:0:0:0:
96,192,116095,1,0,0:0:0:0:
352,192,116095,128,0,116231:0:0:0:0:
224,192,116231,128,0,117186:0:0:0:0:
416,192,116231,1,0,0:0:0:0:
96,192,116232,1,0,0:0:0:0:
480,192,116368,1,0,0:0:0:0:
96,192,116368,1,0,0:0:0:0:
352,192,116368,1,0,0:0:0:0:
160,192,116504,1,8,0:0:0:0:
416,192,116504,1,8,0:0:0:0:
288,192,116504,1,8,0:0:0:0:
352,192,116640,1,0,0:0:0:0:
96,192,116640,1,0,0:0:0:0:
480,192,116777,1,0,0:0:0:0:
96,192,116777,1,0,0:0:0:0:
288,192,116777,1,0,0:0:0:0:
96,192,116913,1,0,0:0:0:0:
416,192,116913,1,0,0:0:0:0:
416,192,117049,1,8,0:0:0:0:
288,192,117049,1,8,0:0:0:0:
160,192,117049,1,8,0:0:0:0:
96,192,117186,1,0,0:0:0:0:
480,192,117186,1,0,0:0:0:0:
288,192,117186,1,0,0:0:0:0:
416,192,117322,1,0,0:0:0:0:
32,192,117322,1,4,0:0:0:0:
96,192,117323,1,0,0:0:0:0:
352,192,117459,1,0,0:0:0:0:
224,192,117459,1,0,0:0:0:0:
96,192,117459,1,0,0:0:0:0:
416,192,117595,1,8,0:0:0:0:
160,192,117595,1,8,0:0:0:0:
288,192,117595,1,8,0:0:0:0:
32,192,117595,1,4,0:0:0:0:
96,192,117731,1,0,0:0:0:0:
480,192,117731,1,0,0:0:0:0:
288,192,117731,1,0,0:0:0:0:
32,192,117867,1,4,0:0:0:0:
224,192,117868,1,0,0:0:0:0:
416,192,117868,1,0,0:0:0:0:
96,192,117868,1,0,0:0:0:0:
96,192,118004,1,0,0:0:0:0:
480,192,118004,1,0,0:0:0:0:
288,192,118004,1,0,0:0:0:0:
352,192,118140,1,8,0:0:0:0:
480,192,118140,1,8,0:0:0:0:
160,192,118140,1,8,0:0:0:0:
32,192,118140,1,4,0:0:0:0:
416,192,118209,1,0,0:0:0:0:
224,192,118209,1,0,0:0:0:0:
288,192,118277,1,0,0:0:0:0:
96,192,118277,1,0,0:0:0:0:
352,192,118345,1,0,0:0:0:0:
224,192,118345,1,0,0:0:0:0:
288,192,118413,128,0,118822:0:0:0:0:
160,192,118413,1,0,0:0:0:0:
32,192,118413,1,4,0:0:0:0:
96,192,118414,1,0,0:0:0:0:
480,192,118549,1,0,0:0:0:0:
352,192,118549,1,0,0:0:0:0:
96,192,118550,1,0,0:0:0:0:
416,192,118686,1,8,0:0:0:0:
160,192,118686,1,8,0:0:0:0:
416,192,118822,1,0,0:0:0:0:
96,192,118822,1,0,0:0:0:0:
224,192,118822,1,0,0:0:0:0:
224,192,118958,128,0,119095:0:0:0:0:
288,192,118959,1,0,0:0:0:0:
480,192,118959,1,0,0:0:0:0:
96,192,118959,1,0,0:0:0:0:
96,192,119095,1,0,0:0:0:0:
352,192,119095,1,0,0:0:0:0:
160,192,119231,1,8,0:0:0:0:
288,192,119231,1,8,0:0:0:0:
416,192,119231,128,8,119368:0:0:0:0:
352,192,119368,1,0,0:0:0:0:
224,192,119368,1,0,0:0:0:0:
96,192,119368,1,0,0:0:0:0:
480,192,119504,128,0,119913:0:0:0:0:
416,192,119504,1,0,0:0:0:0:
96,192,119504,1,0,0:0:0:0:
288,192,119504,1,0,0:0:0:0:
96,192,119640,1,0,0:0:0:0:
224,192,119640,1,0,0:0:0:0:
416,192,119777,1,8,0:0:0:0:
160,192,119777,1,8,0:0:0:0:
288,192,119777,1,8,0:0:0:0:
96,192,119913,1,0,0:0:0:0:
352,192,119913,1,0,0:0:0:0:
224,192,119913,1,0,0:0:0:0:
224,192,120049,128,0,120186:0:0:0:0:
416,192,120049,1,0,0:0:0:0:
96,192,120049,1,0,0:0:0:0:
288,192,120049,1,0,0:0:0:0:
96,192,120186,1,0,0:0:0:0:
352,192,120186,1,0,0:0:0:0:
160,192,120322,1,8,0:0:0:0:
416,192,120322,128,8,120458:0:0:0:0:
288,192,120322,1,8,0:0:0:0:
96,192,120459,1,0,0:0:0:0:
224,192,120459,1,0,0:0:0:0:
480,192,120459,1,0,0:0:0:0:
352,192,120595,128,0,120868:0:0:0:0:
160,192,120595,1,0,0:0:0:0:
288,192,120595,1,0,0:0:0:0:
96,192,120731,1,0,0:0:0:0:
224,192,120731,1,0,0:0:0:0:
416,192,120867,1,8,0:0:0:0:
288,192,120868,1,8,0:0:0:0:
160,192,120868,1,8,0:0:0:0:
352,192,121004,1,0,0:0:0:0:
224,192,121004,128,0,122095:0:0:0:0:
96,192,121004,1,0,0:0:0:0:
288,192,121140,1,0,0:0:0:0:
480,192,121140,1,0,0:0:0:0:
96,192,121140,1,0,0:0:0:0:
416,192,121277,1,0,0:0:0:0:
96,192,121277,1,0,0:0:0:0:
288,192,121413,1,8,0:0:0:0:
160,192,121413,1,8,0:0:0:0:
416,192,121413,1,8,0:0:0:0:
96,192,121549,1,0,0:0:0:0:
352,192,121549,1,0,0:0:0:0:
96,192,121686,1,0,0:0:0:0:
416,192,121686,1,0,0:0:0:0:
288,192,121686,1,0,0:0:0:0:
352,192,121822,1,0,0:0:0:0:
96,192,121822,1,0,0:0:0:0:
160,192,121959,1,8,0:0:0:0:
288,192,121959,1,8,0:0:0:0:
416,192,121959,1,8,0:0:0:0:
480,192,122095,1,0,0:0:0:0:
96,192,122095,1,0,0:0:0:0:
288,192,122231,1,0,0:0:0:0:
416,192,122231,1,0,0:0:0:0:
96,192,122231,1,0,0:0:0:0:
352,192,122368,1,0,0:0:0:0:
224,192,122368,1,0,0:0:0:0:
96,192,122368,1,0,0:0:0:0:
288,192,122504,1,8,0:0:0:0:
416,192,122504,1,8,0:0:0:0:
160,192,122572,1,8,0:0:0:0:
352,192,122572,1,8,0:0:0:0:
96,192,122640,1,8,0:0:0:0:
288,192,122640,1,8,0:0:0:0:
224,192,122708,1,8,0:0:0:0:
160,192,122709,1,8,0:0:0:0:
416,192,122776,1,0,0:0:0:0:
32,192,122776,1,0,0:0:0:0:
352,192,122777,128,0,123186:0:0:0:0:
288,192,122777,1,0,0:0:0:0:
96,192,122777,1,0,0:0:0:0:
480,192,122913,1,0,0:0:0:0:
96,192,122913,1,0,0:0:0:0:
160,192,123049,1,8,0:0:0:0:
288,192,123049,1,8,0:0:0:0:
416,192,123049,1,8,0:0:0:0:
96,192,123186,1,0,0:0:0:0:
480,192,123186,1,0,0:0:0:0:
224,192,123186,1,0,0:0:0:0:
96,192,123322,1,0,0:0:0:0:
416,192,123322,1,0,0:0:0:0:
288,192,123322,128,0,123458:0:0:0:0:
224,192,123458,1,0,0:0:0:0:
352,192,123458,1,0,0:0:0:0:
96,192,123458,1,0,0:0:0:0:
288,192,123595,1,8,0:0:0:0:
352,192,123595,128,0,123731:0:0:0:0:
160,192,123595,1,8,0:0:0:0:
416,192,123731,1,0,0:0:0:0:
224,192,123731,1,0,0:0:0:0:
96,192,123731,1,0,0:0:0:0:
96,192,123867,1,0,0:0:0:0:
480,192,123867,1,0,0:0:0:0:
288,192,123867,1,0,0:0:0:0:
160,192,123868,128,0,124277:0:0:0:0:
96,192,124004,1,0,0:0:0:0:
352,192,124004,1,0,0:0:0:0:
416,192,124140,1,8,0:0:0:0:
288,192,124140,1,8,0:0:0:0:
352,192,124276,1,0,0:0:0:0:
96,192,124276,1,0,0:0:0:0:
224,192,124276,1,0,0:0:0:0:
352,192,124413,1,0,0:0:0:0:
224,192,124413,128,0,124549:0:0:0:0:
480,192,124413,1,0,0:0:0:0:
288,192,124481,1,0,0:0:0:0:
96,192,124481,1,0,0:0:0:0:
416,192,124549,1,0,0:0:0:0:
160,192,124618,1,0,0:0:0:0:
288,192,124618,128,0,124754:0:0:0:0:
96,192,124686,1,0,0:0:0:0:
352,192,124686,1,0,0:0:0:0:
352,192,124822,128,0,124958:0:0:0:0:
96,192,124822,1,0,0:0:0:0:
224,192,124822,1,0,0:0:0:0:
480,192,124822,1,0,0:0:0:0:
416,192,124958,1,0,0:0:0:0:
224,192,124958,1,0,0:0:0:0:
480,192,124958,128,0,125913:0:0:0:0:
96,192,124959,1,0,0:0:0:0:
96,192,125095,1,0,0:0:0:0:
352,192,125095,1,0,0:0:0:0:
160,192,125231,1,8,0:0:0:0:
288,192,125231,1,8,0:0:0:0:
416,192,125231,1,8,0:0:0:0:
352,192,125367,1,0,0:0:0:0:
224,192,125367,1,0,0:0:0:0:
96,192,125367,1,0,0:0:0:0:
288,192,125504,1,0,0:0:0:0:
96,192,125504,1,0,0:0:0:0:
96,192,125640,1,0,0:0:0:0:
224,192,125640,1,0,0:0:0:0:
416,192,125640,1,0,0:0:0:0:
288,192,125776,1,8,0:0:0:0:
416,192,125776,1,8,0:0:0:0:
160,192,125776,1,8,0:0:0:0:
96,192,125913,1,0,0:0:0:0:
288,192,125913,1,0,0:0:0:0:
224,192,126049,1,0,0:0:0:0:
416,192,126049,1,0,0:0:0:0:
96,192,126050,1,0,0:0:0:0:
352,192,126186,1,0,0:0:0:0:
96,192,126186,1,0,0:0:0:0:
224,192,126186,1,0,0:0:0:0:
160,192,126322,1,8,0:0:0:0:
288,192,126322,1,8,0:0:0:0:
416,192,126322,1,8,0:0:0:0:
288,192,126458,1,0,0:0:0:0:
480,192,126458,1,0,0:0:0:0:
96,192,126458,1,0,0:0:0:0:
224,192,126595,1,0,0:0:0:0:
96,192,126595,1,0,0:0:0:0:
416,192,126595,1,0,0:0:0:0:
416,192,126731,1,8,0:0:0:0:
160,192,126731,1,8,0:0:0:0:
288,192,126731,1,8,0:0:0:0:
96,192,126868,1,8,0:0:0:0:
480,192,126868,1,8,0:0:0:0:
352,192,126868,1,8,0:0:0:0:
416,192,126936,1,8,0:0:0:0:
224,192,126936,1,8,0:0:0:0:
352,192,127004,1,8,0:0:0:0:
160,192,127004,1,8,0:0:0:0:
288,192,127072,1,8,0:0:0:0:
96,192,127072,1,8,0:0:0:0:
352,192,127140,128,0,127549:0:0:0:0:
160,192,127140,1,0,0:0:0:0:
416,192,127140,1,0,0:0:0:0:
32,192,127140,1,4,0:0:0:0:
480,192,127276,1,0,0:0:0:0:
96,192,127277,1,0,0:0:0:0:
160,192,127413,1,8,0:0:0:0:
288,192,127413,1,8,0:0:0:0:
416,192,127413,1,8,0:0:0:0:
416,192,127549,1,0,0:0:0:0:
96,192,127549,1,0,0:0:0:0:
224,192,127549,1,0,0:0:0:0:
480,192,127686,1,0,0:0:0:0:
96,192,127686,1,0,0:0:0:0:
288,192,127686,128,0,127822:0:0:0:0:
224,192,127822,1,0,0:0:0:0:
352,192,127822,1,0,0:0:0:0:
96,192,127822,1,0,0:0:0:0:
160,192,127958,1,8,0:0:0:0:
416,192,127958,128,8,128095:0:0:0:0:
288,192,127958,1,8,0:0:0:0:
224,192,128095,1,0,0:0:0:0:
96,192,128095,1,0,0:0:0:0:
352,192,128095,1,0,0:0:0:0:
416,192,128231,1,0,0:0:0:0:
96,192,128231,1,0,0:0:0:0:
480,192,128231,128,0,128504:0:0:0:0:
288,192,128231,1,0,0:0:0:0:
416,192,128368,1,0,0:0:0:0:
96,192,128368,1,0,0:0:0:0:
224,192,128368,1,0,0:0:0:0:
352,192,128436,1,0,0:0:0:0:
416,192,128504,1,8,0:0:0:0:
288,192,128504,1,8,0:0:0:0:
160,192,128504,1,8,0:0:0:0:
416,192,128640,1,0,0:0:0:0:
96,192,128640,1,0,0:0:0:0:
224,192,128640,1,0,0:0:0:0:
352,192,128640,128,0,128913:0:0:0:0:
480,192,128777,1,0,0:0:0:0:
96,192,128777,1,0,0:0:0:0:
288,192,128777,1,0,0:0:0:0:
416,192,128913,1,0,0:0:0:0:
224,192,128913,1,0,0:0:0:0:
96,192,128913,1,0,0:0:0:0:
288,192,129049,128,8,129186:0:0:0:0:
160,192,129049,1,8,0:0:0:0:
416,192,129049,1,8,0:0:0:0:
352,192,129186,1,0,0:0:0:0:
96,192,129186,1,0,0:0:0:0:
224,192,129186,1,0,0:0:0:0:
224,192,129322,128,0,131368:0:0:0:0:
416,192,129322,1,0,0:0:0:0:
96,192,129322,1,0,0:0:0:0:
96,192,129458,1,0,0:0:0:0:
352,192,129458,1,0,0:0:0:0:
288,192,129595,1,8,0:0:0:0:
160,192,129595,1,8,0:0:0:0:
416,192,129595,1,8,0:0:0:0:
96,192,129731,1,0,0:0:0:0:
352,192,129731,1,0,0:0:0:0:
96,192,129867,1,0,0:0:0:0:
288,192,129867,1,0,0:0:0:0:
480,192,129867,1,0,0:0:0:0:
416,192,130004,1,0,0:0:0:0:
96,192,130004,1,0,0:0:0:0:
416,192,130140,1,8,0:0:0:0:
288,192,130140,1,8,0:0:0:0:
160,192,130140,1,8,0:0:0:0:
96,192,130276,1,0,0:0:0:0:
352,192,130276,1,0,0:0:0:0:
480,192,130276,1,0,0:0:0:0:
96,192,130413,1,0,0:0:0:0:
288,192,130413,1,0,0:0:0:0:
416,192,130413,1,0,0:0:0:0:
96,192,130549,1,0,0:0:0:0:
352,192,130549,1,0,0:0:0:0:
480,192,130549,1,0,0:0:0:0:
160,192,130685,1,8,0:0:0:0:
288,192,130685,1,8,0:0:0:0:
416,192,130685,1,0,0:0:0:0:
96,192,130822,1,0,0:0:0:0:
352,192,130822,1,0,0:0:0:0:
480,192,130822,1,0,0:0:0:0:
96,192,130958,1,0,0:0:0:0:
352,192,130958,1,0,0:0:0:0:
480,192,130958,1,0,0:0:0:0:
96,192,131095,1,0,0:0:0:0:
480,192,131095,1,0,0:0:0:0:
288,192,131095,1,0,0:0:0:0:
160,192,131231,1,0,0:0:0:0:
288,192,131231,1,0,0:0:0:0:
416,192,131231,1,0,0:0:0:0:
416,192,131367,1,0,0:0:0:0:
96,192,131367,1,0,0:0:0:0:
480,192,131367,1,0,0:0:0:0:
160,192,131435,1,0,0:0:0:0:
352,192,131435,1,0,0:0:0:0:
96,192,131504,1,8,0:0:0:0:
224,192,131504,1,8,0:0:0:0:
480,192,131504,1,8,0:0:0:0:
288,192,131504,1,8,0:0:0:0:
416,192,131504,1,8,0:0:0:0:
288,192,131640,1,0,0:0:0:0:
96,192,131776,1,8,0:0:0:0:
160,192,131776,1,8,0:0:0:0:
352,192,131776,1,8,0:0:0:0:
416,192,131776,1,8,0:0:0:0:
480,192,131776,1,8,0:0:0:0:
352,192,131913,1,0,0:0:0:0:
96,192,132049,1,8,0:0:0:0:
160,192,132049,1,8,0:0:0:0:
416,192,132049,1,8,0:0:0:0:
288,192,132049,1,8,0:0:0:0:
480,192,132049,1,8,0:0:0:0:
160,192,132185,1,0,0:0:0:0:
96,192,132322,1,8,0:0:0:0:
224,192,132322,1,8,0:0:0:0:
288,192,132322,1,8,0:0:0:0:
416,192,132322,1,8,0:0:0:0:
480,192,132322,1,8,0:0:0:0:
416,192,132458,1,8,0:0:0:0:
288,192,132458,1,8,0:0:0:0:
224,192,132526,1,8,0:0:0:0:
352,192,132526,1,8,0:0:0:0:
160,192,132595,1,8,0:0:0:0:
288,192,132595,1,8,0:0:0:0:
288,192,132731,1,8,0:0:0:0:
160,192,132731,1,8,0:0:0:0:
416,192,132799,1,8,0:0:0:0:
224,192,132799,1,8,0:0:0:0:
352,192,132867,1,8,0:0:0:0:
96,192,132867,1,8,0:0:0:0:
96,192,133004,128,8,133276:0:0:0:0:
224,192,133004,128,8,133276:0:0:0:0:
352,192,133004,128,8,133276:0:0:0:0:
480,192,133004,128,8,133276:0:0:0:0:
160,192,133345,1,0,0:0:0:0:
288,192,133413,1,0,0:0:0:0:
224,192,133481,1,0,0:0:0:0:
352,192,133549,1,0,0:0:0:0:
288,192,133617,1,0,0:0:0:0:
416,192,133685,1,4,0:0:0:0:
96,192,133685,1,4,0:0:0:0:
160,192,133685,1,4,0:0:0:0:
480,192,133685,1,4,0:0:0:0:
32,192,133685,1,4,0:0:0:0:
