osu file format v12

[General]
AudioFilename: The Fairy's Adventurous Tale.mp3
AudioLeadIn: 1996
PreviewTime: 94345
Countdown: 0
SampleSet: None
StackLeniency: 0.6
Mode: 2
LetterboxInBreaks: 0

[Editor]
Bookmarks: 19617,112890,118685,119435
DistanceSpacing: 0.8
BeatDivisor: 4
GridSize: 4

[Metadata]
Title:The Fairy's Adventurous Tale
TitleUnicode:The Fairy's Adventurous Tale
Artist:Jun.A
ArtistUnicode:】
Creator:KanbeKotori
Version:Steven's Lunatic
Source:Touhou
Tags:Sound Sepher Fable Frank7654321 ignorethis Sagisawa-Yukari BakaHuang ZHSteven kiddly
BeatmapID:272496
BeatmapSetID:26480

[Difficulty]
HPDrainRate:5
CircleSize:4
OverallDifficulty:9
ApproachRate:9
SliderMultiplier:1.89999990463257
SliderTickRate:1

[Events]
//Background and Video events
0,0,"bg.jpg",0,0
//Break Periods
//Storyboard Layer 0 (Background)
//Storyboard Layer 1 (Fail)
//Storyboard Layer 2 (Pass)
//Storyboard Layer 3 (Foreground)
//Storyboard Sound Samples
//Background Colour Transformations
3,100,163,162,255

[TimingPoints]
595,272.727272727273,4,2,1,80,1,0
37685,-200,4,2,1,80,0,0
39867,-66.6666666666667,4,2,1,80,0,0
40788,-100,4,2,1,80,0,0
112958,-50,4,2,1,80,0,0
113231,-100,4,2,1,80,0,0
133413,-50,4,2,1,80,0,0

[Colours]
Combo1 : 184,14,69
Combo2 : 255,255,255
Combo3 : 12,0,238
Combo4 : 64,0,0

[HitObjects]
268,48,595,1,0,0:0:0:0:
372,48,867,1,0,0:0:0:0:
248,48,1140,1,0,0:0:0:0:
388,48,1413,1,0,0:0:0:0:
216,168,1549,1,0,0:0:0:0:
172,168,1617,1,0,0:0:0:0:
132,168,1685,5,4,0:0:0:0:
256,168,1822,1,8,0:0:0:0:
132,168,1958,1,0,0:0:0:0:
256,168,2095,1,2,0:0:0:0:
88,108,2231,1,8,0:0:0:0:
144,108,2367,1,0,0:0:0:0:
292,112,2504,1,0,0:0:0:0:
236,112,2640,1,2,0:0:0:0:
88,216,2776,6,0,L|280:216,1,189.999990463257,8|0,0:0|0:0,0:0:0:0:
460,208,3185,2,0,L|332:16,1,189.999990463257,8|0,0:0|0:0,0:0:0:0:
244,48,3595,1,0,0:0:0:0:
352,48,3731,1,0,0:0:0:0:
460,32,3867,5,4,0:0:0:0:
352,164,4004,1,8,0:0:0:0:
456,164,4140,1,0,0:0:0:0:
352,164,4277,1,2,0:0:0:0:
248,164,4413,1,8,0:0:0:0:
352,164,4549,1,0,0:0:0:0:
456,160,4686,1,0,0:0:0:0:
352,164,4822,1,2,0:0:0:0:
248,164,4958,6,0,L|404:8,1,189.999990463257,8|0,0:0|0:0,0:0:0:0:
240,20,5367,2,0,B|12:20,1,189.999990463257,8|0,0:0|0:0,0:0:0:0:
144,84,5776,1,0,0:0:0:0:
252,84,5913,1,2,0:0:0:0:
380,168,6049,5,4,0:0:0:0:
256,168,6186,1,8,0:0:0:0:
380,168,6322,1,0,0:0:0:0:
256,168,6459,1,2,0:0:0:0:
424,108,6595,1,8,0:0:0:0:
368,108,6731,1,0,0:0:0:0:
220,112,6868,1,0,0:0:0:0:
276,112,7004,1,2,0:0:0:0:
424,216,7140,6,0,L|232:216,1,189.999990463257,8|0,0:0|0:0,0:0:0:0:
52,208,7549,2,0,L|180:16,1,189.999990463257,8|0,0:0|0:0,0:0:0:0:
268,48,7959,1,0,0:0:0:0:
160,48,8095,1,0,0:0:0:0:
52,32,8231,5,4,0:0:0:0:
160,164,8368,1,8,0:0:0:0:
56,164,8504,1,0,0:0:0:0:
160,164,8641,1,2,0:0:0:0:
264,164,8777,1,8,0:0:0:0:
160,164,8913,1,0,0:0:0:0:
56,160,9050,1,0,0:0:0:0:
160,164,9186,1,2,0:0:0:0:
264,164,9322,6,0,L|108:8,1,189.999990463257,8|0,0:0|0:0,0:0:0:0:
264,164,9731,2,0,B|492:164,1,189.999990463257,8|0,0:0|0:0,0:0:0:0:
332,88,10140,1,0,0:0:0:0:
220,92,10277,1,2,0:0:0:0:
48,152,10413,5,4,0:0:0:0:
420,164,11504,5,2,0:0:0:0:
92,164,11776,1,2,0:0:0:0:
368,160,12049,5,0,0:0:0:0:
316,164,12185,1,0,0:0:0:0:
124,164,12322,1,8,0:0:0:0:
196,164,12458,1,0,0:0:0:0:
316,164,12595,5,4,0:0:0:0:
112,164,13685,1,2,0:0:0:0:
392,164,13957,1,2,0:0:0:0:
200,164,14230,1,0,0:0:0:0:
120,164,14366,1,0,0:0:0:0:
312,164,14503,1,8,0:0:0:0:
400,164,14639,1,0,0:0:0:0:
252,164,14776,5,8,0:0:0:0:
400,164,15049,1,0,0:0:0:0:
120,160,15322,1,8,0:0:0:0:
256,164,15458,1,0,0:0:0:0:
400,164,15595,1,8,0:0:0:0:
36,232,15868,5,8,0:0:0:0:
172,232,16005,1,0,0:0:0:0:
104,232,16141,1,8,0:0:0:0:
240,232,16276,2,0,L|16:232,1,189.999990463257
176,88,16685,1,8,0:0:0:0:
228,88,16754,1,0,0:0:0:0:
280,88,16823,1,8,0:0:0:0:
320,88,16890,1,0,0:0:0:0:
360,92,16959,6,0,L|428:200,1,94.9999952316285,8|8,0:0|0:0,0:0:0:0:
192,204,17231,1,8,0:0:0:0:
168,152,17299,1,0,0:0:0:0:
144,96,17367,1,8,0:0:0:0:
308,272,17504,5,8,0:0:0:0:
368,272,17572,1,0,0:0:0:0:
428,272,17640,1,8,0:0:0:0:
364,208,17708,1,0,0:0:0:0:
300,204,17776,5,8,0:0:0:0:
236,204,17844,1,8,0:0:0:0:
176,208,17912,1,8,0:0:0:0:
112,208,17981,1,8,0:0:0:0:
164,140,18049,2,0,L|272:140,1,94.9999952316285,8|8,0:0|0:0,0:0:0:0:
64,56,18322,1,8,0:0:0:0:
324,56,18458,6,0,B|56:60|56:60|256:120|256:120|64:144|64:144|368:156|368:156|460:228,1,1044.99994754791,4|0,0:0|0:0,0:0:0:0:
272,112,20095,1,0,0:0:0:0:
236,112,20163,1,0,0:0:0:0:
192,112,20231,6,0,L|112:32,2,94.9999952316285,8|0|0,0:0|0:0|0:0,0:0:0:0:
332,224,20640,6,0,B|192:232|192:232|124:184,1,189.999990463257,8|0,0:0|0:0,0:0:0:0:
24,208,21049,2,0,L|132:128,1,94.9999952316285,8|0,0:0|0:0,0:0:0:0:
260,284,21322,6,0,L|184:208,2,94.9999952316285,8|0|0,0:0|0:0|0:0,0:0:0:0:
96,232,21731,2,0,B|188:168|188:168|296:168,1,189.999990463257,8|0,0:0|0:0,0:0:0:0:
184,84,22140,1,8,0:0:0:0:
304,80,22276,1,0,0:0:0:0:
244,80,22345,1,0,0:0:0:0:
188,84,22413,6,0,L|48:244,2,189.999990463257,8|2|8,0:0|0:0|0:0,0:0:0:0:
304,84,23095,1,0,0:0:0:0:
180,84,23231,2,0,L|304:72,1,94.9999952316285,8|0,0:0|0:0,0:0:0:0:
372,64,23504,5,8,0:0:0:0:
220,80,23708,1,0,0:0:0:0:
160,80,23776,1,8,0:0:0:0:
284,80,23913,1,0,0:0:0:0:
168,184,24049,1,8,0:0:0:0:
280,180,24185,1,0,0:0:0:0:
408,176,24322,1,8,0:0:0:0:
312,96,24458,1,0,0:0:0:0:
168,184,24595,6,0,L|40:100,2,142.499992847443,4|8|8,0:0|0:0|0:0,0:0:0:0:
24,72,25140,2,0,L|152:28,1,94.9999952316285,8|0,0:0|0:0,0:0:0:0:
276,72,25413,2,0,L|148:28,1,94.9999952316285,8|0,0:0|0:0,0:0:0:0:
360,84,25685,6,0,L|360:196,1,94.9999952316285,8|0,0:0|0:0,0:0:0:0:
232,184,25958,1,0,0:0:0:0:
396,184,26095,2,0,L|180:188,1,189.999990463257,8|0,0:0|0:0,0:0:0:0:
352,184,26504,2,0,L|332:80,1,94.9999952316285,8|0,0:0|0:0,0:0:0:0:
160,176,26776,6,0,L|240:100,2,94.9999952316285,4|0|0,0:0|0:0|0:0,0:0:0:0:
336,256,27185,2,0,L|104:256,1,189.999990463257,8|0,0:0|0:0,0:0:0:0:
276,152,27595,1,0,0:0:0:0:
200,108,27731,2,0,L|280:60,1,47.4999976158143
296,64,27867,5,4,0:0:0:0:
116,60,28004,1,2,0:0:0:0:
64,184,28140,1,8,0:0:0:0:
256,180,28276,2,0,B|20:184,1,189.999990463257,4|0,0:0|0:0,0:0:0:0:
200,296,28685,1,8,0:0:0:0:
12,260,28822,1,0,0:0:0:0:
44,260,28890,1,0,0:0:0:0:
80,260,28958,6,0,B|144:160|144:160|256:160,1,189.999990463257,4|0,0:0|0:0,0:0:0:0:
124,72,29367,2,0,B|216:72|216:72|288:144,1,189.999990463257,8|0,0:0|0:0,0:0:0:0:
120,168,29776,2,0,L|236:168,1,94.9999952316285,8|0,0:0|0:0,0:0:0:0:
384,276,30049,6,0,B|320:176|320:176|208:176,1,189.999990463257,8|0,0:0|0:0,0:0:0:0:
328,96,30458,2,0,B|236:96|236:96|164:168,1,189.999990463257,8|0,0:0|0:0,0:0:0:0:
332,168,30867,1,8,0:0:0:0:
176,184,31004,1,0,0:0:0:0:
228,184,31072,1,0,0:0:0:0:
276,180,31140,6,0,B|372:108|456:184,2,189.999990463257,8|2|8,0:0|0:0|0:0,0:0:0:0:
132,148,31822,1,0,0:0:0:0:
272,128,31958,2,0,L|164:72,1,94.9999952316285,8|0,0:0|0:0,0:0:0:0:
40,96,32231,5,8,0:0:0:0:
188,64,32367,1,0,0:0:0:0:
236,64,32435,1,0,0:0:0:0:
188,64,32504,1,2,0:0:0:0:
40,96,32640,1,0,0:0:0:0:
196,180,32776,1,8,0:0:0:0:
256,176,32913,1,2,0:0:0:0:
428,184,33049,1,8,0:0:0:0:
372,184,33185,1,2,0:0:0:0:
196,180,33322,6,0,L|288:264,3,94.9999952316285,4|0|8|0,0:0|0:0|0:0|0:0,0:0:0:0:
428,184,33867,2,0,L|356:272,1,94.9999952316285,8|0,0:0|0:0,0:0:0:0:
196,180,34140,2,0,L|216:296,1,94.9999952316285,10|0,0:0|0:0,0:0:0:0:
68,176,34413,6,0,L|184:176,2,94.9999952316285,8|0|2,0:0|0:0|0:0,0:0:0:0:
276,96,34822,2,0,L|140:256,1,189.999990463257,8|0,0:0|0:0,0:0:0:0:
416,216,35231,1,8,0:0:0:0:
240,232,35367,1,0,0:0:0:0:
240,232,35435,1,0,0:0:0:0:
240,232,35504,6,0,L|344:172,1,94.9999952316285,4|0,0:0|0:0,0:0:0:0:
208,132,35776,1,0,0:0:0:0:
412,144,35913,2,0,L|244:28,1,189.999990463257,8|0,0:0|0:0,0:0:0:0:
80,156,36322,2,0,L|208:164,1,94.9999952316285,8|0,0:0|0:0,0:0:0:0:
64,92,36595,2,0,L|12:100,2,47.4999976158143,8|0|0,0:0|0:0|0:0,0:0:0:0:
236,84,36867,1,0,0:0:0:0:
112,260,37004,2,0,L|304:184,1,189.999990463257,8|0,0:0|0:0,0:0:0:0:
152,160,37413,1,8,0:0:0:0:
264,104,37549,1,8,0:0:0:0:
392,152,37685,6,0,L|284:152,1,94.9999952316285,4|0,0:0|0:0,0:0:0:0:
136,260,38231,1,8,0:0:0:0:
344,256,38504,1,8,0:0:0:0:
96,160,38776,6,2,L|192:160,1,94.9999952316285,2|0,0:0|0:0,0:0:0:0:
300,164,39185,1,0,0:0:0:0:
192,256,39322,1,2,0:0:0:0:
268,180,39526,1,2,0:0:0:0:
400,112,39731,1,10,0:0:0:0:
232,64,39867,6,0,B|232:176|232:176|396:176|396:176|44:176|44:176|232:176|232:176|160:176|160:176|160:192,1,854.999989700318,8|0,0:0|0:0,0:0:0:0:
296,88,40958,6,0,L|372:152,1,94.9999952316285,2|0,0:0|0:0,0:0:0:0:
216,92,41231,2,0,L|288:154,1,94.9999952316285,2|0,0:0|0:0,0:0:0:0:
152,92,41504,1,2,0:0:0:0:
316,256,41640,1,2,0:0:0:0:
264,256,41708,1,0,0:0:0:0:
216,256,41776,1,2,0:0:0:0:
368,256,41913,1,2,0:0:0:0:
156,64,42049,6,0,L|156:176,1,94.9999952316285,4|0,0:0|0:0,0:0:0:0:
344,52,42322,1,8,0:0:0:0:
216,68,42458,1,0,0:0:0:0:
376,180,42595,2,8,L|296:100,1,94.9999952316285,8|0,0:0|0:0,0:0:0:0:
132,176,42867,2,0,L|220:88,1,94.9999952316285,8|0,0:0|0:0,0:0:0:0:
376,176,43140,5,8,0:0:0:0:
236,176,43276,1,0,0:0:0:0:
280,176,43344,1,0,0:0:0:0:
236,176,43413,1,0,0:0:0:0:
128,176,43549,1,0,0:0:0:0:
312,100,43685,2,0,L|396:188,1,94.9999952316285,8|0,0:0|0:0,0:0:0:0:
144,96,43958,2,0,L|72:184,1,94.9999952316285,8|8,0:0|0:0,0:0:0:0:
376,232,44231,5,4,0:0:0:0:
320,236,44299,1,0,0:0:0:0:
264,236,44367,1,0,0:0:0:0:
208,240,44435,1,0,0:0:0:0:
152,240,44504,1,0,0:0:0:0:
320,144,44640,2,0,L|112:64,1,189.999990463257,8|0,0:0|0:0,0:0:0:0:
336,64,45049,2,0,L|336:188,1,94.9999952316285
108,240,45322,6,0,L|204:176,1,94.9999952316285,2|0,0:0|0:0,0:0:0:0:
340,244,45595,2,0,L|248:168,1,94.9999952316285,2|0,0:0|0:0,0:0:0:0:
112,240,45867,1,2,0:0:0:0:
300,240,46004,1,2,0:0:0:0:
248,240,46072,1,0,0:0:0:0:
200,240,46140,1,2,0:0:0:0:
48,232,46276,1,2,0:0:0:0:
176,132,46413,6,0,B|231:209|231:209|312:120,1,189.999990463257,4|0,0:0|0:0,0:0:0:0:
348,128,46958,1,2,0:0:0:0:
112,124,47231,1,2,0:0:0:0:
412,128,47504,6,0,B|348:200|348:200|280:132|280:132,1,189.999990463257,2|0,0:0|0:0,0:0:0:0:
192,132,47913,1,0,0:0:0:0:
112,128,48049,2,0,L|220:264,2,142.499992847443,2|0|2,0:0|0:0|0:0,0:0:0:0:
420,128,48595,6,0,L|196:124,3,189.999990463257,8|0|8|0,0:0|0:0|0:0|0:0,0:0:0:0:
420,128,49685,6,0,L|356:220,1,94.9999952316285,2|0,0:0|0:0,0:0:0:0:
212,120,49958,2,0,L|276:212,1,94.9999952316285,2|0,0:0|0:0,0:0:0:0:
332,96,50231,1,2,0:0:0:0:
160,104,50367,1,2,0:0:0:0:
244,100,50435,1,0,0:0:0:0:
244,100,50504,1,2,0:0:0:0:
72,112,50640,1,2,0:0:0:0:
200,168,50776,5,4,0:0:0:0:
332,184,50913,2,0,L|220:192,2,94.9999952316285
156,252,51322,2,0,L|284:208,1,94.9999952316285,8|0,0:0|0:0,0:0:0:0:
76,232,51595,2,0,L|20:124,1,94.9999952316285,8|0,0:0|0:0,0:0:0:0:
276,160,51867,6,0,L|184:100,1,94.9999952316285,8|0,0:0|0:0,0:0:0:0:
348,92,52140,1,0,0:0:0:0:
192,96,52276,2,0,P|275:89|348:176,1,189.999990463257,4|0,0:0|0:0,0:0:0:0:
128,96,52685,2,0,L|60:184,1,94.9999952316285,4|0,0:0|0:0,0:0:0:0:
408,88,52958,5,4,0:0:0:0:
256,192,53095,12,0,53913,0:0:0:0:
144,132,54049,6,0,L|256:96,1,94.9999952316285,8|0,0:0|0:0,0:0:0:0:
344,160,54322,2,0,L|248:100,1,94.9999952316285,8|0,0:0|0:0,0:0:0:0:
144,204,54595,2,0,L|144:76,1,94.9999952316285,2|0,0:0|0:0,0:0:0:0:
380,88,54867,1,2,0:0:0:0:
168,136,55004,5,0,0:0:0:0:
220,136,55072,1,0,0:0:0:0:
264,136,55140,1,4,0:0:0:0:
256,192,55276,12,0,55958,0:0:0:0:
328,152,56095,5,0,0:0:0:0:
264,152,56164,1,0,0:0:0:0:
200,148,56232,1,4,0:0:0:0:
404,156,56367,6,0,L|404:268,1,94.9999952316285
104,256,56640,6,0,L|332:240,1,189.999990463257,4|0,0:0|0:0,0:0:0:0:
56,136,57049,1,0,0:0:0:0:
280,80,57185,5,0,0:0:0:0:
276,76,57254,1,0,0:0:0:0:
280,80,57322,2,0,L|400:84,2,94.9999952316285,4|0|0,0:0|0:0|0:0,0:0:0:0:
156,84,57731,2,0,B|236:108|236:108|308:196,1,189.999990463257,8|0,0:0|0:0,0:0:0:0:
136,156,58140,2,0,L|224:204,1,94.9999952316285,8|0,0:0|0:0,0:0:0:0:
64,156,58413,6,0,L|64:52,1,94.9999952316285,8|0,0:0|0:0,0:0:0:0:
208,68,58685,1,0,0:0:0:0:
360,72,58822,2,0,B|280:96|280:96|208:184,1,189.999990463257,8|0,0:0|0:0,0:0:0:0:
396,208,59231,1,8,0:0:0:0:
232,208,59367,1,0,0:0:0:0:
232,208,59435,1,0,0:0:0:0:
232,208,59504,6,0,L|336:140,1,94.9999952316285,8|0,0:0|0:0,0:0:0:0:
184,132,59776,1,0,0:0:0:0:
356,136,59913,1,0,0:0:0:0:
292,128,60185,1,0,0:0:0:0:
116,64,60322,2,0,L|204:156,1,94.9999952316285,8|0,0:0|0:0,0:0:0:0:
356,136,60595,5,8,0:0:0:0:
120,144,60867,1,0,0:0:0:0:
356,136,61140,1,8,0:0:0:0:
252,160,61276,1,0,0:0:0:0:
252,160,61345,1,0,0:0:0:0:
256,160,61413,1,8,0:0:0:0:
92,152,61549,1,0,0:0:0:0:
324,160,61685,6,0,L|228:104,1,94.9999952316285,8|0,0:0|0:0,0:0:0:0:
112,252,61958,1,0,0:0:0:0:
280,256,62095,1,0,0:0:0:0:
148,256,62231,2,0,L|148:156,1,94.9999952316285,8|0,0:0|0:0,0:0:0:0:
328,136,62504,2,0,L|220:136,1,94.9999952316285,8|0,0:0|0:0,0:0:0:0:
376,192,62776,6,0,L|300:200,2,47.4999976158143,8|0|0,0:0|0:0|0:0,0:0:0:0:
492,192,63049,1,0,0:0:0:0:
352,196,63185,2,0,B|282:178|282:178|192:72,1,189.999990463257,8|0,0:0|0:0,0:0:0:0:
80,60,63595,1,8,0:0:0:0:
256,64,63731,1,0,0:0:0:0:
136,68,63867,6,0,L|44:156,2,94.9999952316285,8|0|0,0:0|0:0|0:0,0:0:0:0:
320,184,64276,2,0,B|320:64|320:64|136:68,1,284.999985694885,8|0,0:0|0:0,0:0:0:0:
272,132,64822,6,0,L|320:108,1,47.4999976158143
360,80,64958,1,4,0:0:0:0:
176,100,65095,1,0,0:0:0:0:
488,80,65367,2,0,B|490:194|220:192,1,284.999985694885,4|0,0:0|0:0,0:0:0:0:
40,168,65913,2,0,L|112:168,1,47.4999976158143
160,168,66049,6,0,L|284:100,1,94.9999952316285,4|0,0:0|0:0,0:0:0:0:
124,76,66322,1,0,0:0:0:0:
320,200,66458,2,0,B|232:184|232:184|108:176,1,189.999990463257,8|0,0:0|0:0,0:0:0:0:
276,84,66867,2,0,L|188:156,1,94.9999952316285,8|0,0:0|0:0,0:0:0:0:
352,168,67140,6,0,L|228:100,1,94.9999952316285,8|0,0:0|0:0,0:0:0:0:
388,76,67413,1,0,0:0:0:0:
160,204,67549,2,0,B|248:188|248:188|372:180,1,189.999990463257,8|0,0:0|0:0,0:0:0:0:
236,84,67958,1,0,0:0:0:0:
64,144,68095,2,0,L|136:112,1,47.4999976158143
172,96,68231,6,0,L|300:56,2,94.9999952316285,8|0|0,0:0|0:0|0:0,0:0:0:0:
440,132,68640,2,0,L|280:276,1,189.999990463257,8|0,0:0|0:0,0:0:0:0:
96,144,69049,2,0,L|228:140,1,94.9999952316285,8|0,0:0|0:0,0:0:0:0:
44,212,69322,1,0,0:0:0:0:
388,224,69595,1,8,0:0:0:0:
28,224,69867,2,0,L|120:148,1,94.9999952316285
252,232,70140,2,0,L|176:144,1,94.9999952316285,8|0,0:0|0:0,0:0:0:0:
376,196,70413,6,0,L|288:140,3,94.9999952316285,4|0|0|0,0:0|0:0|0:0|0:0,0:0:0:0:
152,172,70958,2,0,L|88:88,1,94.9999952316285,8|0,0:0|0:0,0:0:0:0:
248,168,71231,2,0,L|316:72,1,94.9999952316285,8|0,0:0|0:0,0:0:0:0:
64,180,71504,6,0,L|144:124,1,94.9999952316285,4|0,0:0|0:0,0:0:0:0:
64,184,71776,1,0,0:0:0:0:
240,256,71913,2,0,L|60:184,1,189.999990463257,8|0,0:0|0:0,0:0:0:0:
336,140,72322,2,0,L|284:44,1,94.9999952316285,8|0,0:0|0:0,0:0:0:0:
20,124,72595,6,0,L|88:44,2,94.9999952316285,4|0|0,0:0|0:0|0:0,0:0:0:0:
168,224,73072,2,0,L|40:80,1,189.999990463257,8|0,0:0|0:0,0:0:0:0:
276,64,73413,1,0,0:0:0:0:
128,64,73549,1,0,0:0:0:0:
180,64,73617,1,0,0:0:0:0:
236,64,73685,5,8,0:0:0:0:
352,68,73822,1,0,0:0:0:0:
236,64,73958,1,0,0:0:0:0:
432,104,74095,2,0,L|280:252,1,189.999990463257,8|0,0:0|0:0,0:0:0:0:
232,240,74435,1,0,0:0:0:0:
296,236,74504,1,8,0:0:0:0:
368,240,74572,1,0,0:0:0:0:
304,168,74640,1,8,0:0:0:0:
240,168,74708,1,0,0:0:0:0:
184,136,74776,6,0,L|80:224,3,94.9999952316285,4|0|0|0,0:0|0:0|0:0|0:0,0:0:0:0:
268,136,75322,2,0,L|352:240,1,94.9999952316285,2|0,0:0|0:0,0:0:0:0:
140,136,75595,2,0,L|140:244,1,94.9999952316285,2|0,0:0|0:0,0:0:0:0:
332,232,75867,6,0,L|228:312,1,94.9999952316285,2|0,0:0|0:0,0:0:0:0:
128,156,76140,1,0,0:0:0:0:
216,224,76276,1,0,0:0:0:0:
80,228,76413,2,0,L|216:148,1,142.499992847443,2|0,0:0|0:0,0:0:0:0:
280,124,76685,1,2,0:0:0:0:
404,40,76822,1,0,0:0:0:0:
212,40,76958,6,0,L|408:40,3,189.999990463257,2|0|0|0,0:0|0:0|0:0|0:0,0:0:0:0:
160,152,78049,2,0,L|232:240,1,94.9999952316285,2|0,0:0|0:0,0:0:0:0:
372,148,78322,2,0,L|292:244,1,94.9999952316285,2|0,0:0|0:0,0:0:0:0:
224,100,78595,1,2,0:0:0:0:
332,96,78731,1,2,0:0:0:0:
196,144,78867,1,2,0:0:0:0:
368,144,79004,1,2,0:0:0:0:
200,144,79140,6,0,L|108:236,3,94.9999952316285,4|0|0|0,0:0|0:0|0:0|0:0,0:0:0:0:
288,144,79685,2,0,L|368:240,1,94.9999952316285,2|0,0:0|0:0,0:0:0:0:
216,144,79958,2,0,L|144:224,1,94.9999952316285,2|0,0:0|0:0,0:0:0:0:
340,116,80231,6,0,L|340:220,1,94.9999952316285,2|0,0:0|0:0,0:0:0:0:
160,120,80504,2,0,L|160:224,1,94.9999952316285
344,208,80776,2,0,L|268:132,1,94.9999952316285,2|0,0:0|0:0,0:0:0:0:
48,208,81049,2,0,L|124:132,1,94.9999952316285,2|0,0:0|0:0,0:0:0:0:
408,208,81322,5,2,0:0:0:0:
256,196,81458,1,0,0:0:0:0:
88,208,81595,1,0,0:0:0:0:
256,264,81731,2,0,L|60:264,1,189.999990463257,2|0,0:0|0:0,0:0:0:0:
328,264,82140,1,0,0:0:0:0:
76,120,82413,6,0,L|-12:184,1,94.9999952316285,2|0,0:0|0:0,0:0:0:0:
144,120,82685,2,0,L|56:184,1,94.9999952316285,2|0,0:0|0:0,0:0:0:0:
208,120,82958,1,8,0:0:0:0:
76,48,83095,1,2,0:0:0:0:
128,48,83163,1,0,0:0:0:0:
180,48,83231,1,2,0:0:0:0:
232,48,83299,1,0,0:0:0:0:
284,48,83367,1,2,0:0:0:0:
336,48,83435,1,0,0:0:0:0:
388,48,83504,6,0,L|300:136,1,94.9999952316285,4|0,0:0|0:0,0:0:0:0:
180,48,83776,2,0,L|276:144,1,94.9999952316285,2|0,0:0|0:0,0:0:0:0:
388,140,84049,1,2,0:0:0:0:
244,140,84185,1,0,0:0:0:0:
388,140,84322,1,2,0:0:0:0:
112,144,84595,6,0,L|28:60,1,94.9999952316285,2|0,0:0|0:0,0:0:0:0:
236,140,84867,2,0,L|324:52,1,94.9999952316285,2|0,0:0|0:0,0:0:0:0:
132,144,85140,2,0,L|312:144,1,142.499992847443,2|0,0:0|0:0,0:0:0:0:
160,188,85413,2,0,L|160:92,1,94.9999952316285
352,152,85685,6,0,L|128:152,3,189.999990463257,2|0|0|0,0:0|0:0|0:0|0:0,0:0:0:0:
428,88,86776,2,0,L|360:188,1,94.9999952316285,2|0,0:0|0:0,0:0:0:0:
184,80,87049,2,0,L|248:168,1,94.9999952316285,2|0,0:0|0:0,0:0:0:0:
428,88,87322,1,8,0:0:0:0:
164,84,87458,1,0,0:0:0:0:
208,80,87526,1,0,0:0:0:0:
256,80,87595,1,0,0:0:0:0:
312,80,87663,1,0,0:0:0:0:
368,84,87731,1,0,0:0:0:0:
164,84,87867,6,0,L|96:172,1,94.9999952316285,2|0,0:0|0:0,0:0:0:0:
256,80,88140,2,0,L|328:168,1,94.9999952316285
149,154,88413,2,0,L|209:80,1,94.9999952316285,2|0,0:0|0:0,0:0:0:0:
360,160,88686,2,0,L|301:84,1,94.9999952316285,2|0,0:0|0:0,0:0:0:0:
144,160,88958,5,4,0:0:0:0:
356,164,89095,1,0,0:0:0:0:
356,164,89163,1,0,0:0:0:0:
356,164,89231,1,0,0:0:0:0:
144,160,89367,2,0,L|344:160,1,189.999990463257,4|0,0:0|0:0,0:0:0:0:
64,164,89776,1,2,0:0:0:0:
428,164,90049,5,4,0:0:0:0:
256,192,90322,12,0,91958,0:0:0:0:
244,176,92095,5,2,0:0:0:0:
244,176,92163,1,2,0:0:0:0:
244,176,92231,1,2,0:0:0:0:
256,192,92367,12,0,93049,0:0:0:0:
368,172,93185,5,0,0:0:0:0:
368,172,93254,1,0,0:0:0:0:
368,172,93322,1,4,0:0:0:0:
196,176,93458,1,0,0:0:0:0:
368,172,93595,1,0,0:0:0:0:
200,176,93731,2,0,L|400:176,1,189.999990463257,4|0,0:0|0:0,0:0:0:0:
120,176,94140,1,0,0:0:0:0:
460,80,94413,5,0,0:0:0:0:
220,116,94685,2,0,L|64:240,1,189.999990463257,8|0,0:0|0:0,0:0:0:0:
248,184,95095,1,0,0:0:0:0:
128,128,95231,1,0,0:0:0:0:
248,184,95367,1,0,0:0:0:0:
68,276,95504,6,0,L|236:160,1,189.999990463257,8|0,0:0|0:0,0:0:0:0:
356,288,95913,2,0,L|168:216,1,189.999990463257,8|0,0:0|0:0,0:0:0:0:
312,180,96322,1,0,0:0:0:0:
156,144,96458,2,0,L|348:84,1,189.999990463257,8|0,0:0|0:0,0:0:0:0:
200,200,96867,5,0,0:0:0:0:
304,200,97004,1,0,0:0:0:0:
408,208,97140,1,8,0:0:0:0:
200,200,97276,1,8,0:0:0:0:
84,124,97413,1,0,0:0:0:0:
188,64,97549,1,0,0:0:0:0:
316,76,97685,5,8,0:0:0:0:
160,128,97822,1,0,0:0:0:0:
160,128,97890,1,0,0:0:0:0:
160,128,97958,1,0,0:0:0:0:
320,76,98095,2,0,L|400:172,1,94.9999952316285,8|0,0:0|0:0,0:0:0:0:
284,164,98367,1,0,0:0:0:0:
144,76,98504,1,8,0:0:0:0:
376,56,98640,1,0,0:0:0:0:
104,220,98776,6,0,L|264:100,1,189.999990463257,4|0,0:0|0:0,0:0:0:0:
388,156,99185,2,0,L|216:252,1,189.999990463257,2|0,0:0|0:0,0:0:0:0:
360,280,99595,1,0,0:0:0:0:
164,240,99731,2,0,L|324:168,1,142.499992847443,8|0,0:0|0:0,0:0:0:0:
360,96,100140,1,0,0:0:0:0:
180,112,100276,1,0,0:0:0:0:
40,228,100413,2,0,L|224:176,1,189.999990463257,8|0,0:0|0:0,0:0:0:0:
48,144,100822,1,0,0:0:0:0:
304,144,101026,5,2,0:0:0:0:
248,188,101095,1,2,0:0:0:0:
104,188,101231,1,0,0:0:0:0:
248,188,101367,1,2,0:0:0:0:
156,184,101504,2,0,L|228:288,1,94.9999952316285
96,192,101776,2,2,L|-24:192,1,94.9999952316285
192,128,102049,6,0,L|120:212,1,94.9999952316285
204,64,102322,1,2,0:0:0:0:
372,36,102458,1,2,0:0:0:0:
208,64,102595,2,0,L|276:144,1,94.9999952316285
372,36,102867,2,0,L|284:92,1,94.9999952316285,2|0,0:0|0:0,0:0:0:0:
144,32,103140,1,4,0:0:0:0:
372,36,103413,6,0,L|172:36,1,189.999990463257,2|0,0:0|0:0,0:0:0:0:
308,120,103822,1,0,0:0:0:0:
56,128,104095,2,0,L|268:124,1,189.999990463257,2|0,0:0|0:0,0:0:0:0:
80,220,104504,1,0,0:0:0:0:
264,184,104640,1,0,0:0:0:0:
428,116,104776,2,0,L|220:108,1,189.999990463257,2|0,0:0|0:0,0:0:0:0:
360,56,105185,1,0,0:0:0:0:
52,44,105458,6,0,L|180:48,2,94.9999952316285,2|0|0,0:0|0:0|0:0,0:0:0:0:
240,136,105867,2,0,L|148:188,1,94.9999952316285
332,144,106140,2,0,L|224:224,1,94.9999952316285,2|2,0:0|0:0,0:0:0:0:
88,144,106413,2,0,L|192:208,1,94.9999952316285
328,144,106685,2,0,L|248:216,1,94.9999952316285,2|0,0:0|0:0,0:0:0:0:
412,160,106958,6,0,L|324:236,1,94.9999952316285
156,156,107231,2,2,L|264:148,1,94.9999952316285
28,168,107504,1,0,0:0:0:0:
452,96,107776,2,0,L|312:256,1,189.999990463257,2|0,0:0|0:0,0:0:0:0:
140,224,108185,2,0,L|348:240,1,189.999990463257,2|0,0:0|0:0,0:0:0:0:
140,224,108595,6,0,L|16:72,1,189.999990463257,8|0,0:0|0:0,0:0:0:0:
216,84,109004,2,0,L|89:225,1,189.999990463257,8|0,0:0|0:0,0:0:0:0:
312,192,109413,1,0,0:0:0:0:
412,176,109549,1,0,0:0:0:0:
320,84,109685,6,0,L|516:84,1,189.999990463257,4|0,0:0|0:0,0:0:0:0:
192,84,110231,2,0,L|-4:84,1,189.999990463257,8|0,0:0|0:0,0:0:0:0:
192,164,110640,1,0,0:0:0:0:
2,84,110776,2,0,L|192:84,1,189.999990463257,4|0,0:0|0:0,0:0:0:0:
510,84,111322,2,0,L|320:84,1,189.999990463257,8|0,0:0|0:0,0:0:0:0:
452,248,111731,6,0,L|392:248,1,47.4999976158143,0|0,0:0|0:0,0:0:0:0:
336,328,111867,5,2,0:0:0:0:
400,328,111958,2,0,L|312:328,1,63.333330154419
256,328,112140,5,2,0:0:0:0:
336,248,112231,2,0,L|268:248,1,63.333330154419
168,248,112413,5,2,0:0:0:0:
252,164,112504,2,0,L|180:164,1,63.333330154419,2|0,0:0|0:0,0:0:0:0:
52,164,112685,5,10,0:0:0:0:
144,88,112776,2,0,L|56:88,1,63.333330154419,2|0,0:0|0:0,0:0:0:0:
0,88,112958,5,4,0:0:0:0:
256,80,113095,1,2,0:0:0:0:
512,80,113231,1,2,0:0:0:0:
332,80,113367,2,0,L|332:300,1,189.999990463257,4|0,0:0|0:0,0:0:0:0:
180,156,113776,2,0,L|312:156,1,94.9999952316285,4|0,0:0|0:0,0:0:0:0:
84,156,114049,5,4,0:0:0:0:
244,88,114185,2,0,L|172:88,2,47.4999976158143
388,88,114458,1,0,0:0:0:0:
212,152,114595,2,0,L|272:256,1,94.9999952316285,8|0,0:0|0:0,0:0:0:0:
424,148,114867,2,0,L|332:200,1,94.9999952316285,8|0,0:0|0:0,0:0:0:0:
116,96,115140,5,8,0:0:0:0:
252,84,115276,2,0,L|299:84,2,47.4999976158143
120,96,115549,1,0,0:0:0:0:
292,156,115685,5,8,0:0:0:0:
224,156,115776,1,0,0:0:0:0:
156,156,115867,1,0,0:0:0:0:
296,224,115958,1,8,0:0:0:0:
204,228,116049,1,0,0:0:0:0:
104,232,116140,1,0,0:0:0:0:
296,296,116231,5,8,0:0:0:0:
144,300,116367,2,0,L|216:300,2,47.4999976158143,0|0|8,0:0|0:0|0:0,0:0:0:0:
296,296,116640,2,0,L|232:296,1,47.4999976158143,0|0,0:0|0:0,0:0:0:0:
200,296,116776,1,8,0:0:0:0:
320,240,116913,1,0,0:0:0:0:
152,240,117049,1,8,0:0:0:0:
40,128,117185,1,8,0:0:0:0:
236,192,117322,6,0,L|128:156,1,94.9999952316285,8|0,0:0|0:0,0:0:0:0:
304,188,117595,2,0,L|236:104,1,94.9999952316285,8|0,0:0|0:0,0:0:0:0:
376,192,117867,1,8,0:0:0:0:
236,260,118004,1,0,0:0:0:0:
236,328,118072,1,0,0:0:0:0:
340,328,118140,1,8,0:0:0:0:
164,328,118276,1,8,0:0:0:0:
332,144,118413,6,0,L|244:56,1,94.9999952316285,4|0,0:0|0:0,0:0:0:0:
432,72,118685,1,0,0:0:0:0:
432,148,118822,1,0,0:0:0:0:
264,80,118958,2,0,L|336:152,1,94.9999952316285,8|0,0:0|0:0,0:0:0:0:
152,76,119231,2,0,L|72:156,1,94.9999952316285,8|0,0:0|0:0,0:0:0:0:
260,80,119504,6,0,L|340:160,1,94.9999952316285,2|0,0:0|0:0,0:0:0:0:
152,76,119776,1,0,0:0:0:0:
152,80,119913,1,0,0:0:0:0:
328,144,120049,2,0,L|256:72,1,94.9999952316285,8|0,0:0|0:0,0:0:0:0:
40,144,120322,2,0,L|112:72,1,94.9999952316285,8|8,0:0|0:0,0:0:0:0:
340,288,120595,6,0,L|204:288,1,94.9999952316285,2|0,0:0|0:0,0:0:0:0:
404,288,120867,1,0,0:0:0:0:
152,288,121004,2,0,L|348:288,1,189.999990463257,8|0,0:0|0:0,0:0:0:0:
192,216,121413,1,0,0:0:0:0:
396,220,121685,6,0,L|396:120,1,94.9999952316285,8|0,0:0|0:0,0:0:0:0:
116,220,121958,2,0,L|116:96,1,94.9999952316285,8|0,0:0|0:0,0:0:0:0:
400,144,122231,1,0,0:0:0:0:
112,144,122367,1,0,0:0:0:0:
160,144,122436,1,0,0:0:0:0:
212,144,122504,1,8,0:0:0:0:
260,144,122573,1,0,0:0:0:0:
316,144,122640,1,0,0:0:0:0:
104,72,122776,6,0,L|220:72,1,94.9999952316285,4|0,0:0|0:0,0:0:0:0:
24,80,123049,1,0,0:0:0:0:
24,80,123185,1,0,0:0:0:0:
200,204,123322,2,0,L|84:204,1,94.9999952316285,8|0,0:0|0:0,0:0:0:0:
284,204,123595,2,0,L|400:204,1,94.9999952316285,8|0,0:0|0:0,0:0:0:0:
104,284,123867,6,0,L|220:284,1,94.9999952316285,2|0,0:0|0:0,0:0:0:0:
368,284,124140,1,0,0:0:0:0:
368,284,124276,1,0,0:0:0:0:
200,280,124413,2,0,L|295:280,1,94.9999952316285,8|0,0:0|0:0,0:0:0:0:
412,280,124617,2,0,L|304:280,1,94.9999952316285
196,276,124822,1,0,0:0:0:0:
428,112,124958,6,0,L|236:112,3,189.999990463257,8|0|0|0,0:0|0:0|0:0|0:0,0:0:0:0:
424,196,126049,5,2,0:0:0:0:
236,196,126185,1,0,0:0:0:0:
300,196,126254,1,0,0:0:0:0:
364,196,126322,1,8,0:0:0:0:
172,116,126458,1,0,0:0:0:0:
236,116,126527,1,0,0:0:0:0:
300,116,126595,1,8,0:0:0:0:
112,116,126731,1,8,0:0:0:0:
304,44,126867,1,0,0:0:0:0:
236,44,126935,1,0,0:0:0:0:
172,44,127004,1,0,0:0:0:0:
108,44,127072,1,0,0:0:0:0:
44,44,127140,6,0,L|180:44,1,94.9999952316285,8|0,0:0|0:0,0:0:0:0:
372,52,127413,1,8,0:0:0:0:
236,44,127549,2,0,L|172:44,2,47.4999976158143,0|0|8,0:0|0:0|0:0,0:0:0:0:
372,52,127822,1,8,0:0:0:0:
112,188,127958,1,0,0:0:0:0:
160,188,128026,1,0,0:0:0:0:
204,188,128095,1,0,0:0:0:0:
252,188,128163,1,0,0:0:0:0:
304,188,128231,6,0,L|208:188,1,94.9999952316285,8|0,0:0|0:0,0:0:0:0:
380,136,128504,1,8,0:0:0:0:
208,132,128640,1,0,0:0:0:0:
272,140,128708,1,0,0:0:0:0:
332,136,128776,1,8,0:0:0:0:
140,132,128913,1,8,0:0:0:0:
420,56,129049,1,2,0:0:0:0:
338,53,129117,1,2,0:0:0:0:
256,56,129185,1,2,0:0:0:0:
177,52,129254,1,2,0:0:0:0:
104,52,129322,5,12,0:0:0:0:
256,192,129595,12,0,131095,0:0:0:0:
200,224,131367,5,8,0:0:0:0:
256,264,131435,1,8,0:0:0:0:
312,220,131504,1,4,0:0:0:0:
256,192,131640,12,0,132322,0:0:0:0:
312,220,132458,5,0,0:0:0:0:
256,264,132526,1,0,0:0:0:0:
200,224,132595,1,4,0:0:0:0:
368,176,132731,1,0,0:0:0:0:
144,180,132867,1,0,0:0:0:0:
416,128,133004,2,0,L|216:128,1,189.999990463257,4|0,0:0|0:0,0:0:0:0:
92,128,133413,1,8,0:0:0:0:
392,92,133549,1,8,0:0:0:0:
92,128,133685,1,4,0:0:0:0:
