osu file format v12

[General]
AudioFilename: The Fairy's Adventurous Tale.mp3
AudioLeadIn: 1996
PreviewTime: 94345
Countdown: 0
SampleSet: Soft
StackLeniency: 0.6
Mode: 0
LetterboxInBreaks: 0

[Editor]
Bookmarks: 118685
DistanceSpacing: 1
BeatDivisor: 4
GridSize: 8

[Metadata]
Title:The Fairy's Adventurous Tale
TitleUnicode:The Fairy's Adventurous Tale
Artist:Jun.A
ArtistUnicode:Jun.A
Creator:KanbeKotori
Version:Extra
Source:Touhou
Tags:Sound Sepher Fable Frank7654321 ignorethis Sagisawa-Yukari BakaHuang ZHSteven kiddly
BeatmapID:89229
BeatmapSetID:26480

[Difficulty]
HPDrainRate:8
CircleSize:4
OverallDifficulty:8
ApproachRate:9
SliderMultiplier:1.8
SliderTickRate:1

[Events]
//Background and Video events
0,0,"bg.jpg",0,0
//Break Periods
//Storyboard Layer 0 (Background)
//Storyboard Layer 1 (Fail)
//Storyboard Layer 2 (Pass)
//Storyboard Layer 3 (Foreground)
//Storyboard Sound Samples
//Background Colour Transformations
3,100,163,162,255

[TimingPoints]
595,272.727272727273,4,2,1,80,1,0
11504,-200,4,2,1,30,0,0
13685,-200,4,2,1,45,0,0
15867,-200,4,1,0,80,0,0
18049,-200,4,2,1,60,0,0
18595,-200,4,2,1,5,0,0
20095,-100,4,1,1,80,0,0
27867,-100,4,1,1,80,0,0
28958,-100,4,1,1,80,0,0
37685,-100,4,1,1,80,0,1
52958,-100,4,1,1,20,0,1
56231,-100,4,1,1,80,0,1
57322,-100,4,1,1,80,0,0
74776,-100,4,1,1,80,0,1
94413,-100,4,2,1,80,0,0
109685,-200,4,2,1,80,0,0
111867,-100,4,2,1,80,0,0
114049,-100,4,1,1,80,0,1
133685,-100,4,1,1,80,0,0

[Colours]
Combo1 : 184,14,69
Combo2 : 255,255,255
Combo3 : 12,0,238
Combo4 : 64,0,0

[HitObjects]
256,56,595,1,4,0:0:0:0:
256,72,867,1,4,0:0:0:0:
256,88,1140,1,4,0:0:0:0:
256,104,1413,1,4,0:0:0:0:
256,192,1549,5,0,0:0:0:0:
256,192,1617,1,0,0:0:0:0:
256,192,1685,2,0,B|216:224|208:272,1,90
272,328,1958,2,0,B|312:296|320:248,1,90,2|0,0:0|0:0,0:0:0:0:
352,168,2231,1,0,0:0:0:0:
328,80,2367,1,0,0:0:0:0:
240,88,2504,1,2,0:0:0:0:
160,56,2640,1,0,0:0:0:0:
120,136,2776,6,0,B|72:128|48:88,2,90,0|2|2,0:0|0:0|0:0,0:0:0:0:
160,216,3185,2,0,B|177:261|154:302,2,90,0|2|0,0:0|0:0|0:0,0:0:0:0:
216,144,3595,2,0,B|246:106|293:105,1,90,2|0,0:0|0:0,0:0:0:0:
304,192,3867,5,0,0:0:0:0:
376,144,4004,1,0,0:0:0:0:
456,192,4140,2,0,B|472:144|456:96,1,90,2|0,0:0|0:0,0:0:0:0:
376,64,4413,5,0,0:0:0:0:
304,192,4549,1,0,0:0:0:0:
296,48,4685,1,2,0:0:0:0:
376,168,4822,1,0,0:0:0:0:
240,120,4958,6,0,B|192:120|192:120|144:136,2,90,0|2|2,0:0|0:0|0:0,0:0:0:0:
208,208,5367,2,0,B|256:208|256:208|304:224,2,90,0|2|0,0:0|0:0|0:0,0:0:0:0:
240,296,5776,2,0,B|192:296|192:296|144:280,1,90,2|0,0:0|0:0,0:0:0:0:
72,240,6049,5,4,0:0:0:0:
128,168,6185,1,0,0:0:0:0:
208,208,6322,1,2,0:0:0:0:
296,176,6458,1,0,0:0:0:0:
376,216,6595,2,0,B|424:296,2,90,0|0|2,0:0|0:0|0:0,0:0:0:0:
376,216,7004,1,0,0:0:0:0:
376,128,7140,5,0,0:0:0:0:
296,88,7276,1,2,0:0:0:0:
296,176,7413,1,2,0:0:0:0:
296,176,7549,5,0,0:0:0:0:
256,312,7685,1,2,0:0:0:0:
152,208,7822,1,0,0:0:0:0:
240,232,7958,5,2,0:0:0:0:
240,232,8095,1,0,0:0:0:0:
256,312,8231,6,0,B|296:336|344:328,1,90
320,240,8504,2,0,B|366:240|404:209,1,90,2|0,0:0|0:0,0:0:0:0:
352,136,8776,5,0,0:0:0:0:
216,96,8913,1,0,0:0:0:0:
344,32,9049,1,2,0:0:0:0:
272,152,9185,1,0,0:0:0:0:
216,96,9322,5,0,0:0:0:0:
128,120,9458,1,2,0:0:0:0:
72,192,9595,1,2,0:0:0:0:
72,192,9731,5,0,0:0:0:0:
168,296,9867,1,2,0:0:0:0:
312,328,10004,1,0,0:0:0:0:
256,192,10140,5,2,0:0:0:0:
256,192,10276,1,0,0:0:0:0:
256,192,10413,1,4,0:0:0:0:
120,96,11504,5,8,0:0:0:0:
208,128,11776,1,8,0:0:0:0:
256,48,12049,1,8,0:0:0:0:
304,128,12322,1,8,0:0:0:0:
392,96,12595,1,12,0:0:0:0:
416,288,13685,6,0,B|392:240|328:240,1,90,12|12,0:0|0:0,0:0:0:0:
96,288,14231,2,0,B|120:240|184:240,1,90,12|12,0:0|0:0,0:0:0:0:
256,328,14776,1,12,0:0:0:0:
256,72,15867,5,0,0:0:0:0:
185,289,16140,1,0,0:0:0:0:
370,154,16413,1,0,0:0:0:0:
141,154,16685,1,0,0:0:0:0:
326,289,16958,1,4,0:0:0:0:
152,56,18049,5,8,0:0:0:0:
48,288,18185,1,8,0:0:0:0:
344,104,18322,1,8,0:0:0:0:
440,328,18458,1,8,0:0:0:0:
256,192,18595,12,0,19958,0:0:0:0:
256,192,20095,5,0,0:0:0:0:
256,192,20163,1,0,0:0:0:0:
256,192,20231,2,0,P|192:184|72:240,1,180,4|8,0:0|0:0,0:0:0:0:
64,312,20640,1,0,0:0:0:0:
152,344,20776,2,0,P|202:336|251:364,1,90,0|0,0:0|0:0,0:0:0:0:
296,280,21049,2,0,P|336:248|392:248,1,90,8|0,0:0|0:0,0:0:0:0:
168,176,21322,6,0,P|112:112|16:72,1,180,0|8,0:0|0:0,0:0:0:0:
128,16,21731,1,0,0:0:0:0:
200,88,21867,2,0,L|304:72,2,90,0|0|8,0:0|0:0|0:0,0:0:0:0:
168,176,22276,5,0,0:0:0:0:
168,176,22345,1,0,0:0:0:0:
168,176,22413,2,0,P|264:192|336:256,2,180,0|8|0,0:0|0:0|0:0,0:0:0:0:
144,264,23095,1,0,0:0:0:0:
80,200,23231,2,0,P|80:144|112:104,1,90,8|0,0:0|0:0,0:0:0:0:
184,88,23504,2,0,L|272:64,1,90
128,224,23776,2,0,L|40:248,1,90,8|0,0:0|0:0,0:0:0:0:
40,104,24049,5,0,0:0:0:0:
184,88,24185,1,0,0:0:0:0:
320,128,24322,1,8,0:0:0:0:
424,232,24458,1,0,0:0:0:0:
272,288,24595,6,0,P|175:304|104:352,1,180,4|8,0:0|0:0,0:0:0:0:
32,304,25004,1,0,0:0:0:0:
80,232,25140,2,0,P|96:192|88:144,1,90
296,48,25413,2,0,P|280:88|288:136,1,90,8|0,0:0|0:0,0:0:0:0:
184,128,25685,2,0,B|208:176|208:176|256:208,2,90,4|0|8,0:0|0:0|0:0,0:0:0:0:
184,128,26095,1,0,0:0:0:0:
112,72,26231,2,0,L|24:48,1,90
256,184,26504,2,0,L|344:208,1,90,8|0,0:0|0:0,0:0:0:0:
440,32,26776,6,0,P|400:56|384:104,1,90,4|0,0:0|0:0,0:0:0:0:
328,136,26981,1,0,0:0:0:0:
256,120,27049,2,0,L|160:144,1,90,8|0,0:0|0:0,0:0:0:0:
80,88,27322,2,0,L|32:184,1,90
192,232,27595,2,0,L|240:328,1,90,8|8,0:0|0:0,0:0:0:0:
184,32,27867,5,4,0:0:0:0:
184,32,28004,1,0,0:0:0:0:
160,160,28140,1,8,0:0:0:0:
160,160,28276,1,4,0:0:0:0:
240,288,28413,2,0,B|192:304|192:304|160:336,2,90,0|0|8,0:0|0:0|0:0,0:0:0:0:
416,280,28822,5,0,0:0:0:0:
416,280,28890,1,0,0:0:0:0:
416,280,28958,2,0,P|384:200|392:96,1,180,4|8,0:0|0:0,0:0:0:0:
448,176,29367,1,0,0:0:0:0:
360,208,29504,2,0,P|288:200|248:208,1,90
224,128,29776,2,0,P|168:152|136:200,1,90,0|8,0:0|0:0,0:0:0:0:
64,328,30049,6,0,P|136:288|248:280,1,180,0|8,0:0|0:0,0:0:0:0:
288,152,30458,1,0,0:0:0:0:
424,168,30595,2,0,L|464:80,2,90,0|0|8,0:0|0:0|0:0,0:0:0:0:
216,40,31004,5,0,0:0:0:0:
216,40,31072,1,0,0:0:0:0:
216,40,31140,2,0,P|136:72|80:168,2,180,0|8|0,0:0|0:0|0:0,0:0:0:0:
208,128,31822,1,0,0:0:0:0:
240,224,31958,1,8,0:0:0:0:
328,304,32095,1,0,0:0:0:0:
456,336,32231,2,0,L|488:240,1,90
392,32,32504,2,0,L|360:128,1,90,8|0,0:0|0:0,0:0:0:0:
448,160,32776,5,0,0:0:0:0:
363,117,32913,1,0,0:0:0:0:
240,96,33049,1,8,0:0:0:0:
104,136,33185,5,0,0:0:0:0:
104,136,33254,1,0,0:0:0:0:
104,136,33322,2,0,P|152:200|160:264,1,135,4|0,0:0|0:0,0:0:0:0:
160,252,33595,2,0,L|240:312,1,90,8|0,0:0|0:0,0:0:0:0:
304,248,33867,2,0,L|408:232,1,90
104,136,34140,2,0,L|0:152,1,90,8|0,0:0|0:0,0:0:0:0:
264,32,34413,6,0,P|288:80|344:96,1,90,4|0,0:0|0:0,0:0:0:0:
376,56,34617,1,8,0:0:0:0:
432,96,34685,2,0,P|432:142|397:187,1,90
424,264,34958,1,0,0:0:0:0:
264,216,35095,1,0,0:0:0:0:
136,320,35231,1,8,0:0:0:0:
120,32,35504,5,4,0:0:0:0:
64,160,35640,1,0,0:0:0:0:
192,216,35776,1,8,0:0:0:0:
248,88,35913,1,0,0:0:0:0:
128,120,36049,5,0,0:0:0:0:
119,259,36185,1,0,0:0:0:0:
258,268,36322,1,8,0:0:0:0:
267,128,36458,1,0,0:0:0:0:
144,208,36595,1,0,0:0:0:0:
303,335,36731,1,0,0:0:0:0:
335,150,36867,1,8,0:0:0:0:
120,32,37004,5,0,0:0:0:0:
120,32,37072,1,0,0:0:0:0:
120,32,37140,1,0,0:0:0:0:
104,56,37208,1,0,0:0:0:0:
88,88,37276,1,0,0:0:0:0:
88,120,37345,1,0,0:0:0:0:
112,144,37413,1,8,0:0:0:0:
120,176,37481,1,0,0:0:0:0:
112,208,37549,1,0,0:0:0:0:
88,232,37617,1,0,0:0:0:0:
64,248,37685,6,0,P|168:256|224:312,1,180,4|8,0:0|0:0,0:0:0:0:
288,240,38095,1,0,0:0:0:0:
240,160,38231,2,0,P|280:128|336:120,1,90
336,32,38504,2,0,P|383:50|418:95,1,90,8|0,0:0|0:0,0:0:0:0:
400,168,38776,2,0,P|320:200|272:304,1,180,2|8,0:0|0:0,0:0:0:0:
184,264,39185,1,0,0:0:0:0:
192,176,39322,5,2,0:0:0:0:
88,264,39458,1,0,0:0:0:0:
192,352,39595,1,8,0:0:0:0:
312,40,39867,5,2,0:0:0:0:
424,88,40004,1,0,0:0:0:0:
376,200,40140,1,8,0:0:0:0:
264,152,40276,1,0,0:0:0:0:
368,24,40413,1,0,0:0:0:0:
466,135,40549,1,0,0:0:0:0:
320,165,40685,1,8,0:0:0:0:
104,40,40822,5,0,0:0:0:0:
104,40,40890,1,0,0:0:0:0:
104,40,40958,2,0,L|40:120,1,90,2|0,0:0|0:0,0:0:0:0:
48,256,41231,2,0,L|112:176,1,90,10|0,0:0|0:0,0:0:0:0:
47,110,41504,5,2,0:0:0:0:
104,185,41640,1,2,0:0:0:0:
200,248,41776,1,10,0:0:0:0:
344,264,41913,1,2,0:0:0:0:
272,32,42049,6,0,P|216:72|184:176,1,180,4|8,0:0|0:0,0:0:0:0:
112,120,42458,1,0,0:0:0:0:
280,136,42595,2,0,B|328:152|328:152|384:208,1,90
480,128,42867,2,0,B|432:112|432:112|376:56,1,90,8|0,0:0|0:0,0:0:0:0:
456,264,43140,6,0,P|368:288|256:248,1,180,2|8,0:0|0:0,0:0:0:0:
232,192,43549,1,0,0:0:0:0:
232,192,43617,1,0,0:0:0:0:
232,192,43685,2,0,P|176:200|136:256,1,90
192,272,43890,1,0,0:0:0:0:
128,280,43958,2,0,L|8:232,1,90,8|0,0:0|0:0,0:0:0:0:
128,48,44231,6,0,B|104:88|104:88|104:136,1,90,2|0,0:0|0:0,0:0:0:0:
264,200,44504,2,0,B|288:160|288:160|288:117,1,90,8|0,0:0|0:0,0:0:0:0:
480,152,44776,2,0,B|456:192|456:192|456:236,2,90,0|0|8,0:0|0:0|0:0,0:0:0:0:
72,32,45322,6,0,P|120:40|160:64,1,90,2|0,0:0|0:0,0:0:0:0:
112,144,45595,2,0,P|149:174|172:215,1,90,10|0,0:0|0:0,0:0:0:0:
56,240,45867,1,2,0:0:0:0:
112,144,46004,1,2,0:0:0:0:
224,80,46140,1,10,0:0:0:0:
368,72,46276,1,2,0:0:0:0:
496,176,46413,6,0,P|384:176|296:216,1,180,4|8,0:0|0:0,0:0:0:0:
352,112,46822,1,0,0:0:0:0:
392,272,46958,2,0,L|448:360,1,90
240,264,47231,2,0,L|320:320,1,90,8|0,0:0|0:0,0:0:0:0:
120,248,47504,2,0,B|153:174|246:173,1,135,2|0,0:0|0:0,0:0:0:0:
225,174,47776,2,0,L|280:80,1,90,8|0,0:0|0:0,0:0:0:0:
160,64,48049,1,2,0:0:0:0:
225,174,48185,1,0,0:0:0:0:
344,216,48322,1,8,0:0:0:0:
472,208,48458,1,0,0:0:0:0:
296,80,48595,6,0,P|208:96|128:160,1,180,2|8,0:0|0:0,0:0:0:0:
128,56,49004,1,0,0:0:0:0:
225,174,49140,2,0,L|168:288,1,90
144,336,49413,1,8,0:0:0:0:
368,56,49685,6,0,B|400:40|400:40|464:40,1,90,2|0,0:0|0:0,0:0:0:0:
296,120,49958,2,0,B|264:136|264:136|200:136,1,90,10|0,0:0|0:0,0:0:0:0:
240,48,50231,1,2,0:0:0:0:
296,120,50367,1,2,0:0:0:0:
328,224,50504,1,10,0:0:0:0:
288,344,50640,1,2,0:0:0:0:
48,200,50776,6,0,P|112:144|216:120,1,180,4|8,0:0|0:0,0:0:0:0:
280,192,51185,1,0,0:0:0:0:
384,176,51322,2,0,L|480:208,1,90
336,40,51595,2,0,L|416:96,1,90,8|0,0:0|0:0,0:0:0:0:
248,144,51867,2,0,P|192:136|152:112,1,90
104,144,52072,1,0,0:0:0:0:
40,128,52140,2,0,L|32:24,1,90,8|0,0:0|0:0,0:0:0:0:
136,288,52413,5,4,0:0:0:0:
136,288,52549,1,0,0:0:0:0:
376,96,52685,1,8,0:0:0:0:
376,96,52822,1,0,0:0:0:0:
256,192,52958,12,0,55958,0:0:0:0:
48,184,56231,6,0,L|80:88,1,90,4|0,0:0|0:0,0:0:0:0:
224,200,56504,2,0,L|192:296,1,90,8|4,0:0|0:0,0:0:0:0:
352,64,56776,1,0,0:0:0:0:
464,184,56913,1,0,0:0:0:0:
384,352,57049,1,8,0:0:0:0:
88,304,57185,5,0,0:0:0:0:
88,304,57254,1,0,0:0:0:0:
88,304,57322,2,0,P|120:224|192:160,1,180,4|8,0:0|0:0,0:0:0:0:
264,224,57731,1,0,0:0:0:0:
352,184,57867,2,0,B|376:136|376:136|376:88,1,90
184,272,58140,2,0,B|160:320|160:320|160:368,1,90,8|0,0:0|0:0,0:0:0:0:
64,80,58413,6,0,P|144:40|240:40,1,180,0|8,0:0|0:0,0:0:0:0:
304,112,58822,1,0,0:0:0:0:
392,72,58958,2,0,L|472:144,2,90,0|0|8,0:0|0:0|0:0,0:0:0:0:
280,200,59367,5,0,0:0:0:0:
280,200,59435,1,0,0:0:0:0:
280,200,59504,2,0,P|208:184|72:200,2,180,0|8|0,0:0|0:0|0:0,0:0:0:0:
192,272,60185,1,0,0:0:0:0:
152,104,60322,1,8,0:0:0:0:
32,224,60458,1,0,0:0:0:0:
336,40,60595,6,0,B|376:24|376:24|424:24,1,90
432,88,60799,1,0,0:0:0:0:
384,128,60867,2,0,B|407:168|407:168|441:195,1,90,8|0,0:0|0:0,0:0:0:0:
496,280,61140,1,0,0:0:0:0:
441,195,61276,1,0,0:0:0:0:
320,168,61413,1,8,0:0:0:0:
192,192,61549,5,0,0:0:0:0:
192,192,61617,1,0,0:0:0:0:
192,192,61685,2,0,P|104:216|40:304,1,180,4|8,0:0|0:0,0:0:0:0:
144,288,62095,1,0,0:0:0:0:
88,136,62231,2,0,L|40:40,1,90
192,80,62504,2,0,L|288:120,1,90,8|0,0:0|0:0,0:0:0:0:
384,40,62776,6,0,P|424:64|448:104,1,90,4|0,0:0|0:0,0:0:0:0:
392,136,62981,1,0,0:0:0:0:
328,120,63049,2,0,L|272:192,1,90,8|0,0:0|0:0,0:0:0:0:
320,280,63322,2,0,B|280:296|280:296|216:296,1,90
80,280,63595,2,0,B|120:264|120:264|184:264,1,90,8|0,0:0|0:0,0:0:0:0:
312,48,63867,6,0,P|224:48|128:88,1,180,4|8,0:0|0:0,0:0:0:0:
208,192,64276,1,0,0:0:0:0:
80,208,64413,2,0,L|24:304,1,90
280,304,64685,2,0,L|336:208,1,90,8|8,0:0|0:0,0:0:0:0:
80,208,64958,5,4,0:0:0:0:
80,208,65095,1,0,0:0:0:0:
232,248,65231,1,8,0:0:0:0:
232,248,65367,1,4,0:0:0:0:
352,152,65504,2,0,L|400:72,2,90,0|0|8,0:0|0:0|0:0,0:0:0:0:
160,72,65913,5,0,0:0:0:0:
160,72,65981,1,0,0:0:0:0:
160,72,66049,2,0,B|103:114|113:207|195:218,1,180,4|8,0:0|0:0,0:0:0:0:
280,168,66458,1,0,0:0:0:0:
392,168,66595,2,0,B|408:216|400:256,1,90
328,64,66867,2,0,P|376:72|432:96,1,90,8|0,0:0|0:0,0:0:0:0:
184,88,67140,6,0,P|104:120|40:208,1,180,0|8,0:0|0:0,0:0:0:0:
136,256,67549,1,0,0:0:0:0:
240,264,67685,2,0,B|281:288|315:326,2,90,0|0|8,0:0|0:0|0:0,0:0:0:0:
448,264,68095,5,0,0:0:0:0:
448,264,68163,1,0,0:0:0:0:
448,264,68231,2,0,B|436:209|384:162|309:153,2,180,0|8|0,0:0|0:0|0:0,0:0:0:0:
360,328,68913,1,0,0:0:0:0:
232,224,69049,1,8,0:0:0:0:
80,280,69185,1,0,0:0:0:0:
88,56,69322,6,0,B|80:88|56:152,1,90
232,224,69595,2,0,B|240:192|264:128,1,90,8|0,0:0|0:0,0:0:0:0:
200,32,69867,2,0,B|192:64|168:128,1,90
136,224,70140,1,8,0:0:0:0:
352,288,70276,5,0,0:0:0:0:
352,288,70345,1,0,0:0:0:0:
352,288,70413,2,0,B|336:246|336:246|280:208,1,90,4|0,0:0|0:0,0:0:0:0:
232,224,70617,1,0,0:0:0:0:
200,168,70685,2,0,L|112:144,1,90,8|0,0:0|0:0,0:0:0:0:
288,144,70958,1,0,0:0:0:0:
288,144,71095,1,0,0:0:0:0:
208,312,71231,1,8,0:0:0:0:
208,312,71367,1,0,0:0:0:0:
432,240,71504,6,0,B|450:140,1,90,4|0,0:0|0:0,0:0:0:0:
352,48,71776,2,0,B|336:144,1,90,8|0,0:0|0:0,0:0:0:0:
224,184,72049,2,0,B|219:94,1,90
88,80,72322,2,0,B|120:256,2,180,8|4|8,0:0|0:0|0:0,0:0:0:0:
192,104,73004,6,0,B|257:150|312:48|376:120,1,180
456,168,73413,1,8,0:0:0:0:
456,168,73481,1,0,0:0:0:0:
456,168,73549,1,0,0:0:0:0:
392,256,73685,2,0,B|345:260|288:240,1,90
248,336,73958,2,0,B|192:296|176:248,1,90,8|2,0:0|0:0,0:0:0:0:
180,260,74163,1,0,0:0:0:0:
174,247,74231,1,0,0:0:0:0:
170,235,74299,1,0,0:0:0:0:
166,224,74367,1,2,0:0:0:0:
166,213,74435,1,0,0:0:0:0:
168,202,74504,1,10,0:0:0:0:
171,191,74572,1,0,0:0:0:0:
176,181,74640,1,2,0:0:0:0:
184,172,74708,1,0,0:0:0:0:
192,164,74776,6,0,B|244:149|268:100,1,90,4|0,0:0|0:0,0:0:0:0:
248,48,74981,1,0,0:0:0:0:
312,64,75049,2,0,B|358:85|385:127,1,90,8|0,0:0|0:0,0:0:0:0:
336,192,75322,2,0,B|360:292,1,90
472,112,75595,2,0,B|448:212,1,90,8|0,0:0|0:0,0:0:0:0:
424,312,75867,5,2,0:0:0:0:
424,312,76004,1,0,0:0:0:0:
288,328,76140,1,8,0:0:0:0:
288,328,76276,1,0,0:0:0:0:
160,288,76413,2,0,B|144:152,2,135,2|0|0,0:0|0:0|0:0,0:0:0:0:
264,216,76958,6,0,B|288:104,1,90,2|0,0:0|0:0,0:0:0:0:
88,208,77231,2,0,B|64:320,1,90,8|0,0:0|0:0,0:0:0:0:
160,336,77504,2,0,B|200:312|200:312|256:312,1,90
408,312,77776,2,0,B|368:336|368:336|312:336,1,90,8|0,0:0|0:0,0:0:0:0:
480,200,78049,5,0,0:0:0:0:
432,104,78185,1,0,0:0:0:0:
296,56,78322,5,8,0:0:0:0:
312,208,78458,1,0,0:0:0:0:
128,288,78595,5,2,0:0:0:0:
176,88,78731,1,2,0:0:0:0:
64,32,78867,5,10,0:0:0:0:
57,43,78935,1,0,0:0:0:0:
52,56,79004,1,2,0:0:0:0:
49,69,79072,1,0,0:0:0:0:
48,80,79140,2,0,P|40:128|40:176,1,90,4|0,0:0|0:0,0:0:0:0:
80,288,79413,2,0,B|112:248|160:224,1,90,8|0,0:0|0:0,0:0:0:0:
232,336,79685,2,0,B|285:267|260:152,1,180,0|8,0:0|0:0,0:0:0:0:
152,176,80095,1,0,0:0:0:0:
176,280,80231,6,0,B|270:241|382:269,1,180,2|8,0:0|0:0,0:0:0:0:
440,200,80640,1,0,0:0:0:0:
440,200,80708,1,0,0:0:0:0:
440,200,80776,2,0,B|456:264|480:296,2,90,0|0|8,0:0|0:0|0:0,0:0:0:0:
416,96,81185,1,0,0:0:0:0:
176,48,81322,5,0,0:0:0:0:
136,184,81458,1,0,0:0:0:0:
264,256,81595,1,8,0:0:0:0:
144,336,81731,1,0,0:0:0:0:
16,272,81867,5,0,0:0:0:0:
136,184,82004,1,0,0:0:0:0:
264,256,82140,1,8,0:0:0:0:
280,112,82276,1,0,0:0:0:0:
48,48,82413,6,0,L|64:144,1,90
136,248,82685,2,0,L|192:144,1,90,8|0,0:0|0:0,0:0:0:0:
304,64,82958,1,10,0:0:0:0:
316,67,83026,1,0,0:0:0:0:
328,71,83095,1,2,0:0:0:0:
339,77,83163,1,0,0:0:0:0:
350,84,83231,1,10,0:0:0:0:
360,92,83299,1,0,0:0:0:0:
369,101,83367,1,2,0:0:0:0:
377,111,83435,1,0,0:0:0:0:
385,121,83504,6,0,B|441:185|441:297,1,180,4|8,0:0|0:0,0:0:0:0:
336,272,83913,1,0,0:0:0:0:
264,352,84049,2,0,B|210:244,1,90
136,200,84322,2,0,L|88:312,1,90,8|0,0:0|0:0,0:0:0:0:
40,112,84595,6,0,B|56:36|133:16|181:56,1,180,2|8,0:0|0:0,0:0:0:0:
272,104,85004,1,0,0:0:0:0:
376,80,85140,2,0,B|416:112|416:112|440:160,2,90,2|0|8,0:0|0:0|0:0,0:0:0:0:
160,176,85549,5,0,0:0:0:0:
160,176,85617,1,0,0:0:0:0:
160,176,85685,2,0,B|115:180|71:191,2,90,2|0|8,0:0|0:0|0:0,0:0:0:0:
216,296,86095,1,0,0:0:0:0:
336,240,86231,2,0,B|385:258|430:285,2,90,0|0|8,0:0|0:0|0:0,0:0:0:0:
296,112,86640,5,0,0:0:0:0:
296,112,86708,1,0,0:0:0:0:
296,112,86776,2,0,B|294:74|320:24,1,90
432,104,87049,2,0,B|440:160|440:216,1,90,8|0,0:0|0:0,0:0:0:0:
448,328,87322,1,10,0:0:0:0:
448,328,87458,1,2,0:0:0:0:
320,288,87595,1,10,0:0:0:0:
320,288,87663,1,0,0:0:0:0:
320,288,87731,1,2,0:0:0:0:
320,288,87799,1,0,0:0:0:0:
320,288,87867,2,0,B|238:304|120:304,1,180,4|8,0:0|0:0,0:0:0:0:
24,232,88276,5,0,0:0:0:0:
152,192,88413,2,0,B|128:144|112:96,1,90
176,80,88617,1,0,0:0:0:0:
120,40,88685,2,0,B|68:37|24:40,1,90,8|0,0:0|0:0,0:0:0:0:
264,160,88958,5,4,0:0:0:0:
368,80,89095,2,0,B|368:16,2,45,0|0|8,0:0|0:0|0:0,0:0:0:0:
472,144,89367,2,0,B|432:328,1,180
312,328,89776,2,0,B|272:352,2,45,8|0|0,0:0|0:0|0:0,0:0:0:0:
360,128,90049,6,0,B|314:122|264:112,1,90,4|0,0:0|0:0,0:0:0:0:
168,200,90322,1,8,0:0:0:0:
56,128,90458,2,0,B|56:88|64:32,2,90
184,72,90867,2,0,B|270:130|345:192,1,180,8|0,0:0|0:0,0:0:0:0:
312,48,91276,5,0,0:0:0:0:
216,200,91413,2,0,B|224:304,1,90,8|0,0:0|0:0,0:0:0:0:
448,144,91685,2,0,B|440:240,1,90
336,320,91958,1,8,0:0:0:0:
320,184,92095,5,8,0:0:0:0:
320,184,92163,1,8,0:0:0:0:
320,184,92231,2,0,B|220:188|192:104|192:56,1,180,12|8,0:0|0:0,0:0:0:0:
304,96,92640,1,0,0:0:0:0:
184,216,92776,2,0,L|72:208,2,90,8|0|8,0:0|0:0|0:0,0:0:0:0:
64,24,93185,5,0,0:0:0:0:
64,24,93254,1,0,0:0:0:0:
64,24,93322,2,0,B|48:136,1,90,4|0,0:0|0:0,0:0:0:0:
94,209,93595,1,8,0:0:0:0:
64,304,93731,2,0,B|151:319|264:320,1,180,4|0,0:0|0:0,0:0:0:0:
344,352,94140,1,8,0:0:0:0:
344,352,94276,1,0,0:0:0:0:
424,280,94413,6,0,B|452:188|439:58,2,180,4|8|2,0:0|0:0|0:0,0:0:0:0:
320,312,95095,1,0,0:0:0:0:
280,208,95231,2,0,P|232:200|176:208,1,90,8|0,0:0|0:0,0:0:0:0:
63,277,95504,2,0,P|44:324|54:374,1,90,2|0,0:0|0:0,0:0:0:0:
216,290,95776,2,0,P|266:282|304:248,1,90,8|0,0:0|0:0,0:0:0:0:
152,152,96049,2,0,P|120:112|72:96,1,90,2|0,0:0|0:0,0:0:0:0:
143,243,96322,1,8,0:0:0:0:
143,243,96458,1,0,0:0:0:0:
184,104,96595,5,2,0:0:0:0:
312,232,96732,1,0,0:0:0:0:
344,80,96867,1,8,0:0:0:0:
472,208,97004,1,0,0:0:0:0:
312,176,97140,1,2,0:0:0:0:
504,112,97276,1,0,0:0:0:0:
408,144,97413,2,0,B|384:256,1,90,8|0,0:0|0:0,0:0:0:0:
304,296,97685,5,2,0:0:0:0:
160,232,97822,1,0,0:0:0:0:
304,136,97958,1,8,0:0:0:0:
160,72,98095,1,2,0:0:0:0:
152,328,98367,5,2,0:0:0:0:
192,232,98504,1,10,0:0:0:0:
80,256,98640,1,10,0:0:0:0:
96,152,98776,1,4,0:0:0:0:
256,80,99049,1,8,0:0:0:0:
256,80,99185,1,2,0:0:0:0:
392,160,99458,5,2,0:0:0:0:
256,304,99595,1,8,0:0:0:0:
200,104,99731,2,0,B|197:52|259:20|321:49|312:124,1,180,2|0,0:0|0:0,0:0:0:0:
184,280,100140,2,0,B|162:238|160:184,1,90,10|0,0:0|0:0,0:0:0:0:
351,193,100413,2,0,B|350:238|328:280,1,90,2|0,0:0|0:0,0:0:0:0:
256,344,100685,1,10,0:0:0:0:
256,248,100822,2,0,B|256:48,1,180,2|0,0:0|0:0,0:0:0:0:
160,40,101231,6,0,B|153:89|176:144,1,90,10|0,0:0|0:0,0:0:0:0:
352,40,101504,2,0,B|359:89|336:144,1,90,2|0,0:0|0:0,0:0:0:0:
456,208,101776,1,10,0:0:0:0:
408,320,101913,1,0,0:0:0:0:
312,280,102049,6,0,B|296:192,1,90,2|0,0:0|0:0,0:0:0:0:
160,352,102322,2,0,B|144:264,1,90,10|0,0:0|0:0,0:0:0:0:
168,40,102595,2,0,B|185:129,1,90,2|0,0:0|0:0,0:0:0:0:
32,96,102867,2,0,B|49:185,1,90,10|0,0:0|0:0,0:0:0:0:
176,264,103140,1,4,0:0:0:0:
424,56,103413,6,0,B|440:96|440:96|440:160,1,90,8|0,0:0|0:0,0:0:0:0:
424,248,103685,2,0,B|488:328,2,90,2|0|8,0:0|0:0|0:0,0:0:0:0:
248,96,104095,2,0,B|224:144|224:144|224:272,1,180,2|0,0:0|0:0,0:0:0:0:
144,200,104504,5,10,0:0:0:0:
248,96,104640,1,2,0:0:0:0:
392,120,104776,1,2,0:0:0:0:
328,312,105049,5,8,0:0:0:0:
328,312,105185,1,2,0:0:0:0:
232,120,105458,6,0,B|192:96|192:96|128:96,2,90,2|10|0,0:0|0:0|0:0,0:0:0:0:
352,136,105867,1,0,0:0:0:0:
440,160,106004,1,0,0:0:0:0:
424,56,106140,1,10,0:0:0:0:
368,240,106276,1,0,0:0:0:0:
352,136,106413,6,0,B|248:184,1,90,2|0,0:0|0:0,0:0:0:0:
328,264,106685,2,0,B|432:216,1,90,10|0,0:0|0:0,0:0:0:0:
264,216,106958,5,10,0:0:0:0:
208,48,107095,1,0,0:0:0:0:
392,104,107231,1,10,0:0:0:0:
88,176,107367,1,0,0:0:0:0:
256,344,107504,5,4,0:0:0:0:
256,344,107776,2,0,B|256:224,1,90,8|0,0:0|0:0,0:0:0:0:
248,144,108049,2,0,B|176:64,2,90,2|0|8,0:0|0:0|0:0,0:0:0:0:
344,200,108458,1,0,0:0:0:0:
448,176,108595,6,0,B|411:82|338:32,1,180,6|8,0:0|0:0,0:0:0:0:
304,136,109004,2,0,B|216:88|128:96,1,180,4|0,0:0|0:0,0:0:0:0:
56,168,109413,1,8,0:0:0:0:
176,312,109685,6,0,B|256:264|352:288,1,180,4|8,0:0|0:0,0:0:0:0:
336,72,110776,2,0,B|256:120|160:96,1,180,2|8,0:0|0:0,0:0:0:0:
48,296,111731,5,2,0:0:0:0:
48,296,111799,1,2,0:0:0:0:
48,296,111867,1,2,0:0:0:0:
104,320,111958,1,2,0:0:0:0:
160,336,112049,1,2,0:0:0:0:
216,336,112140,1,8,0:0:0:0:
272,328,112231,1,2,0:0:0:0:
328,312,112322,1,2,0:0:0:0:
376,280,112413,1,8,0:0:0:0:
408,232,112504,1,2,0:0:0:0:
424,176,112595,1,2,0:0:0:0:
424,120,112685,1,8,0:0:0:0:
408,64,112776,1,2,0:0:0:0:
368,24,112867,1,2,0:0:0:0:
312,16,112958,5,6,0:0:0:0:
56,208,113367,1,4,0:0:0:0:
416,328,113776,1,4,0:0:0:0:
152,328,114049,6,0,B|144:232|72:168,1,180,4|8,0:0|0:0,0:0:0:0:
56,80,114458,1,0,0:0:0:0:
56,80,114526,1,0,0:0:0:0:
56,80,114595,2,0,B|112:72|160:80,1,90
184,160,114867,2,0,B|236:181|274:212,1,90,8|0,0:0|0:0,0:0:0:0:
280,288,115140,6,0,B|348:302|396:220|341:169,1,180,2|8,0:0|0:0,0:0:0:0:
344,80,115549,1,0,0:0:0:0:
264,120,115685,2,0,P|208:136|168:176,1,90,2|0,0:0|0:0,0:0:0:0:
96,120,115958,2,0,P|64:156|58:199,1,90,8|0,0:0|0:0,0:0:0:0:
192,280,116231,6,0,B|283:283|362:213,1,180,2|8,0:0|0:0,0:0:0:0:
416,288,116640,1,0,0:0:0:0:
344,344,116776,5,0,0:0:0:0:
240,256,116913,1,0,0:0:0:0:
112,304,117049,1,8,0:0:0:0:
337,33,117322,5,2,0:0:0:0:
458,77,117458,1,0,0:0:0:0:
480,203,117595,1,10,0:0:0:0:
382,286,117731,1,0,0:0:0:0:
261,242,117867,1,2,0:0:0:0:
239,116,118004,1,2,0:0:0:0:
360,160,118140,1,10,0:0:0:0:
360,160,118276,5,2,0:0:0:0:
360,160,118345,1,0,0:0:0:0:
360,160,118413,2,0,B|272:136|160:160,1,180,4|8,0:0|0:0,0:0:0:0:
256,80,118822,1,0,0:0:0:0:
240,240,118958,2,0,B|240:288|216:344,1,90
128,280,119231,2,0,B|91:310|32:328,1,90
224,104,119504,6,0,B|264:64|264:64|384:24,1,180,0|8,0:0|0:0,0:0:0:0:
448,144,119913,1,0,0:0:0:0:
448,144,119981,1,0,0:0:0:0:
448,144,120049,2,0,B|448:192|448:192|472:248,1,90
344,336,120322,2,0,B|344:288|344:288|320:232,1,90,8|0,0:0|0:0,0:0:0:0:
168,296,120595,6,0,B|96:272|96:272|40:168,1,180,0|8,0:0|0:0,0:0:0:0:
192,152,121004,1,0,0:0:0:0:
168,296,121140,1,0,0:0:0:0:
304,192,121276,1,0,0:0:0:0:
480,256,121413,1,8,0:0:0:0:
112,160,121685,5,2,0:0:0:0:
176,32,121822,1,0,0:0:0:0:
400,160,121958,1,10,0:0:0:0:
336,32,122095,1,0,0:0:0:0:
256,104,122231,5,10,0:0:0:0:
256,112,122299,1,0,0:0:0:0:
256,120,122367,1,2,0:0:0:0:
256,128,122435,1,0,0:0:0:0:
256,136,122504,1,10,0:0:0:0:
256,144,122572,1,0,0:0:0:0:
256,152,122640,1,2,0:0:0:0:
256,160,122708,1,0,0:0:0:0:
256,168,122776,6,0,B|256:224|256:224|224:352,1,180,4|8,0:0|0:0,0:0:0:0:
80,344,123185,1,0,0:0:0:0:
136,232,123322,2,0,B|104:192|104:192|64:176,1,90
160,56,123595,2,0,B|192:96|192:96|232:112,1,90,8|0,0:0|0:0,0:0:0:0:
224,352,123867,6,0,B|260:313|260:313|403:261,1,180,2|8,0:0|0:0,0:0:0:0:
432,152,124276,1,0,0:0:0:0:
432,152,124345,1,0,0:0:0:0:
432,152,124413,2,0,B|448:120|448:120|448:64,1,90,2|0,0:0|0:0,0:0:0:0:
280,96,124685,2,0,B|264:128|264:128|264:184,1,90,8|0,0:0|0:0,0:0:0:0:
240,344,124958,6,0,B|142:308|114:221,1,180,2|8,0:0|0:0,0:0:0:0:
200,96,125367,1,0,0:0:0:0:
32,80,125504,1,0,0:0:0:0:
114,223,125640,1,0,0:0:0:0:
272,256,125776,1,8,0:0:0:0:
424,64,126049,5,2,0:0:0:0:
464,208,126185,1,0,0:0:0:0:
344,312,126322,1,10,0:0:0:0:
256,128,126458,1,0,0:0:0:0:
80,40,126595,5,10,0:0:0:0:
72,56,126663,1,0,0:0:0:0:
64,72,126731,1,2,0:0:0:0:
56,88,126799,1,0,0:0:0:0:
48,104,126867,1,10,0:0:0:0:
48,120,126935,1,0,0:0:0:0:
48,136,127004,1,2,0:0:0:0:
48,152,127072,1,0,0:0:0:0:
48,168,127140,6,0,B|136:208|176:296,1,180,4|8,0:0|0:0,0:0:0:0:
56,344,127549,1,0,0:0:0:0:
288,320,127685,2,0,B|352:304|400:312,1,90
480,176,127958,2,0,B|416:192|368:184,1,90,8|0,0:0|0:0,0:0:0:0:
216,32,128231,6,0,P|160:56|136:96,1,90,6|0,0:0|0:0,0:0:0:0:
160,136,128435,1,0,0:0:0:0:
216,168,128504,2,0,L|200:264,1,90,8|0,0:0|0:0,0:0:0:0:
96,328,128776,1,0,0:0:0:0:
96,328,128913,1,0,0:0:0:0:
432,256,129049,5,8,0:0:0:0:
432,256,129117,1,0,0:0:0:0:
432,256,129185,1,0,0:0:0:0:
432,256,129254,1,0,0:0:0:0:
432,256,129322,2,0,P|368:192|280:168,1,180,4|8,0:0|0:0,0:0:0:0:
344,280,129731,1,0,0:0:0:0:
384,104,129867,2,0,P|424:64|464:56,2,90,0|0|8,0:0|0:0|0:0,0:0:0:0:
184,48,130276,5,0,0:0:0:0:
184,48,130345,1,0,0:0:0:0:
184,48,130413,2,0,P|96:80|56:160,1,180,0|8,0:0|0:0,0:0:0:0:
120,264,130822,1,0,0:0:0:0:
232,208,130958,2,0,L|288:312,1,90
384,216,131231,2,0,L|448:120,1,90,8|0,0:0|0:0,0:0:0:0:
384,104,131435,1,0,0:0:0:0:
384,40,131504,6,0,P|336:32|280:40,1,90,8|0,0:0|0:0,0:0:0:0:
56,176,131776,2,0,P|93:145|146:124,1,90,8|0,0:0|0:0,0:0:0:0:
432,208,132049,2,0,P|386:191|329:189,1,90,8|0,0:0|0:0,0:0:0:0:
112,352,132322,2,0,P|143:315|191:285,1,90,8|0,0:0|0:0,0:0:0:0:
256,80,132595,5,4,0:0:0:0:
256,80,132663,1,0,0:0:0:0:
256,80,132731,1,0,0:0:0:0:
344,208,132867,1,8,0:0:0:0:
344,208,132935,1,0,0:0:0:0:
344,208,133004,1,0,0:0:0:0:
352,80,133140,5,0,0:0:0:0:
256,80,133276,1,0,0:0:0:0:
160,120,133413,1,8,0:0:0:0:
80,216,133549,1,0,0:0:0:0:
40,352,133685,1,4,0:0:0:0:
