osu file format v13

[General]
AudioFilename: IOSYS - Final Haven.mp3
AudioLeadIn: 0
PreviewTime: 82084
Countdown: 0
SampleSet: None
StackLeniency: 0.7
Mode: 0
LetterboxInBreaks: 1
WidescreenStoryboard: 0

[Editor]
Bookmarks: 125322
DistanceSpacing: 1
BeatDivisor: 4
GridSize: 4
TimelineZoom: 1.2

[Metadata]
Title:Final Haven
TitleUnicode:Final Haven
Artist:Jun.A
ArtistUnicode:Jun.A
Creator:Nyark Kidoune
Version:Normal
Source:IOSYS
Tags:STEAMPUNK RAPSODIA スチームパンク・ラプソディア sound sepher
BeatmapID:543829
BeatmapSetID:233673

[Difficulty]
HPDrainRate:2
CircleSize:3
OverallDifficulty:2
ApproachRate:2
SliderMultiplier:1.4
SliderTickRate:2

[Events]
//Background and Video events
0,0,"BG.jpg",0,0
//Break Periods
2,43887,61327
//Storyboard Layer 0 (Background)
//Storyboard Layer 1 (Fail)
//Storyboard Layer 2 (Pass)
//Storyboard Layer 3 (Foreground)
//Storyboard Sound Samples
//Background Colour Transformations
3,100,163,162,255

[TimingPoints]
487,600,4,3,0,100,1,0
4687,-133.333333333333,4,3,0,100,0,0
5887,-100,4,3,0,100,0,0
14887,-83.3333333333333,4,3,0,100,0,0
24487,-76.9230769230769,4,3,0,100,0,0
34087,-71.4285714285714,4,3,0,100,0,0
62737,-100,4,3,0,100,0,0
62905,600,4,3,0,100,1,0
62905,-100,4,2,0,100,0,0
72505,-133.333333333333,4,3,0,100,0,0
73405,-100,4,3,0,100,0,0
82084,600.540486437794,4,3,0,100,1,0
82084,-90.9090909090909,4,3,0,100,0,1
101263,-100,4,3,0,100,0,0
101301,-90.9090909090909,4,3,0,100,0,1
101302,-90.9090909090909,4,3,0,100,0,1
120518,-100,4,3,0,100,0,0
121719,-100,4,3,0,35,0,0
122920,-100,4,3,0,5,0,0

[Colours]
Combo1 : 255,192,0
Combo2 : 99,29,29
Combo3 : 204,133,68
Combo4 : 95,61,61

[HitObjects]
256,192,487,12,0,2887,0:0:0:0:
124,76,4687,6,0,L|268:80,1,105.000004005432
332,212,5887,6,0,P|362:273|342:339,1,140,8|0,0:0|0:0,0:0:0:0:
172,340,7087,2,0,P|152:274|182:213,1,140,8|0,0:0|0:0,0:0:0:0:
296,120,8287,1,0,0:0:0:0:
296,120,8887,6,0,B|368:108|368:108|440:116,2,140,0|8|0,0:0|0:0|0:0,0:0:0:0:
156,212,10687,2,0,P|187:272|170:339,1,140,8|0,0:0|0:0,0:0:0:0:
304,240,11887,2,0,L|300:200,5,23.3333333333333,0|0|0|0|0|0,0:0|0:0|0:0|0:0|0:0|0:0,0:0:0:0:
256,192,12487,12,0,13687,0:0:0:0:
436,276,14887,6,0,L|444:372,2,83.9999974365235,0|0|8,0:0|0:0|0:0,0:0:0:0:
372,220,15787,1,0,0:0:0:0:
308,164,16087,2,0,P|288:244|356:304,2,167.999994873047,0|8|0,0:0|0:0|0:0,0:0:0:0:
188,48,17887,6,0,B|138:33|138:33|22:37,1,167.999994873047,8|0,0:0|0:0,0:0:0:0:
120,172,19087,2,0,B|106:221|106:221|110:337,1,167.999994873047,8|0,0:0|0:0,0:0:0:0:
200,272,19987,1,0,0:0:0:0:
200,272,20287,6,0,P|208:216|192:164,1,83.9999974365235,8|0,0:0|0:0,0:0:0:0:
280,92,20887,2,0,P|275:133|283:174,1,83.9999974365235
300,256,21487,2,0,B|356:268|356:268|468:264,1,167.999994873047,8|0,0:0|0:0,0:0:0:0:
466,264,22687,6,0,P|496:188|460:116,1,167.999994873047,8|0,0:0|0:0,0:0:0:0:
378,120,23887,2,0,P|346:194|383:267,1,167.999994873047,8|0,0:0|0:0,0:0:0:0:
300,340,24787,5,0,0:0:0:0:
300,340,25087,2,0,L|170:348,1,90.9999958343508,8|0,0:0|0:0,0:0:0:0:
268,252,25687,2,0,L|177:247,1,90.9999958343508
228,152,26287,2,0,B|160:144|160:144|119:112|119:112|43:104,1,181.999991668702,8|0,0:0|0:0,0:0:0:0:
76,216,27187,5,0,0:0:0:0:
132,288,27487,2,0,P|190:316|242:308,1,90.9999958343508
288,256,28087,2,0,P|280:200|304:152,1,90.9999958343508
332,88,28687,2,0,B|392:64|448:88|448:88|524:88,1,181.999991668702,8|0,0:0|0:0,0:0:0:0:
480,176,29587,1,0,0:0:0:0:
480,176,29887,6,0,B|486:232|486:232|474:284,1,90.9999958343508,8|0,0:0|0:0,0:0:0:0:
392,232,30487,2,0,B|386:288|386:288|398:340,1,90.9999958343508
393,321,31087,2,0,P|303:306|214:322,1,181.999991668702,8|0,0:0|0:0,0:0:0:0:
148,260,31987,5,0,0:0:0:0:
148,260,32287,2,0,P|160:212|152:156,1,90.9999958343508,8|0,0:0|0:0,0:0:0:0:
228,112,32887,2,0,B|264:108|264:108|284:116|284:116|324:112,3,90.9999958343508,0|0|8|0,0:0|0:0|0:0|0:0,0:0:0:0:
404,156,34087,6,0,B|404:180|381:209|381:209|417:273|385:341,1,195.999994018555,0|4,0:0|0:0,0:0:0:0:
385,340,35287,2,0,B|312:328|312:328|276:388|196:368,1,195.999994018555,0|4,0:0|0:0,0:0:0:0:
206,370,36487,6,0,B|196:292|196:292|148:284|148:284|136:204,1,195.999994018555,0|4,0:0|0:0,0:0:0:0:
137,216,37687,2,0,P|172:180|80:180,1,195.999994018555,0|4,0:0|0:0,0:0:0:0:
44,248,38587,1,0,0:0:0:0:
44,248,38887,6,0,P|140:216|232:260,1,195.999994018555,0|4,0:0|0:0,0:0:0:0:
292,320,39787,1,0,0:0:0:0:
376,372,40087,2,0,B|408:280|332:232|332:232|332:168,1,195.999994018555,0|4,0:0|0:0,0:0:0:0:
256,136,40987,1,0,0:0:0:0:
180,196,41287,2,0,B|180:232|180:232|104:280|136:372,1,195.999994018555,0|4,0:0|0:0,0:0:0:0:
220,320,42187,1,0,0:0:0:0:
256,192,42487,12,0,43687,0:0:0:0:
80,120,62887,6,0,L|72:204,2,70,0|0|0,0:0|0:0|0:0,0:0:0:0:
148,68,63805,1,0,0:0:0:0:
196,136,64105,2,0,P|224:104|228:60,1,70
312,72,64705,2,0,P|321:38|345:13,1,70
396,80,65305,6,0,P|395:148|344:193,1,140
348,292,66205,1,0,0:0:0:0:
348,292,66505,2,0,L|432:308,1,70
452,228,67105,2,0,L|383:214,1,70
300,204,67705,6,0,B|240:196|240:196|144:208,1,140
100,264,68605,1,0,0:0:0:0:
100,264,68905,2,0,P|124:196|100:116,1,140
220,4,70105,6,0,P|196:72|220:152,1,140
268,264,71305,1,0,0:0:0:0:
268,264,71905,1,0,0:0:0:0:
268,264,72505,5,0,0:0:0:0:
332,180,73105,1,0,0:0:0:0:
332,180,73405,1,0,0:0:0:0:
332,180,73705,2,0,L|336:252,2,70,0|0|0,0:0|0:0|0:0,0:0:0:0:
332,180,74905,6,0,P|396:148|472:188,1,140
304,88,76105,2,0,P|239:66|179:97,1,140
76,232,77305,6,0,L|78:92,1,140
208,196,78505,1,0,0:0:0:0:
340,336,79105,6,0,L|344:228,1,70,0|0,0:0|0:0,0:0:0:0:
342,266,79705,6,0,B|296:244|252:256|252:256|220:220,1,140
104,172,80905,2,0,L|100:96,3,70,0|0|0|0,0:0|0:0|0:0|0:0,0:0:0:0:
156,44,82084,6,0,B|220:44|220:44|244:56|244:56|316:56,1,154.000004699707,0|8,0:0|0:0,0:0:0:0:
307,56,83285,2,0,P|320:116|304:220,1,154.000004699707,0|8,0:0|0:0,0:0:0:0:
244,272,84185,1,0,0:0:0:0:
156,244,84486,6,0,B|120:248|120:248|72:244,2,77.0000023498536,0|0|0,0:0|0:0|0:0,0:0:0:0:
244,272,85386,1,0,0:0:0:0:
244,180,85687,2,0,P|184:140|92:160,1,154.000004699707,0|8,0:0|0:0,0:0:0:0:
244,180,86888,6,0,P|304:220|396:200,1,154.000004699707,0|8,0:0|0:0,0:0:0:0:
444,140,87789,1,0,0:0:0:0:
444,140,88089,2,0,L|448:48,1,77.0000023498536
360,88,88689,2,0,L|364:-4,1,77.0000023498536,8|0,0:0|0:0,0:0:0:0:
363,11,89290,6,0,B|284:-4|284:-4|196:4,2,154.000004699707,0|8|0,0:0|0:0|0:0,0:0:0:0:
416,88,90791,1,0,0:0:0:0:
432,180,91092,1,8,0:0:0:0:
404,268,91392,1,0,0:0:0:0:
404,268,91692,6,0,P|328:248|252:268,1,154.000004699707,0|2,0:0|0:0,0:0:0:0:
88,176,92893,2,0,P|164:196|240:176,1,154.000004699707,0|2,0:0|0:0,0:0:0:0:
400,88,94094,6,0,P|324:68|248:88,1,154.000004699707,0|2,0:0|0:0,0:0:0:0:
180,144,94995,1,0,0:0:0:0:
180,144,95295,2,0,L|252:184,1,77.0000023498536
268,272,95896,2,0,L|340:312,1,77.0000023498536,2|0,0:0|0:0,0:0:0:0:
335,309,96496,6,0,B|356:268|408:264|408:264|396:212|452:152,1,154.000004699707,0|2,0:0|0:0,0:0:0:0:
464,124,97397,2,0,L|464:39,1,77.0000023498536,0|0,0:0|0:0,0:0:0:0:
372,60,97998,2,0,L|268:44,1,77.0000023498536,0|2,0:0|0:0,0:0:0:0:
220,104,98598,1,0,0:0:0:0:
220,104,98899,6,0,B|208:176|252:176|220:272,1,154.000004699707,0|2,0:0|0:0,0:0:0:0:
224,255,100100,2,0,B|180:252|180:252|132:256,3,77.0000023498536,0|0|2|0,0:0|0:0|0:0|0:0,0:0:0:0:
72,292,101301,6,0,B|52:236|52:236|68:128,1,154.000004699707
136,76,102202,1,0,0:0:0:0:
164,164,102502,1,0,0:0:0:0:
224,96,102802,2,0,P|260:80|312:84,1,77.0000023498536
380,116,103403,1,0,0:0:0:0:
380,116,103703,6,0,P|440:128|516:72,1,154.000004699707
336,28,104904,6,0,P|284:80|292:160,1,154.000004699707
268,244,105805,1,0,0:0:0:0:
180,220,106105,6,0,B|160:232|132:236|132:236|104:224,1,77.0000023498536
64,144,106706,2,0,B|84:132|112:128|112:128|140:140,1,77.0000023498536
180,220,107306,2,0,P|232:168|328:196,1,154.000004699707
264,260,108207,1,0,0:0:0:0:
264,260,108507,6,0,L|220:96,1,154.000004699707
296,52,109408,1,0,0:0:0:0:
296,52,109708,6,0,L|335:200,1,154.000004699707
412,256,110609,1,0,0:0:0:0:
448,172,110909,6,0,P|456:140|488:104,1,77.0000023498536
416,40,111510,2,0,P|328:72|232:32,1,154.000004699707,2|0,0:0|0:0,0:0:0:0:
192,12,112411,1,0,0:0:0:0:
188,104,112711,2,0,L|184:188,1,77.0000023498536,2|0,0:0|0:0,0:0:0:0:
104,224,113312,6,0,L|107:147,1,77.0000023498536,0|0,0:0|0:0,0:0:0:0:
188,104,113912,2,0,B|244:96|244:96|352:112,1,154.000004699707,2|0,0:0|0:0,0:0:0:0:
388,188,114813,1,0,0:0:0:0:
388,188,115113,2,0,B|332:196|332:196|224:180,1,154.000004699707,2|0,0:0|0:0,0:0:0:0:
96,60,116314,6,0,P|92:96|96:140,1,77.0000023498536,2|0,0:0|0:0,0:0:0:0:
184,104,116915,2,0,P|187:65|183:27,1,77.0000023498536
272,56,117515,2,0,P|268:92|272:136,1,77.0000023498536,2|0,0:0|0:0,0:0:0:0:
352,176,118116,6,0,L|512:176,1,154.000004699707,0|2,0:0|0:0,0:0:0:0:
356,284,119317,1,0,0:0:0:0:
276,240,119617,1,0,0:0:0:0:
196,288,119918,1,0,0:0:0:0:
120,236,120218,1,0,0:0:0:0:
44,272,120518,1,4,0:0:0:0:
256,192,120668,12,0,125472,0:0:0:0:
