osu file format v11

[General]
AudioFilename: jun feat - Schanita - TRUE LOVE.mp3
AudioLeadIn: 2000
PreviewTime: 42605
Countdown: 0
SampleSet: Normal
StackLeniency: 0.7
Mode: 0
LetterboxInBreaks: 0

[Editor]
DistanceSpacing: 0.4
BeatDivisor: 4
GridSize: 8

[Metadata]
Title:TRUE LOVE
TitleUnicode:TRUE LOVE
Artist:Jun feat. Schanita
ArtistUnicode:Jun feat. Schanita
Creator:KanpanRin
Version:Extreme
Source:Dance Dance Revolution SuperNOVA
Tags:ddr jubeat konami bemani
BeatmapID:195373
BeatmapSetID:67173

[Difficulty]
HPDrainRate:7
CircleSize:4
OverallDifficulty:7
ApproachRate:9
SliderMultiplier:1.8
SliderTickRate:1

[Events]
//Background and Video events
0,0,"true love.jpg"
//Break Periods
//Storyboard Layer 0 (Background)
//Storyboard Layer 1 (Fail)
//Storyboard Layer 2 (Pass)
//Storyboard Layer 3 (Foreground)
//Storyboard Sound Samples
//Background Colour Transformations
3,100,163,162,255

[TimingPoints]
478,319.148936170213,4,1,0,85,1,0
52818,-100,4,1,0,85,0,1
63031,-100,4,1,0,85,0,0
73882,-133.333333333333,4,1,0,85,0,0
84095,-100,4,1,0,85,0,1
94467,-100,4,1,0,85,0,0

[Colours]
Combo1 : 255,26,140
Combo2 : 255,196,225
Combo3 : 251,74,167

[HitObjects]
64,112,478,2,0,P|152:64|240:88,1,180,0|8,0:0|0:0,0:0:0
64,112,956,1,0,0:0:0
392,200,1116,2,0,P|336:232|296:200,1,90
104,264,1435,1,8,0:0:0
168,312,1595,1,0,0:0:0
248,320,1754,1,0,0:0:0
328,296,1914,1,0,0:0:0
80,152,2073,2,0,P|120:112|120:64,2,90,8|0|0,0:0|0:0|0:0,0:0:0
256,48,2552,2,8,P|296:104|352:112,2,90
456,288,3031,6,0,P|352:280,2,90,0|0|8,0:0|0:0|0:0,0:0:0
48,248,3509,2,0,P|144:248|144:248|240:208,1,180,0|8,0:0|0:0,0:0:0
416,112,3988,2,0,P|368:112|368:112|320:96,1,90
120,48,4307,1,0,0:0:0
80,200,4467,1,0,0:0:0
192,112,4626,1,8,0:0:0
48,112,4786,1,0,0:0:0
168,200,4946,2,0,P|72:200,1,90
320,272,5265,2,0,P|416:272,1,90,8|0,0:0|0:0,0:0:0
104,352,5584,6,0,P|48:320|48:264|96:224|152:248,1,180,0|8,0:0|0:0,0:0:0
288,336,6063,2,0,P|336:352|392:320,1,90
456,160,6382,2,0,P|400:128|360:144,1,90,0|8,0:0|0:0,0:0:0
168,144,6701,1,0,0:0:0
320,208,6860,1,0,0:0:0
160,240,7020,1,0,0:0:0
280,128,7180,1,8,0:0:0
96,56,7339,6,8,P|64:104|64:160,1,90
96,56,7658,1,0,0:0:0
208,40,7818,2,8,P|312:48,1,90
208,40,8137,1,0,0:0:0
408,208,8297,2,8,P|408:88,1,90
408,208,8616,2,0,P|304:240|288:312,1,180
192,224,9095,2,0,P|208:168|256:128,1,90
88,336,9414,5,6,0:0:0
112,24,9653,1,6,0:0:0
424,48,9893,1,6,0:0:0
400,360,10052,1,6,0:0:0
256,192,10371,1,6,0:0:0
256,192,10690,12,0,15797,0:0:0
200,112,15956,6,0,P|144:88,2,45,0|0|8,0:0|0:0|0:0,0:0:0
96,184,16275,2,0,P|48:160,2,45,0|0|0,0:0|0:0|0:0,0:0:0
216,312,16595,1,0,0:0:0
264,312,16674,1,0,0:0:0
304,304,16754,1,8,0:0:0
344,280,16834,1,0,0:0:0
376,248,16914,1,8,0:0:0
416,120,17073,6,0,P|472:136|464:192,1,90
416,120,17313,2,0,P|368:112,1,45,0|8,0:0|0:0,0:0:0
192,168,17552,2,0,P|256:176,1,45
144,200,17712,2,0,P|48:192,1,90
56,240,17951,1,0,0:0:0
72,280,18031,1,8,0:0:0
112,304,18110,1,0,0:0:0
160,312,18190,1,8,0:0:0
432,320,18350,6,0,P|400:232,1,90
368,136,18589,2,0,P|382:188,1,45,0|8,0:0|0:0,0:0:0
192,120,18829,2,0,P|208:64,2,45
32,160,19148,1,0,0:0:0
56,200,19228,1,0,0:0:0
96,216,19307,1,8,0:0:0
136,232,19387,1,0,0:0:0
176,256,19467,1,8,0:0:0
224,264,19547,1,0,0:0:0
264,256,19626,6,4,P|304:208|304:168,1,90
440,320,19946,2,4,P|384:304|336:328,1,90
464,48,20265,1,4,0:0:0
440,192,20424,1,4,0:0:0
320,32,20584,1,4,0:0:0
296,176,20743,1,4,0:0:0
80,72,20903,6,0,P|144:56|192:72,1,90,0|8,0:0|0:0,0:0:0
72,128,21142,2,8,P|48:128|24:144,1,45
176,272,21382,1,0,0:0:0
176,272,21462,1,0,0:0:0
176,272,21541,2,0,P|296:296,2,90,8|0|8,0:0|0:0|0:0,0:0:0
448,328,22180,6,0,P|376:256,1,90
176,272,22499,2,0,P|288:264,1,90,8|0,0:0|0:0,0:0:0
176,272,22978,1,8,0:0:0
144,80,23456,5,0,0:0:0
80,120,23616,1,0,0:0:0
64,192,23775,1,8,0:0:0
88,256,23935,1,0,0:0:0
256,192,24254,1,8,0:0:0
424,128,24733,6,0,P|456:192|456:240,1,90,0|8,0:0|0:0,0:0:0
256,192,25052,2,0,P|224:144|216:96,1,90,8|0,0:0|0:0,0:0:0
256,192,25531,1,8,0:0:0
88,296,25850,6,0,P|144:304,1,45
32,216,26009,2,0,P|48:312,1,90
208,192,26329,2,0,P|192:88,1,90,8|0,0:0|0:0,0:0:0
440,352,26648,1,0,0:0:0
440,216,26807,1,8,0:0:0
368,280,26967,1,8,0:0:0
368,144,27126,1,0,0:0:0
120,72,27286,6,0,P|16:40,1,90
256,112,27605,2,0,P|360:144,1,90,8|0,0:0|0:0,0:0:0
144,232,28084,1,8,0:0:0
424,304,28563,5,0,0:0:0
424,216,28722,2,8,P|424:312,1,90
72,176,29041,2,0,P|72:72|152:40,1,180,0|8,0:0|0:0,0:0:0
392,88,29839,6,0,P|336:88|280:120,1,90
368,184,30158,1,8,0:0:0
176,256,30318,2,0,P|224:168|184:104,1,180,0|8,0:0|0:0,0:0:0
56,184,30956,5,0,0:0:0
48,120,31036,1,0,0:0:0
88,64,31116,2,0,P|128:40|200:48,1,90
296,144,31435,2,0,P|256:168|192:160,1,90,8|0,0:0|0:0,0:0:0
408,264,31754,1,0,0:0:0
456,200,31914,1,0,0:0:0
472,120,32073,1,8,0:0:0
432,48,32233,1,0,0:0:0
80,320,32392,6,2,P|192:304,1,90,2|0,0:0|0:0,0:0:0
64,248,32712,1,2,0:0:0
296,224,32871,2,0,P|296:272,1,45,0|0,0:0|0:0,0:0:0
264,216,33031,2,0,P|200:208|184:176,1,90,2|0,0:0|0:0,0:0:0
344,120,33350,1,2,0:0:0
344,120,33509,1,0,0:0:0
176,56,33669,2,0,P|128:56|64:104,1,90
376,312,33988,2,0,P|384:256,2,45,8|0|0,0:0|0:0|0:0,0:0:0
200,320,34307,2,0,P|96:312,1,90
400,80,34626,2,0,P|392:136,2,45,8|0|0,0:0|0:0|0:0,0:0:0
136,216,34946,6,0,P|40:184,1,90,2|0,0:0|0:0,0:0:0
176,144,35265,1,2,0:0:0
296,320,35424,1,0,0:0:0
256,328,35504,1,0,0:0:0
216,312,35584,2,0,P|232:248|264:232,1,90,2|0,0:0|0:0,0:0:0
376,72,35903,2,0,P|440:120|432:144,1,90,2|0,0:0|0:0,0:0:0
376,72,36142,2,0,P|312:64,1,45
96,80,36382,2,0,P|160:64|224:80,1,90,0|8,0:0|0:0,0:0:0
56,184,36701,2,0,P|120:184,1,45
200,224,36860,2,0,P|176:136,1,90
288,272,37180,1,8,0:0:0
328,360,37339,1,0,0:0:0
424,88,37499,6,0,P|464:184,1,90,2|0,0:0|0:0,0:0:0
320,64,37818,1,2,0:0:0
152,192,37978,2,0,P|152:256,1,45
88,184,38137,2,0,P|88:72,1,90,2|0,0:0|0:0,0:0:0
320,216,38456,2,0,P|368:240|432:240,1,90,2|0,0:0|0:0,0:0:0
208,80,38775,1,0,0:0:0
128,72,38935,1,0,0:0:0
64,128,39095,1,8,0:0:0
48,208,39254,2,0,P|104:208|160:256,1,90
272,320,39573,2,0,P|224:352|160:336,2,90,0|8|0,0:0|0:0|0:0,0:0:0
480,208,40052,6,0,P|400:256|472:288,1,180,0|8,0:0|0:0,0:0:0
272,64,40531,2,0,P|320:144|352:72,1,180
48,232,41009,2,0,P|128:184|56:152,1,180,8|0,0:0|0:0,0:0:0
128,136,41408,5,0,0:0:0
168,144,41488,1,0,0:0:0
192,176,41568,1,0,0:0:0
192,216,41648,1,0,0:0:0
176,256,41728,1,0,0:0:0
144,280,41807,1,0,0:0:0
104,296,41887,1,0,0:0:0
144,280,41967,1,0,0:0:0
176,256,42047,1,0,0:0:0
216,256,42126,1,0,0:0:0
256,264,42206,1,0,0:0:0
288,288,42286,1,0,0:0:0
304,328,42366,1,0,0:0:0
288,288,42446,1,0,0:0:0
320,264,42525,1,0,0:0:0
344,232,42605,6,0,P|424:288|488:224,1,180,4|8,0:0|0:0,0:0:0
272,112,43084,2,0,P|232:136|160:112,1,90
368,48,43403,2,0,P|416:56|440:96,1,90,0|8,0:0|0:0,0:0:0
120,104,43722,1,0,0:0:0
88,176,43882,1,0,0:0:0
112,256,44041,1,0,0:0:0
184,288,44201,1,8,0:0:0
408,296,44360,2,0,P|384:360,1,45
328,256,44520,2,0,P|368:160,1,90
224,160,44839,2,0,P|304:96,1,90,8|0,0:0|0:0,0:0:0
104,56,45158,6,0,P|56:56|8:96,1,90
144,208,45478,2,0,P|192:240|248:216,1,90,8|0,0:0|0:0,0:0:0
456,112,45797,1,0,0:0:0
456,112,45876,1,0,0:0:0
456,112,45956,2,0,P|472:8,1,90,0|8,0:0|0:0,0:0:0
320,216,46275,2,0,P|296:312,2,90,0|2|2,0:0|0:0|0:0,0:0:0
80,72,46754,2,0,P|136:32|168:32,1,90,2|2,0:0|0:0,0:0:0
320,216,47073,1,0,0:0:0
112,184,47233,1,0,0:0:0
232,304,47392,1,8,0:0:0
24,272,47552,1,0,0:0:0
232,304,47712,6,0,P|328:296|352:208,1,180,4|8,0:0|0:0,0:0:0
232,304,48190,2,0,P|192:280|128:296,1,90
320,216,48509,2,0,P|296:168|256:152,1,90,0|8,0:0|0:0,0:0:0
64,208,48829,1,0,0:0:0
256,120,48988,1,0,0:0:0
208,224,49148,1,0,0:0:0
64,88,49307,1,8,0:0:0
368,48,49467,2,0,P|440:112|432:224,1,180
368,48,49946,1,8,0:0:0
256,32,50105,1,0,0:0:0
72,280,50265,6,0,P|56:176,1,90
208,280,50584,2,0,P|232:192,1,90,8|0,0:0|0:0,0:0:0
480,336,50903,1,0,0:0:0
368,312,51063,1,0,0:0:0
432,280,51222,1,8,0:0:0
304,240,51382,1,0,0:0:0
72,128,51541,5,6,0:0:0
192,64,51781,1,6,0:0:0
344,80,52020,1,6,0:0:0
480,184,52180,2,6,P|400:248|304:232,1,180
56,304,52818,6,0,P|96:328|136:320,1,90,4|0,0:0|0:0,0:0:0
344,352,53137,2,0,P|312:312|320:256,1,90,8|0,0:0|0:0,0:0:0
176,104,53456,1,0,0:0:0
144,48,53616,1,0,0:0:0
80,48,53775,1,8,0:0:0
40,96,53935,1,0,0:0:0
312,80,54095,6,0,P|376:72|424:80,1,90
304,224,54414,2,0,P|256:232|208:216,1,90,8|0,0:0|0:0,0:0:0
48,296,54733,2,0,P|128:336,1,90
48,296,55052,1,8,0:0:0
128,336,55212,1,0,0:0:0
432,336,55371,6,0,P|464:296|472:240,2,90,0|0|8,0:0|0:0|0:0,0:0:0
240,192,55850,2,0,P|296:200|336:184,2,90
128,80,56329,2,0,P|80:80|32:104,1,90,8|0,0:0|0:0,0:0:0
240,320,56648,6,0,P|352:320|376:232,1,180,2|2,0:0|0:0,0:0:0
184,208,57126,2,0,P|120:184|40:256,1,180,2|2,0:0|0:0,0:0:0
256,96,57605,2,0,P|320:184|416:176,1,180,0|4,0:0|0:0,0:0:0
144,80,58084,6,0,P|48:64,1,90,0|8,0:0|0:0,0:0:0
55,65,58403,1,0,0:0:0
168,184,58563,2,0,P|72:168,1,90,0|0,0:0|0:0,0:0:0
79,169,58882,1,8,0:0:0
168,184,59041,1,0,0:0:0
408,328,59201,6,0,P|432:288|432:288|448:232,1,90
264,304,59520,2,0,P|224:328|224:328|192:368,1,90,8|0,0:0|0:0,0:0:0
79,169,59839,1,0,0:0:0
152,152,59999,1,0,0:0:0
208,104,60158,1,8,0:0:0
240,40,60318,1,0,0:0:0
79,169,60478,6,0,P|24:192|-8:224,1,90
176,264,60797,2,0,P|128:256|80:272,1,90,8|0,0:0|0:0,0:0:0
344,336,61116,1,0,0:0:0
344,192,61275,1,0,0:0:0
408,264,61435,1,8,0:0:0
408,120,61595,1,0,0:0:0
72,160,61754,6,0,P|128:184|168:176,1,90
72,160,62073,1,8,0:0:0
440,160,62233,2,0,P|384:184|344:176,1,90
440,160,62552,1,0,0:0:0
472,200,62632,1,0,0:0:0
456,248,62712,1,8,0:0:0
408,264,62791,1,0,0:0:0
360,272,62871,1,0,0:0:0
312,288,62951,1,0,0:0:0
264,304,63031,6,0,P|208:320|136:304,1,90
136,312,63270,1,0,0:0:0
104,288,63350,1,8,0:0:0
144,144,63509,1,0,0:0:0
184,160,63589,1,0,0:0:0
200,200,63669,1,0,0:0:0
48,56,63829,2,0,P|48:112,1,45
96,40,63988,2,0,P|120:96,1,45,8|0,0:0|0:0,0:0:0
136,16,64148,2,0,P|176:56,1,45,8|0,0:0|0:0,0:0:0
184,8,64307,6,0,P|272:48,1,90
296,112,64547,2,0,P|240:88,1,45,0|8,0:0|0:0,0:0:0
440,288,64786,2,0,P|432:232,2,45
304,336,65105,1,0,0:0:0
264,328,65185,1,0,0:0:0
224,336,65265,1,8,0:0:0
184,328,65345,1,0,0:0:0
144,336,65424,1,8,0:0:0
104,320,65504,1,0,0:0:0
72,336,65584,2,0,P|104:288|96:240,1,90
102,257,65823,1,0,0:0:0
64,248,65903,2,0,P|48:200|88:160,1,90,8|0,0:0|0:0,0:0:0
67,169,66142,1,0,0:0:0
88,136,66222,2,0,P|132:150|188:142,1,90
208,128,66462,2,0,P|160:88,1,45,0|8,0:0|0:0,0:0:0
216,96,66621,2,0,P|184:64,1,45,0|8,0:0|0:0,0:0:0
224,64,66781,2,0,P|192:32,1,45
336,40,67020,5,0,0:0:0
368,48,67100,1,0,0:0:0
392,72,67180,1,8,0:0:0
400,104,67259,1,0,0:0:0
384,136,67339,1,0,0:0:0
416,144,67419,1,0,0:0:0
352,160,67499,1,0,0:0:0
336,184,67579,1,0,0:0:0
352,208,67658,1,0,0:0:0
368,240,67738,1,0,0:0:0
384,272,67818,1,8,0:0:0
336,248,67898,1,0,0:0:0
304,248,67978,1,0,0:0:0
280,232,68057,1,0,0:0:0
248,240,68137,1,0,0:0:0
232,336,68297,5,0,0:0:0
272,336,68376,1,0,0:0:0
312,320,68456,1,8,0:0:0
144,232,68616,1,0,0:0:0
104,248,68696,1,0,0:0:0
64,248,68775,1,0,0:0:0
192,72,68935,1,0,0:0:0
232,64,69015,1,0,0:0:0
272,56,69095,1,8,0:0:0
312,56,69174,1,0,0:0:0
352,56,69254,1,8,0:0:0
392,72,69334,1,0,0:0:0
424,96,69414,6,0,P|368:56|336:64,1,90
352,56,69653,2,0,P|352:120,1,45,0|8,0:0|0:0,0:0:0
272,240,69892,2,0,P|272:176,1,45
272,240,70052,2,0,P|216:232|160:256,1,90
160,272,70291,1,0,0:0:0
184,240,70371,1,8,0:0:0
184,192,70451,1,0,0:0:0
160,152,70531,1,8,0:0:0
120,144,70610,1,0,0:0:0
80,168,70690,6,0,P|40:136|32:96,1,90,4|0,0:0|0:0,0:0:0
224,56,71009,5,4,0:0:0
312,56,71169,1,0,0:0:0
264,128,71329,1,4,0:0:0
368,128,71488,1,0,0:0:0
312,192,71648,1,4,0:0:0
440,192,71807,1,0,0:0:0
120,336,71967,5,0,0:0:0
120,320,72047,1,0,0:0:0
120,304,72126,1,0,0:0:0
120,288,72206,1,0,0:0:0
120,272,72286,1,0,0:0:0
120,256,72366,1,0,0:0:0
120,240,72446,1,0,0:0:0
120,224,72525,1,0,0:0:0
120,208,72605,1,0,0:0:0
120,192,72685,1,0,0:0:0
120,176,72765,1,0,0:0:0
120,160,72845,1,0,0:0:0
120,144,72924,2,0,P|120:120,20,22.5
304,40,73882,6,0,P|344:96|424:104,1,135.000005149842,4|8,0:0|0:0,0:0:0
184,104,74520,1,0,0:0:0
160,96,74680,1,0,0:0:0
136,88,74839,1,8,0:0:0
112,80,74999,1,0,0:0:0
88,72,75158,1,0,0:0:0
248,232,75318,2,0,P|320:256,2,67.5000025749208,0|8|0,0:0|0:0|0:0,0:0:0
312,253,75797,1,0,0:0:0
128,304,75956,2,0,P|48:272,2,67.5000025749208,0|8|0,0:0|0:0|0:0,0:0:0
432,312,76435,6,0,P|400:256|432:184,1,135.000005149842,0|8,0:0|0:0,0:0:0
256,184,76914,2,0,P|320:152|336:88,1,135.000005149842,0|0,0:0|0:0,0:0:0
160,104,77392,2,0,P|80:96,2,67.5000025749208,8|0|2,0:0|0:0|0:0,0:0:0
32,208,77871,2,2,P|120:216,1,67.5000025749208,0|2,0:0|0:0,0:0:0
456,344,78190,2,0,P|320:184|360:88,1,337.500012874604,2|4,0:0|0:0,0:0:0
112,112,79307,6,0,P|176:152,1,67.5000025749208,8|0,0:0|0:0,0:0:0
360,80,79626,2,0,P|280:56,1,67.5000025749208
128,304,79946,2,0,P|88:280|80:240,1,67.5000025749208,8|0,0:0|0:0,0:0:0
296,296,80265,1,0,0:0:0
208,256,80424,1,0,0:0:0
312,264,80584,1,8,0:0:0
208,256,80743,2,0,P|160:192|96:192,1,135.000005149842
328,144,81222,2,0,P|400:176|464:152,1,135.000005149842,8|4,0:0|0:0,0:0:0
256,64,81701,5,0,0:0:0
160,48,81860,1,8,0:0:0
80,112,82020,2,0,P|120:168|80:240,1,135.000005149842,0|0,0:0|0:0,0:0:0
312,320,82499,2,0,P|400:320,1,67.5000025749208,8|0,0:0|0:0,0:0:0
464,200,82818,5,6,0:0:0
256,64,83057,1,6,0:0:0
48,184,83297,1,6,0:0:0
256,320,83456,2,6,P|256:176,1,135.000005149842
464,200,84095,6,0,P|408:224|400:264,1,90,4|0,0:0|0:0,0:0:0
256,192,84414,1,8,0:0:0
400,96,84573,2,0,P|296:80,1,90
88,48,84892,2,0,P|192:64,1,90,0|8,0:0|0:0,0:0:0
64,272,85212,1,0,0:0:0
40,152,85371,1,0,0:0:0
152,344,85531,1,0,0:0:0
104,224,85690,1,8,0:0:0
328,344,85850,6,0,P|384:344|432:312,1,90
320,80,86169,6,0,P|320:184,1,90,0|8,0:0|0:0,0:0:0
104,224,86488,2,0,P|104:112,1,90
384,248,86807,1,0,0:0:0
304,240,86967,1,8,0:0:0
248,184,87126,1,0,0:0:0
248,104,87286,2,0,P|312:128|352:112,1,90
152,48,87605,2,0,P|96:32|56:48,1,90,8|0,0:0|0:0,0:0:0
152,336,87924,6,0,P|80:264|72:168,1,180,2|2,0:0|0:0,0:0:0
272,264,88403,2,0,P|376:288|416:216,1,180,2|2,0:0|0:0,0:0:0
280,112,88882,2,0,P|184:160|104:128,1,180,0|4,0:0|0:0,0:0:0
368,80,89360,6,0,P|416:104|456:168,1,90,0|8,0:0|0:0,0:0:0
232,56,89680,2,0,P|200:80|136:64,1,90
64,336,89999,1,0,0:0:0
136,296,90158,1,8,0:0:0
216,296,90318,1,0,0:0:0
288,328,90478,6,0,P|384:320,1,90
216,296,90797,2,0,P|304:264,1,90,8|0,0:0|0:0,0:0:0
56,168,91116,1,0,0:0:0
104,104,91275,1,0,0:0:0
176,144,91435,1,8,0:0:0
224,80,91595,1,0,0:0:0
432,240,91754,6,0,P|392:208|384:144,1,90
216,296,92073,2,0,P|168:320|120:296,2,90,8|0|0,0:0|0:0|0:0,0:0:0
72,224,92552,2,0,P|48:176|64:144,2,90,0|8|0,0:0|0:0|0:0,0:0:0
224,80,93031,6,0,P|128:64,1,90
312,96,93350,1,8,0:0:0
280,200,93509,2,0,P|184:184,1,90
368,216,93828,1,0,0:0:0
456,336,93988,6,0,P|456:312,12,22.5
