osu file format v12

[General]
AudioFilename: 1-26 - THE ARK.mp3
AudioLeadIn: 0
PreviewTime: 68900
Countdown: 0
SampleSet: Normal
StackLeniency: 0.2
Mode: 0
LetterboxInBreaks: 1
WidescreenStoryboard: 0

[Editor]
Bookmarks: 7,12757,26900,55186,61829,68900,84114,110471,119256,137471,164900
DistanceSpacing: 0.8
BeatDivisor: 4
GridSize: 8

[Metadata]
Title:The Ark
TitleUnicode:The Ark
Artist:Jun Senoue
ArtistUnicode:Jun Senoue
Creator:Geosus
Version:Hard
Source:Shadow the Hedgehog
Tags:Sonic Team SEGA Final Rush
BeatmapID:224174
BeatmapSetID:78134

[Difficulty]
HPDrainRate:6
CircleSize:4
OverallDifficulty:6
ApproachRate:7
SliderMultiplier:1.8
SliderTickRate:2

[Events]
//Background and Video events
0,0,"spacecolonyark.jpg",0,0
//Break Periods
2,55389,60932
2,110674,119432
//Storyboard Layer 0 (Background)
//Storyboard Layer 1 (Fail)
//Storyboard Layer 2 (Pass)
//Storyboard Layer 3 (Foreground)
//Storyboard Sound Samples
//Background Colour Transformations
3,100,163,162,255

[TimingPoints]
332,428.571428571429,4,1,0,75,1,0
68903,-100,4,1,0,75,0,1
70617,-80,4,1,0,75,0,1
72117,-100,4,1,0,75,0,1
74260,-100,4,1,0,50,0,1
75546,-100,4,1,0,75,0,1
77474,-80,4,1,0,75,0,1
78760,-100,4,1,0,75,0,1
81117,-100,4,1,0,50,0,1
82617,-100,4,1,0,50,0,0
88617,-153.846153846154,4,1,0,50,0,0
89367,-100,4,1,0,50,0,0
123760,-100,4,1,0,75,0,0
137474,-100,4,1,0,75,0,1
164903,-100,4,1,0,5,0,0

[Colours]
Combo1 : 90,181,74
Combo2 : 79,58,105
Combo3 : 185,70,70
Combo4 : 250,247,114

[HitObjects]
80,176,13189,53,2,0:0:0:0:
144,144,13403,2,0,L|168:96,1,45,2|0,0:0|0:0,0:0:0:0:
200,120,13617,2,0,L|224:72,1,45,2|0,0:0|0:0,0:0:0:0:
256,96,13832,2,0,L|280:48,1,45,2|0,0:0|0:0,0:0:0:0:
312,72,14046,1,0,0:0:0:0:
376,112,14260,5,8,0:0:0:0:
440,72,14474,2,0,P|448:216|432:240,1,180,0|12,0:0|0:0,0:0:0:0:
368,208,15117,1,0,0:0:0:0:
304,248,15332,1,12,0:0:0:0:
256,192,15546,1,0,0:0:0:0:
136,112,15974,1,8,0:0:0:0:
72,72,16189,2,0,P|64:136|144:208,1,180,0|12,0:0|0:0,0:0:0:0:
208,248,16832,1,0,0:0:0:0:
256,192,17046,1,12,0:0:0:0:
224,32,17689,5,8,0:0:0:0:
288,64,17903,1,0,0:0:0:0:
288,208,18332,2,0,P|312:248|352:248,1,90,8|0,0:0|0:0,0:0:0:0:
376,176,18760,2,0,P|416:176|440:216,1,90,8|0,0:0|0:0,0:0:0:0:
416,288,19189,1,4,0:0:0:0:
256,192,19403,12,0,20474,0:0:0:0:
440,304,21117,6,0,P|392:312|352:304,1,90,8|0,0:0|0:0,0:0:0:0:
256,192,21760,2,0,P|248:144|256:104,3,90,8|0|8|0,0:0|0:0|0:0|0:0,0:0:0:0:
120,152,22832,2,0,P|112:192|120:240,1,90,8|0,0:0|0:0,0:0:0:0:
184,272,23260,1,0,0:0:0:0:
256,280,23474,2,4,P|288:192|256:192,1,180,12|12,0:0|0:0,0:0:0:0:
56,288,24546,5,8,0:0:0:0:
120,328,24760,2,0,P|184:304|120:256,1,180,0|8,0:0|0:0,0:0:0:0:
120,328,25403,1,0,0:0:0:0:
122,254,25617,1,8,0:0:0:0:
120,328,25832,1,0,0:0:0:0:
184,288,26046,1,4,0:0:0:0:
464,232,26903,5,2,0:0:0:0:
408,280,27117,2,2,L|360:280,3,45
328,280,27546,2,0,P|272:256|264:232,1,90,2|0,0:0|0:0,0:0:0:0:
328,192,27974,1,0,0:0:0:0:
400,192,28189,6,0,B|400:128,3,45,8|0|0|0,0:0|0:0|0:0|0:0,0:0:0:0:
368,128,28617,1,0,0:0:0:0:
440,128,28832,2,0,B|432:72|400:56|368:48|336:56|304:72|296:128|296:128|288:152|256:152,1,270,0|0,0:0|0:0,0:0:0:0:
112,192,29903,2,0,B|112:256,3,45,8|0|0|0,0:0|0:0|0:0|0:0,0:0:0:0:
144,256,30331,1,0,0:0:0:0:
72,256,30546,2,0,B|80:312|112:328|144:336|176:328|208:312|216:256|216:256|224:232|256:232,1,270,0|0,0:0|0:0,0:0:0:0:
312,184,31403,5,0,0:0:0:0:
368,232,31617,1,8,0:0:0:0:
368,232,31724,1,0,0:0:0:0:
368,232,31832,1,8,0:0:0:0:
312,280,32046,1,0,0:0:0:0:
256,232,32260,1,4,0:0:0:0:
152,336,32689,6,0,P|136:288|144:248,1,90,0|8,0:0|0:0,0:0:0:0:
216,264,33117,1,0,0:0:0:0:
296,264,33332,1,8,0:0:0:0:
184,168,33760,1,4,0:0:0:0:
328,168,34189,1,12,0:0:0:0:
256,176,34403,1,8,0:0:0:0:
256,104,34617,1,4,0:0:0:0:
256,104,34832,1,0,0:0:0:0:
256,32,35046,6,8,L|208:32,1,45,8|0,0:0|0:0,0:0:0:0:
192,64,35260,2,0,L|144:64,1,45
128,96,35474,2,0,P|96:120|48:120,1,90
48,192,35903,1,8,0:0:0:0:
120,208,36117,2,0,P|184:224|192:240,1,90,8|4,0:0|0:0,0:0:0:0:
56,280,36760,2,8,L|88:320,3,45,8|0|0|0,0:0|0:0|0:0|0:0,0:0:0:0:
120,312,37189,1,0,0:0:0:0:
192,312,37403,1,8,0:0:0:0:
192,240,37617,1,0,0:0:0:0:
264,240,37832,2,0,P|288:200|264:168,1,90,8|4,0:0|0:0,0:0:0:0:
336,168,38260,5,0,0:0:0:0:
336,96,38474,2,0,P|308:32|264:96,1,180,8|0,0:0|0:0,0:0:0:0:
264,168,39117,1,4,0:0:0:0:
408,144,39546,6,2,B|408:160|416:168|416:168|408:176|400:184|400:184|408:192|416:200|416:200|408:208|400:216|400:216|407:224|416:232|416:232|408:240|400:248|400:248|409:255|416:264|416:264|408:272|408:288,1,180,8|2,0:0|0:0,0:0:0:0:
472,320,40189,2,0,P|376:344|336:288,3,180,10|6|6|0,0:0|0:0|0:0|0:0,0:0:0:0:
336,288,41689,1,0,0:0:0:0:
264,264,41903,6,8,L|224:296,3,45,8|0|0|0,0:0|0:0|0:0|0:0,0:0:0:0:
224,256,42332,1,0,0:0:0:0:
168,216,42546,2,0,P|80:216|112:80,1,270,0|0,0:0|0:0,0:0:0:0:
128,152,43403,1,0,0:0:0:0:
184,104,43617,2,0,L|248:104,1,45,8|0,0:0|0:0,0:0:0:0:
232,144,43832,2,0,L|296:144,1,45
288,176,44046,1,0,0:0:0:0:
288,104,44260,2,2,P|264:32|336:48,1,180,2|0,0:0|0:0,0:0:0:0:
384,104,44903,5,0,0:0:0:0:
432,48,45117,1,0,0:0:0:0:
480,104,45332,1,8,0:0:0:0:
480,104,45439,1,0,0:0:0:0:
480,104,45546,1,0,0:0:0:0:
480,176,45760,1,0,0:0:0:0:
480,248,45974,1,4,0:0:0:0:
336,248,46403,6,0,P|324:176|408:176,1,180,0|0,0:0|0:0,0:0:0:0:
408,248,47046,1,8,0:0:0:0:
328,368,47474,2,0,L|368:328,2,45
184,368,47903,2,0,L|144:328,2,45
256,344,48332,21,0,0:0:0:0:
256,272,48546,1,0,0:0:0:0:
200,224,48760,2,0,B|224:184|224:184|192:152|224:120|256:112|288:120|320:152|288:184|288:184|312:224,1,270,8|4,0:0|0:0,0:0:0:0:
312,224,49832,1,0,0:0:0:0:
200,224,50046,1,8,0:0:0:0:
256,352,50474,1,0,0:0:0:0:
256,280,50689,1,0,0:0:0:0:
320,312,50903,2,8,B|440:312|440:208,2,180,8|0|8,0:0|0:0|0:0,0:0:0:0:
336,240,51974,38,0,B|312:208|280:192|280:192|208:176|168:144|168:88|216:48|296:48|344:88|344:144|304:176|232:192|232:192|200:208|176:240,1,540,8|4,0:0|0:0,0:0:0:0:
88,352,53689,1,0,0:0:0:0:
48,288,53903,1,4,0:0:0:0:
160,192,54332,2,2,P|208:184|232:152,1,90,0|8,0:0|0:0,0:0:0:0:
168,112,54760,2,2,P|192:80|240:80,1,90,0|10,0:0|0:0,0:0:0:0:
296,120,55189,1,4,0:0:0:0:
256,192,61832,5,0,0:0:0:0:
256,192,62046,1,4,0:0:0:0:
136,112,62474,2,8,P|88:112|56:136,1,90,8|8,0:0|0:0,0:0:0:0:
48,280,63117,2,8,P|96:280|128:256,1,90,8|8,0:0|0:0,0:0:0:0:
88,200,63546,1,8,0:0:0:0:
256,192,63760,1,4,0:0:0:0:
384,256,64189,5,8,0:0:0:0:
352,320,64403,2,0,P|312:272|368:184,1,180,8|0,0:0|0:0,0:0:0:0:
384,256,65046,1,8,0:0:0:0:
352,320,65260,1,8,0:0:0:0:
256,192,65474,1,4,0:0:0:0:
112,208,65903,5,8,0:0:0:0:
160,264,66117,1,8,0:0:0:0:
96,136,66546,2,0,P|104:88|128:56,1,90,0|8,0:0|0:0,0:0:0:0:
128,56,66974,1,8,0:0:0:0:
256,192,67189,1,4,0:0:0:0:
368,104,67617,5,8,0:0:0:0:
368,32,67832,1,8,0:0:0:0:
432,72,68046,1,2,0:0:0:0:
368,104,68260,2,2,L|368:168,2,45,2|2|10,0:0|0:0|0:0,0:0:0:0:
304,72,68689,1,10,0:0:0:0:
304,72,68903,22,0,P|256:64|216:72,1,90,0|8,0:0|0:0,0:0:0:0:
216,72,69332,1,0,0:0:0:0:
216,216,69760,2,0,P|112:200|88:136,1,180
112,72,70403,1,8,0:0:0:0:
192,104,70617,6,4,B|192:128|192:128|224:168|288:216|320:256|320:256|320:280,1,225,4|12,0:0|0:0,0:0:0:0:
352,192,71260,1,8,0:0:0:0:
320,104,71474,2,4,B|320:128|320:128|288:168|224:216|192:256|192:256|192:280,1,225,4|12,0:0|0:0,0:0:0:0:
160,192,72117,38,0,P|120:288|160:344,1,180,0|8,0:0|0:0,0:0:0:0:
232,344,72760,1,0,0:0:0:0:
304,344,72974,1,0,0:0:0:0:
304,272,73189,2,8,P|260:208|232:272,1,180,8|8,0:0|0:0,0:0:0:0:
304,272,73832,1,8,0:0:0:0:
232,272,74046,1,4,0:0:0:0:
256,192,74260,12,12,75546,0:0:0:0:
256,192,75760,21,0,0:0:0:0:
256,192,75974,1,8,0:0:0:0:
256,192,76189,2,0,P|296:152|328:144,1,90,0|0,0:0|0:0,0:0:0:0:
392,168,76617,1,4,0:0:0:0:
392,312,77046,2,0,P|352:360|328:368,1,90,4|8,0:0|0:0,0:0:0:0:
320,280,77474,6,4,B|320:256|320:256|288:216|224:168|192:128|192:128|192:104,1,225,4|12,0:0|0:0,0:0:0:0:
160,192,78117,1,8,0:0:0:0:
192,280,78331,2,4,B|192:256|192:256|224:216|288:168|320:128|320:128|320:104,1,225,4|12,0:0|0:0,0:0:0:0:
352,192,78974,37,0,0:0:0:0:
424,192,79189,2,0,P|448:152|424:120,2,90,0|8|0,0:0|0:0|0:0,0:0:0:0:
392,256,79832,1,0,0:0:0:0:
328,288,80046,1,8,0:0:0:0:
312,216,80260,1,0,0:0:0:0:
248,248,80474,1,8,0:0:0:0:
232,176,80689,1,0,0:0:0:0:
168,208,80903,1,4,0:0:0:0:
256,192,81117,12,4,82617,0:0:0:0:
184,288,84332,5,8,0:0:0:0:
192,216,84546,1,8,0:0:0:0:
192,184,84653,1,0,0:0:0:0:
176,152,84760,1,8,0:0:0:0:
376,224,85403,2,0,P|472:168|376:104,1,270,4|8,0:0|0:0,0:0:0:0:
312,64,86260,2,0,L|312:112,2,45,8|0|8,0:0|0:0|0:0,0:0:0:0:
248,104,86689,6,2,P|216:160|128:120,1,180,2|0,0:0|0:0,0:0:0:0:
56,104,87332,2,2,P|48:216|80:272,1,180,2|8,0:0|0:0,0:0:0:0:
144,240,87974,2,2,P|256:304|304:304,1,180,10|0,0:0|0:0,0:0:0:0:
344,328,88617,2,2,P|432:256|440:200,1,175.499991966248
440,200,89367,1,0,0:0:0:0:
440,200,89474,5,8,0:0:0:0:
392,144,89689,1,8,0:0:0:0:
344,200,89903,1,8,0:0:0:0:
272,200,90117,2,0,L|208:136,1,90,0|8,0:0|0:0,0:0:0:0:
144,176,90546,2,0,L|208:240,1,90,0|8,0:0|0:0,0:0:0:0:
144,280,90974,1,0,0:0:0:0:
80,248,91189,2,8,P|64:296|96:328,3,90,8|8|8|0,0:0|0:0|0:0|0:0,0:0:0:0:
144,280,92046,1,0,0:0:0:0:
192,336,92260,1,8,0:0:0:0:
200,192,92689,6,0,P|264:192|280:208,1,90,0|8,0:0|0:0,0:0:0:0:
280,280,93117,1,8,0:0:0:0:
280,280,93224,1,0,0:0:0:0:
280,280,93332,2,0,P|344:280|360:264,1,90,8|0,0:0|0:0,0:0:0:0:
416,216,93760,1,8,0:0:0:0:
360,168,93974,2,0,B|368:152|368:112|352:72|288:40|224:72|208:112|208:144|216:168,1,270,4|8,0:0|0:0,0:0:0:0:
288,152,94832,1,8,0:0:0:0:
288,184,94939,1,0,0:0:0:0:
288,216,95046,1,8,0:0:0:0:
416,152,95474,5,2,0:0:0:0:
472,192,95689,2,0,L|424:208,1,45,10|0,0:0|0:0,0:0:0:0:
440,240,95903,2,0,L|392:256,1,45,10|0,0:0|0:0,0:0:0:0:
408,288,96117,2,0,L|360:304,1,45,10|0,0:0|0:0,0:0:0:0:
376,336,96332,6,8,P|256:352|240:320,1,180,12|8,0:0|0:0,0:0:0:0:
312,296,96974,2,8,P|256:240|176:280,1,180,0|0,0:0|0:0,0:0:0:0:
240,320,97617,1,8,0:0:0:0:
176,280,97832,1,0,0:0:0:0:
240,320,98046,2,0,P|112:320|104:296,1,180,8|8,0:0|0:0,0:0:0:0:
40,256,98689,2,0,P|40:192|136:152,1,180,0|8,0:0|0:0,0:0:0:0:
112,224,99332,1,0,0:0:0:0:
136,152,99546,1,0,0:0:0:0:
200,112,99760,5,8,0:0:0:0:
232,176,99974,1,8,0:0:0:0:
264,184,100082,1,0,0:0:0:0:
296,184,100189,1,8,0:0:0:0:
360,152,100403,1,0,0:0:0:0:
400,216,100617,1,0,0:0:0:0:
432,152,100832,2,2,P|464:248|336:248,1,270,2|10,0:0|0:0,0:0:0:0:
400,216,101689,1,8,0:0:0:0:
400,216,101796,1,0,0:0:0:0:
400,216,101903,1,12,0:0:0:0:
200,304,102546,2,0,P|112:232|80:176,1,180
80,176,103189,5,4,0:0:0:0:
128,120,103403,1,8,0:0:0:0:
128,120,103510,1,0,0:0:0:0:
128,120,103617,1,8,0:0:0:0:
192,80,103832,1,0,0:0:0:0:
216,152,104046,1,8,0:0:0:0:
280,112,104260,1,0,0:0:0:0:
320,176,104474,1,8,0:0:0:0:
384,136,104689,1,0,0:0:0:0:
424,200,104903,1,8,0:0:0:0:
360,240,105117,1,8,0:0:0:0:
360,240,105224,1,0,0:0:0:0:
360,240,105332,1,8,0:0:0:0:
424,280,105546,6,0,P|296:280|288:256,1,180,0|8,0:0|0:0,0:0:0:0:
304,184,106189,1,0,0:0:0:0:
368,152,106403,1,8,0:0:0:0:
424,200,106617,1,12,0:0:0:0:
448,128,106832,2,0,L|432:80,1,45,8|0,0:0|0:0,0:0:0:0:
400,64,107046,1,8,0:0:0:0:
328,64,107260,1,0,0:0:0:0:
328,64,107689,2,0,P|192:120|184:64,1,270,4|8,0:0|0:0,0:0:0:0:
256,80,108546,1,8,0:0:0:0:
256,80,108653,1,0,0:0:0:0:
256,80,108760,1,8,0:0:0:0:
256,224,109189,5,10,0:0:0:0:
216,288,109403,2,0,L|192:248,1,45,10|0,0:0|0:0,0:0:0:0:
160,264,109617,2,0,L|152:216,1,45,10|0,0:0|0:0,0:0:0:0:
120,224,109832,2,0,L|120:176,1,45,2|0,0:0|0:0,0:0:0:0:
88,184,110046,2,4,P|72:120|72:96,1,90
72,96,110474,1,4,0:0:0:0:
152,296,120332,5,4,0:0:0:0:
88,256,120546,1,0,0:0:0:0:
152,296,120760,2,8,L|232:344,1,90
360,296,121189,1,4,0:0:0:0:
424,256,121403,1,0,0:0:0:0:
360,296,121617,2,8,L|280:344,1,90
224,296,122046,5,0,0:0:0:0:
288,256,122260,1,0,0:0:0:0:
224,216,122474,1,0,0:0:0:0:
288,176,122689,2,2,P|352:136|288:96,1,180
224,136,123332,1,4,0:0:0:0:
224,136,123760,5,4,0:0:0:0:
304,336,124403,1,0,0:0:0:0:
376,208,124832,2,2,P|336:72|224:64,1,270,0|10,0:0|0:0,0:0:0:0:
264,128,125689,1,10,0:0:0:0:
120,128,126117,2,2,P|144:208|232:224,1,180,8|2,0:0|0:0,0:0:0:0:
280,168,126760,2,10,P|296:232|288:264,1,90
360,224,127189,5,4,0:0:0:0:
176,344,127832,2,0,P|112:264|152:208,1,180,0|0,0:0|0:0,0:0:0:0:
184,272,128474,1,4,0:0:0:0:
184,272,128689,1,0,0:0:0:0:
224,208,128903,2,0,L|301:161,1,90,0|2,0:0|0:0,0:0:0:0:
344,224,129332,2,0,L|266:270,1,90,0|2,0:0|0:0,0:0:0:0:
224,208,129760,1,2,0:0:0:0:
184,144,129974,1,6,0:0:0:0:
56,216,130403,1,8,0:0:0:0:
104,272,130617,1,12,0:0:0:0:
272,136,131260,5,0,0:0:0:0:
416,136,131689,2,2,P|384:272|272:288,1,270,10|4,0:0|0:0,0:0:0:0:
296,216,132546,1,4,0:0:0:0:
64,272,132974,1,0,0:0:0:0:
64,128,133403,2,2,P|148:48|200:152,1,270,10|4,0:0|0:0,0:0:0:0:
136,120,134260,1,12,0:0:0:0:
136,192,134474,2,0,P|200:224|216:224,1,90,0|8,0:0|0:0,0:0:0:0:
200,152,134903,1,0,0:0:0:0:
272,176,135117,5,4,0:0:0:0:
368,72,135546,2,0,P|384:128|408:144,1,90,0|8,0:0|0:0,0:0:0:0:
456,88,135974,2,0,P|488:144|480:168,1,90,0|8,0:0|0:0,0:0:0:0:
424,216,136403,1,0,0:0:0:0:
384,280,136617,5,10,0:0:0:0:
368,296,136724,1,0,0:0:0:0:
344,304,136832,1,10,0:0:0:0:
320,304,136939,1,0,0:0:0:0:
296,296,137046,1,10,0:0:0:0:
280,288,137153,1,0,0:0:0:0:
264,272,137260,1,12,0:0:0:0:
256,256,137367,1,0,0:0:0:0:
256,240,137474,21,4,0:0:0:0:
256,96,137903,1,8,0:0:0:0:
328,112,138117,2,10,P|192:56|184:112,1,270,2|14,0:0|0:0,0:0:0:0:
184,112,139189,5,4,0:0:0:0:
152,256,139617,1,8,0:0:0:0:
120,192,139831,2,10,P|88:288|216:288,1,270,2|14,0:0|0:0,0:0:0:0:
216,288,140903,5,4,0:0:0:0:
360,256,141332,1,8,0:0:0:0:
392,192,141546,2,10,P|424:288|296:288,1,270,2|14,0:0|0:0,0:0:0:0:
160,240,142618,5,4,0:0:0:0:
248,128,143046,1,12,0:0:0:0:
248,272,143474,1,4,0:0:0:0:
336,160,143903,1,12,0:0:0:0:
336,304,144332,5,4,0:0:0:0:
192,320,144760,1,8,0:0:0:0:
144,264,144974,2,2,P|184:184|264:192,1,180,2|2,0:0|0:0,0:0:0:0:
288,264,145617,1,10,0:0:0:0:
216,248,145832,1,0,0:0:0:0:
264,336,146046,5,4,0:0:0:0:
392,256,146474,1,8,0:0:0:0:
392,256,146689,2,2,P|424:144|392:128,1,180,2|2,0:0|0:0,0:0:0:0:
392,128,147332,1,14,0:0:0:0:
328,192,147760,5,4,0:0:0:0:
184,192,148189,1,8,0:0:0:0:
232,136,148403,2,2,P|240:232|176:264,1,180,2|2,0:0|0:0,0:0:0:0:
112,232,149046,1,10,0:0:0:0:
104,160,149260,1,0,0:0:0:0:
160,112,149474,5,4,0:0:0:0:
200,48,149689,2,0,L|168:16,2,45,0|0|8,0:0|0:0|0:0,0:0:0:0:
256,152,150117,2,0,L|256:200,2,45
312,48,150546,2,0,L|344:16,2,45,0|0|8,0:0|0:0|0:0,0:0:0:0:
352,112,150974,1,0,0:0:0:0:
408,160,151189,5,4,0:0:0:0:
376,224,151403,2,0,L|416:248,2,45,0|0|8,0:0|0:0|0:0,0:0:0:0:
344,288,151832,2,2,P|288:312|256:304,1,90
256,232,152260,2,2,P|208:240|176:264,1,90,2|10,0:0|0:0,0:0:0:0:
192,336,152689,1,0,0:0:0:0:
112,224,152903,5,4,0:0:0:0:
88,152,153117,2,0,L|40:136,2,45,0|0|8,0:0|0:0|0:0,0:0:0:0:
144,104,153546,2,2,P|200:136|224:136,1,90
264,72,153974,2,2,P|320:96|336:120,1,90,2|14,0:0|0:0,0:0:0:0:
336,120,154617,5,4,0:0:0:0:
288,176,154832,2,0,L|328:208,2,45,0|0|8,0:0|0:0|0:0,0:0:0:0:
264,248,155260,2,2,P|304:296|328:304,1,90
384,256,155689,2,2,P|440:232|448:208,1,90,2|10,0:0|0:0,0:0:0:0:
384,176,156117,1,0,0:0:0:0:
408,40,156332,5,4,0:0:0:0:
104,40,156760,1,12,0:0:0:0:
104,344,157189,1,4,0:0:0:0:
408,344,157617,1,12,0:0:0:0:
256,192,158046,1,4,0:0:0:0:
256,192,158260,12,4,159760,0:0:0:0:
256,192,159974,12,4,161474,0:0:0:0:
280,304,161903,6,0,P|288:256|280:216,1,90,8|4,0:0|0:0,0:0:0:0:
224,80,162546,1,0,0:0:0:0:
224,80,162653,1,0,0:0:0:0:
224,80,162760,2,0,P|216:128|224:168,1,90,8|0,0:0|0:0,0:0:0:0:
296,144,163189,6,2,P|352:168|368:192,1,90,0|8,0:0|0:0,0:0:0:0:
440,208,163617,2,2,P|400:256|376:264,1,90,0|8,0:0|0:0,0:0:0:0:
304,288,164046,2,2,P|248:272|224:288,1,90,0|8,0:0|0:0,0:0:0:0:
152,280,164474,2,2,P|168:216|184:200,1,90,2|10,0:0|0:0,0:0:0:0:
256,192,164903,1,0,0:0:0:0:
