osu file format v9

[General]
AudioFilename: 05 Green Hill (Modern).mp3
AudioLeadIn: 0
PreviewTime: 13057
Countdown: 1
SampleSet: Normal
StackLeniency: 0.7
Mode: 0
LetterboxInBreaks: 1

[Editor]
Bookmarks: 13057,25426,37452,50154,59146,73421,109480
DistanceSpacing: 1.7
BeatDivisor: 4
GridSize: 4

[Metadata]
Title:Green Hill (Modern)
Artist:Jun Senoue
Creator:Invert Tails Prower
Version:Act 3
Source:Sonic Generations
Tags:SEGA remix New Masato Nakamura and Naofumi Hataya

[Difficulty]
HPDrainRate:7
CircleSize:5
OverallDifficulty:6
ApproachRate:7
SliderMultiplier:1.6
SliderTickRate:4

[Events]
//Background and Video events
0,0,"658px-Sonic-Generations-Screenshots-8.jpg"
//Break Periods
2,49957,60670
2,82957,84670
2,110707,111107
//Storyboard Layer 0 (Background)
//Storyboard Layer 1 (Fail)
//Storyboard Layer 2 (Pass)
Sprite,Pass,Centre,"Sweet.png",320,240 M,0,91105,91855,-395,240,307,240 M,0,91855,92230,307,240,297,240 M,0,92230,92980,297,240,997,240
Sprite,Pass,Centre,"Sweet.png",320,240 M,2,117168,118293,-395,240,997,240
//Storyboard Layer 3 (Foreground)
Sprite,Foreground,Centre,"Speed Up.png",320,240 F,0,83605,83793,0.58528,1 R,0,83605,83793,-4.992001,-4.13184 S,0,83605,84730,0.1,1 M,0,83605,85480,314,259 F,0,83793,83980,1 R,0,83793,83980,-4.13184,-3.594241 R,0,83980,84168,-3.594241,-2.97984 F,0,83980,85105,1 R,0,84168,84355,-2.97984,-2.0736 R,0,84355,84543,-2.0736,-0.9215995 R,0,84543,84730,-0.9215995,-0.4915206 R,0,84730,84918,-0.4915206,-0.2611197 R,0,84918,85105,-0.2611197,0.1075198 F,0,85105,85480,1,0
Sprite,Foreground,Centre,"Speed Up.png",320,240 F,0,110418,110606,0.58528,1 R,0,110418,110606,-4.992001,-4.13184 S,0,110418,111543,0.1,1 M,0,110418,112293,314,259 F,0,110606,110793,1 R,0,110606,110793,-4.13184,-3.594241 R,0,110793,110981,-3.594241,-2.97984 F,0,110793,111918,1 R,0,110981,111168,-2.97984,-2.0736 R,0,111168,111356,-2.0736,-0.9215995 R,0,111356,111543,-0.9215995,-0.4915206 R,0,111543,111731,-0.4915206,-0.2611197 R,0,111731,111918,-0.2611197,0.1075198 F,0,111918,112293,1,0
Sprite,Foreground,Centre,"approachcircle.png",320,240 F,0,120918,122230,0.9884799,1 M,0,120918,122792,319,379 S,0,120918,122793,0.5468799,4.596153 F,0,122230,,1 F,0,122230,122793,1,0 S,0,122793,,4.596153
Sprite,Foreground,Centre,"WarningUnderlay.png",320,240 F,0,79570,79945,1,0 S,0,79570,79945,0.7696,0.93088 M,0,79570,80320,46,87 F,0,79945,80132,0 S,0,79945,80320,0.93088,0.7696 F,0,80320,80695,1,0 S,0,80320,80695,0.7696,0.9616001 M,0,80320,81070,46,87 F,0,80695,80882,0 S,0,80695,81070,0.9616001,0.7696 F,0,81070,81445,1,0 S,0,81070,81445,0.7696,0.91552 M,0,81070,81820,46,87 F,0,81445,81632,0 S,0,81445,81820,0.91552,0.7696 F,0,81820,82195,1,0 S,0,81820,82195,0.7696,0.9539199 M,0,81820,82570,46,87 F,0,82195,82382,0 S,0,82195,82570,0.9539199,0.7696 F,0,82570,82945,1,0 S,0,82570,82945,0.7696,0.9539201 M,0,82570,83320,46,87 F,0,82945,83132,0 S,0,82945,83320,0.9539201,0.7696 F,0,83320,83695,1,0 S,0,83320,83695,0.7696,0.9539199 M,0,83320,84070,46,87 F,0,83695,83882,0 S,0,83695,84070,0.9539199,0.7696 F,0,84070,84445,1,0 S,0,84070,84445,0.7696,0.9462399 M,0,84070,84820,46,87 F,0,84445,84632,0 S,0,84445,84820,0.9462399,0.7696 F,0,84820,85195,1,0 S,0,84820,85195,0.7696,0.9615999 M,0,84820,85570,46,87 F,0,85195,85382,0 S,0,85195,85570,0.9615999,0.7696 F,0,85570,85945,1,0 S,0,85570,85945,0.7696,0.9539199 M,0,85570,86320,46,87 F,0,85945,86132,0 S,0,85945,86320,0.9539199,0.7696 F,0,86320,86695,1,0 S,0,86320,86695,0.7696,0.9155201 M,0,86320,87070,46,87 F,0,86695,86882,0 S,0,86695,87070,0.9155201,0.7696 F,0,87070,87445,1,0 S,0,87070,87445,0.7696,0.9462401 M,0,87070,87820,46,87 F,0,87445,87632,0 S,0,87445,87820,0.9462401,0.7696 F,0,87820,88195,1,0 S,0,87820,88195,0.7696,0.9616001 M,0,87820,88570,46,87 F,0,88195,88382,0 S,0,88195,88570,0.9616001,0.7696 F,0,88570,88945,1,0 S,0,88570,88945,0.7696,0.93088 M,0,88570,89320,46,87 F,0,88945,89132,0 S,0,88945,89320,0.93088,0.7696 F,0,89320,89695,1,0 S,0,89320,89695,0.7696,0.95392 M,0,89320,90070,46,87 F,0,89695,89882,0 S,0,89695,90070,0.95392,0.7696 F,0,90070,90445,1,0 S,0,90070,90445,0.7696,0.93088 M,0,90070,90820,46,87 F,0,90445,90632,0 S,0,90445,90820,0.93088,0.7696 F,0,90820,,1
Sprite,Foreground,Centre,"Warning.png",320,240 M,0,78820,79570,46,87 F,0,78820,79570,0,1 S,0,78820,79570,0.9078401,0.6928001 R,0,78820,79570,0 M,0,79570,91195,46,87 F,0,79570,91195,1 F,0,91195,91570,1,0
Sprite,Foreground,Centre,"Warning.png",320,240 M,0,78820,,45,87 F,0,78820,79570,0.6927999,0.08607987 S,0,78820,79570,1,3.01216 R,0,78820,79570,-0.50688,0
Sprite,Foreground,Centre,"Warning.png",320,240 M,0,111070,111820,46,87 F,0,111070,111820,0,1 S,0,111070,111820,0.9078401,0.6928001 R,0,111070,111820,0 M,0,111820,117820,46,87 F,0,111820,117820,1 M,0,117820,,46,87 F,0,117820,,1 F,0,117820,118195,1,0
Sprite,Foreground,Centre,"Warning.png",320,240 M,0,111070,,45,87 F,0,111070,111820,0.6927999,0.08607987 S,0,111070,111820,1,3.01216 R,0,111070,111820,-0.50688,0
Sprite,Foreground,Centre,"WarningUnderlay.png",320,240 F,0,111820,112195,1,0 S,0,111820,112195,0.7696,0.93088 M,0,111820,112570,46,87 F,0,112195,112382,0 S,0,112195,112570,0.93088,0.7696 F,0,112382,112570,0,1 F,0,112570,112945,1,0 S,0,112570,112945,0.7696,0.9616001 M,0,112570,113320,46,87 F,0,112945,113132,0 S,0,112945,113320,0.9616001,0.7696 F,0,113132,113320,0,1 F,0,113320,113695,1,0 S,0,113320,113695,0.7696,0.91552 M,0,113320,114070,46,87 F,0,113695,113882,0 S,0,113695,114070,0.91552,0.7696 F,0,113882,114070,0,1 F,0,114070,114445,1,0 S,0,114070,114445,0.7696,0.9539199 M,0,114070,114820,46,87 F,0,114445,114632,0 S,0,114445,114820,0.9539199,0.7696 F,0,114632,114820,0,1 F,0,114820,115195,1,0 S,0,114820,115195,0.7696,0.9539201 M,0,114820,115570,46,87 F,0,115195,115382,0 S,0,115195,115570,0.9539201,0.7696 F,0,115382,115570,0,1 F,0,115570,115945,1,0 S,0,115570,115945,0.7696,0.9539199 M,0,115570,116320,46,87 F,0,115945,116132,0 S,0,115945,116320,0.9539199,0.7696 F,0,116132,116320,0,1 F,0,116320,116695,1,0 S,0,116320,116695,0.7696,0.9462399 M,0,116320,117070,46,87 F,0,116695,116882,0 S,0,116695,117070,0.9462399,0.7696 F,0,116882,117070,0,1 F,0,117070,117445,1,0 S,0,117070,117445,0.7696,0.9615999 M,0,117070,117820,46,87 F,0,117445,117632,0 S,0,117445,117820,0.9615999,0.7696 F,0,117632,117820,0,1 M,0,117820,,46,87 F,0,117820,,1 S,0,117820,,0.7696
//Storyboard Sound Samples
//Background Colour Transformations
3,100,163,162,255

[TimingPoints]
13570,750,4,1,0,60,1,0
13570,-50,4,1,0,60,0,0
14132,-100,4,1,0,60,0,0
19668,-50,4,1,0,60,0,0
20043,-100,4,1,0,60,0,0
35793,-50,4,1,0,60,0,0
37452,-100,4,1,0,60,0,1
49442,-100,4,1,0,60,0,0
80605,-50,4,1,0,60,0,0
85570,-50,4,1,1,100,0,0
85667,-50,4,1,0,60,0,0
91105,-100,4,1,0,60,0,0
97363,-100,4,1,0,60,0,1
103195,-100,4,1,0,15,0,1
103382,-100,4,1,0,40,0,1
103570,-100,4,1,0,75,0,1
103757,-100,4,1,0,100,0,1
103945,-100,4,1,0,60,0,1
109352,-100,4,1,0,60,0,0
111730,-100,4,1,1,100,0,0
112105,-100,4,1,0,60,0,0
112480,-50,4,1,0,60,0,0
114918,-100,4,1,0,60,0,0

[Colours]
Combo1 : 78,202,2
Combo2 : 255,0,0
Combo3 : 5,5,240
Combo4 : 255,191,0
Combo5 : 0,128,255

[HitObjects]
152,192,13570,2,0,B|336:192,1,160,2|0
392,192,14320,2,0,B|456:192,1,40,2|0
456,112,14882,2,2,B|408:112,1,40,0|2
336,112,15445,2,0,B|384:8,1,80,0|2
448,56,16195,1,0
448,96,16382,1,4
432,192,16757,6,4,B|384:192,1,40,4|4
352,192,17132,5,0
312,192,17320,2,0,B|256:192,1,40,2|0
192,192,17882,2,0,B|140:192,1,40,0|2
72,192,18445,2,8,B|72:256,1,40
72,312,19007,1,4
192,316,19570,5,2
256,268,19757,2,0,B|176:116,1,160
208,96,20320,6,0,B|208:32,1,40,2|0
288,52,20882,2,0,B|288:116,1,40,0|2
288,172,21445,2,0,B|336:172,1,40
408,172,22007,2,0,B|469:220|389:284,1,120,4|2
372,296,22757,1,8
304,264,23132,5,0
272,240,23320,1,2
240,264,23507,1,0
160,256,23882,2,0,B|112:256,1,40,0|2
80,256,24257,1,0
40,256,24445,2,4,B|40:192,1,40
44,136,25007,1,4
44,56,25382,5,0
84,56,25570,2,0,B|164:56,1,80,2|0
248,56,26320,6,2,B|312:56,1,40,2|0
328,56,26695,1,0
368,56,26882,2,2,B|368:104,1,40,0|2
332,168,27445,2,8,B|388:168,2,40,8|8|10
332,208,28007,1,4
268,256,28382,6,0,B|172:256,1,80
112,232,29132,6,0,B|144:188,2,40,0|2|0
192,224,29882,2,0,B|240:256,1,40,0|2
296,208,30445,2,0,B|344:208,1,40
416,208,31007,2,4,B|480:256|432:308,1,120,4|2
272,304,32320,6,8,B|224:304,1,40,10|8
152,304,32882,2,0,B|104:304,1,40,0|2
108,224,33445,1,0
108,184,33632,1,0
112,104,34007,2,0,B|232:104,1,120,0|2
328,176,35132,6,8,B|376:176,2,40,8|10|8
488,176,35882,6,0,B|488:0,2,160
348,252,37007,6,0,B|440:236,1,80
432,320,37570,6,0,B|304:320,1,120,2|4
272,320,38320,1,0
232,320,38507,1,0
192,320,38695,2,0,B|192:184,1,120
32,200,40007,5,0
72,200,40195,1,0
72,160,40382,1,0
32,160,40570,6,0,B|160:160,1,120,2|4
232,160,41507,1,0
272,160,41695,2,0,B|384:160,1,80,4|2
476,124,42632,6,0,B|448:160,2,40,0|2|0
480,80,43195,1,2
480,80,43382,1,2
480,80,43570,6,8,B|384:80,1,80,14|8
352,80,44132,2,0,B|256:80,1,80
224,80,44695,2,0,B|144:80,1,80,0|2
96,80,45257,2,0,B|16:80,1,80
16,176,46007,5,0
64,176,46195,1,0
112,176,46382,1,8
160,176,46570,6,4,B|188:292|396:332,1,280,2|14
416,240,48257,1,8
336,188,48632,1,12
256,240,49007,1,14
328,304,49382,1,0
376,304,49570,2,0,B|424:304,1,40,2|0
48,320,61570,5,2
152,320,62320,5,2
184,320,62507,1,0
256,320,62882,1,0
288,320,63070,1,2
360,320,63445,5,0
392,320,63632,1,0
432,320,63820,1,10
432,216,64382,5,0
432,144,64757,1,0
432,144,64945,1,0
432,144,65132,6,0,B|432:80,2,40,0|2|0
368,144,65882,1,0
340,160,66070,1,2
344,224,66445,2,0,B|232:224,1,80,0|6
200,224,67195,6,0,B|200:176,3,40,0|0|2|0
172,92,68320,6,2,B|156:132,1,40,2|0
144,192,68882,1,8
144,192,69070,1,2
80,192,69445,2,0,B|16:192,3,40,0|0|2|0
36,160,70195,6,4,B|36:112,3,40,4|4|6|4
40,56,71132,6,0,B|152:56,1,80
184,60,71882,6,8,B|216:12,1,40,8|10
268,44,72445,2,0,B|300:92,3,40,2|2|0|2
340,160,73570,6,6,B|404:248|328:328|72:228|416:96|144:96|128:96|128:144|112:208|92:288,1,480
160,272,76195,5,0
192,272,76382,2,4,B|464:272|516:36,1,400
416,40,78820,5,2
352,36,79195,1,0
288,32,79570,6,0,B|288:160,1,120,2|4
284,248,80695,2,0,B|-4:248,1,240
212,340,81820,6,4,B|356:340|356:340|356:164|356:164|500:164,1,400,6|4
176,24,85570,5,0
336,24,85945,1,0
344,184,86320,2,6,B|184:184,1,160,6|12
24,184,87070,5,2
20,344,87445,1,0
180,352,87820,2,12,B|356:352,1,160,14|12
500,340,88570,5,2
468,184,88945,1,0
316,136,89320,1,6
164,188,89695,1,12
36,184,90070,6,0,B|116:36,1,160,2|0
240,48,90820,2,12,B|232:208,1,160,14|12
176,176,91570,6,0,B|216:144|180:92,3,80,2|0|2|0
128,128,93070,6,0,B|104:72|164:56,3,80,2|0|2|0
212,52,94570,6,0,B|260:44|284:88,3,80,2|0|2|0
320,132,96070,6,0,B|376:196|436:140|376:84|428:24|492:88,1,240,2|0
412,88,97570,6,0,B|364:88,1,40,4|0
212,88,98695,1,0
180,88,98882,1,0
176,120,99070,1,4
144,120,99257,1,0
144,216,99820,1,4
144,216,100007,2,0,B|144:328,1,80
368,312,101695,5,0
408,312,101882,1,0
384,280,102070,1,4
384,240,102257,1,0
308,100,103195,5,12
308,100,103382,1,12
308,100,103570,1,12
308,100,103757,1,12
224,144,104320,5,2
176,144,104507,1,0
176,240,104882,2,8,B|176:288,1,40,8|10
80,272,105445,2,2,B|32:272,1,40
40,176,106007,6,0,B|40:128,3,40,0|0|0|2
40,40,107132,5,0
72,40,107320,1,0
104,40,107507,1,0
168,40,107882,2,0,B|232:40,1,40
272,40,108445,1,0
304,40,108632,1,0
368,44,109007,6,4,B|448:108|448:108|448:108,1,80
256,192,109570,12,0,110507
192,64,112007,5,0
256,64,112195,1,0
384,64,112570,2,0,B|448:112,1,80,4|0
440,240,113132,2,0,B|360:320,1,80,4|0
256,304,113695,2,0,B|160:304,1,80,4|0
68,236,114257,2,0,B|68:136,1,80,4|0
116,112,114632,1,0
180,108,115007,5,0
212,108,115195,2,0,B|212:156,1,40
256,192,115757,12,0,117257
116,236,118195,5,0
116,172,118570,2,2,B|112:80|256:48|384:80|256:160,1,320,2|2
256,192,120257,1,0
256,256,120632,1,0
256,320,121007,1,14
