osu file format v9

[General]
AudioFilename: 05 Green Hill (Modern).mp3
AudioLeadIn: 0
PreviewTime: 13057
Countdown: 1
SampleSet: Soft
StackLeniency: 0.7
Mode: 0
LetterboxInBreaks: 1

[Editor]
Bookmarks: 13057,25426,37452,50154,59146,73421,85570,109480,112007
DistanceSpacing: 1.7
BeatDivisor: 4
GridSize: 4

[Metadata]
Title:Green Hill (Modern)
Artist:Jun Senoue
Creator:Invert Tails Prower
Version:Act 2
Source:Sonic Genrations
Tags:SEGA remix New Masato Nakamura and Naofumi Hataya

[Difficulty]
HPDrainRate:6
CircleSize:5
OverallDifficulty:6
ApproachRate:6
SliderMultiplier:1.4
SliderTickRate:4

[Events]
//Background and Video events
0,0,"658px-Sonic-Generations-Screenshots-8.jpg"
//Break Periods
2,49957,60520
2,83707,84520
//Storyboard Layer 0 (Background)
//Storyboard Layer 1 (Fail)
//Storyboard Layer 2 (Pass)
Sprite,Pass,Centre,"Sweet.png",320,240 M,0,91105,92230,-395,240,997,240
Sprite,Pass,Centre,"Sweet.png",320,240 M,2,117168,118293,-395,240,997,240
//Storyboard Layer 3 (Foreground)
Sprite,Foreground,Centre,"Speed Up.png",320,240 F,0,83605,83793,0.58528,1 R,0,83605,83793,-4.992001,-4.13184 S,0,83605,84730,0.1,1 M,0,83605,85480,314,259 F,0,83793,83980,1 R,0,83793,83980,-4.13184,-3.594241 R,0,83980,84168,-3.594241,-2.97984 F,0,83980,85105,1 R,0,84168,84355,-2.97984,-2.0736 R,0,84355,84543,-2.0736,-0.9215995 R,0,84543,84730,-0.9215995,-0.4915206 R,0,84730,84918,-0.4915206,-0.2611197 R,0,84918,85105,-0.2611197,0.1075198 F,0,85105,85480,1,0
Sprite,Foreground,Centre,"Speed Up.png",320,240 F,0,110418,110606,0.58528,1 R,0,110418,110606,-4.992001,-4.13184 S,0,110418,111543,0.1,1 M,0,110418,112293,314,259 F,0,110606,110793,1 R,0,110606,110793,-4.13184,-3.594241 R,0,110793,110981,-3.594241,-2.97984 F,0,110793,111918,1 R,0,110981,111168,-2.97984,-2.0736 R,0,111168,111356,-2.0736,-0.9215995 R,0,111356,111543,-0.9215995,-0.4915206 R,0,111543,111731,-0.4915206,-0.2611197 R,0,111731,111918,-0.2611197,0.1075198 F,0,111918,112293,1,0
Sprite,Foreground,Centre,"approachcircle.png",320,240 F,0,120918,122230,0.9884799,1 S,0,120918,122793,0.5468799,4.596153 F,0,122230,,1 F,0,122230,122793,1,0 S,0,122793,,4.596153
Sprite,Foreground,Centre,"Warning.png",320,240 M,0,78820,79570,46,87 F,0,78820,79570,0,1 S,0,78820,79570,0.9078401,0.6928001 R,0,78820,79570,0 M,0,79570,91195,46,87 F,0,79570,91195,1 F,0,91195,91570,1,0
Sprite,Foreground,Centre,"Warning.png",320,240 M,0,78820,,45,87 F,0,78820,79570,0.6927999,0.08607987 S,0,78820,79570,1,3.01216 R,0,78820,79570,-0.50688,0
Sprite,Foreground,Centre,"WarningUnderlay.png",320,240 F,0,79570,79945,1,0 S,0,79570,79945,0.7696,0.93088 M,0,79570,80320,46,87 F,0,79945,80132,0 S,0,79945,80320,0.93088,0.7696 F,0,80320,80695,1,0 S,0,80320,80695,0.7696,0.9616001 M,0,80320,81070,46,87 F,0,80695,80882,0 S,0,80695,81070,0.9616001,0.7696 F,0,81070,81445,1,0 S,0,81070,81445,0.7696,0.91552 M,0,81070,81820,46,87 F,0,81445,81632,0 S,0,81445,81820,0.91552,0.7696 F,0,81820,82195,1,0 S,0,81820,82195,0.7696,0.9539199 M,0,81820,82570,46,87 F,0,82195,82382,0 S,0,82195,82570,0.9539199,0.7696 F,0,82570,82945,1,0 S,0,82570,82945,0.7696,0.9539201 M,0,82570,83320,46,87 F,0,82945,83132,0 S,0,82945,83320,0.9539201,0.7696 F,0,83320,83695,1,0 S,0,83320,83695,0.7696,0.9539199 M,0,83320,84070,46,87 F,0,83695,83882,0 S,0,83695,84070,0.9539199,0.7696 F,0,84070,84445,1,0 S,0,84070,84445,0.7696,0.9462399 M,0,84070,84820,46,87 F,0,84445,84632,0 S,0,84445,84820,0.9462399,0.7696 F,0,84820,85195,1,0 S,0,84820,85195,0.7696,0.9615999 M,0,84820,85570,46,87 F,0,85195,85382,0 S,0,85195,85570,0.9615999,0.7696 F,0,85570,85945,1,0 S,0,85570,85945,0.7696,0.9539199 M,0,85570,86320,46,87 F,0,85945,86132,0 S,0,85945,86320,0.9539199,0.7696 F,0,86320,86695,1,0 S,0,86320,86695,0.7696,0.9155201 M,0,86320,87070,46,87 F,0,86695,86882,0 S,0,86695,87070,0.9155201,0.7696 F,0,87070,87445,1,0 S,0,87070,87445,0.7696,0.9462401 M,0,87070,87820,46,87 F,0,87445,87632,0 S,0,87445,87820,0.9462401,0.7696 F,0,87820,88195,1,0 S,0,87820,88195,0.7696,0.9616001 M,0,87820,88570,46,87 F,0,88195,88382,0 S,0,88195,88570,0.9616001,0.7696 F,0,88570,88945,1,0 S,0,88570,88945,0.7696,0.93088 M,0,88570,89320,46,87 F,0,88945,89132,0 S,0,88945,89320,0.93088,0.7696 F,0,89320,89695,1,0 S,0,89320,89695,0.7696,0.95392 M,0,89320,90070,46,87 F,0,89695,89882,0 S,0,89695,90070,0.95392,0.7696 F,0,90070,90445,1,0 S,0,90070,90445,0.7696,0.93088 M,0,90070,90820,46,87 F,0,90445,90632,0 S,0,90445,90820,0.93088,0.7696 F,0,90820,,1
Sprite,Foreground,Centre,"Warning.png",320,240 M,0,111070,111820,46,87 F,0,111070,111820,0,1 S,0,111070,111820,0.9078401,0.6928001 R,0,111070,111820,0 M,0,111820,117820,46,87 F,0,111820,117820,1 M,0,117820,,46,87 F,0,117820,,1 F,0,117820,118195,1,0
Sprite,Foreground,Centre,"Warning.png",320,240 M,0,111070,,45,87 F,0,111070,111820,0.6927999,0.08607987 S,0,111070,111820,1,3.01216 R,0,111070,111820,-0.50688,0
Sprite,Foreground,Centre,"WarningUnderlay.png",320,240 M,0,111820,,46,87 F,0,111820,112195,1,0 S,0,111820,112195,0.7696,0.93088 F,0,112195,112382,0 S,0,112195,112570,0.93088,0.7696 M,0,112570,,46,87 F,0,112570,112945,1,0 S,0,112570,112945,0.7696,0.9616001 F,0,112945,113132,0 S,0,112945,113320,0.9616001,0.7696 F,0,113320,113695,1,0 S,0,113320,113695,0.7696,0.91552 M,0,113320,114070,46,87 F,0,113695,113882,0 S,0,113695,114070,0.91552,0.7696 F,0,114070,114445,1,0 S,0,114070,114445,0.7696,0.9539199 M,0,114070,114820,46,87 F,0,114445,114632,0 S,0,114445,114820,0.9539199,0.7696 F,0,114820,115195,1,0 S,0,114820,115195,0.7696,0.9539201 M,0,114820,115570,46,87 F,0,115195,115382,0 S,0,115195,115570,0.9539201,0.7696 F,0,115570,115945,1,0 S,0,115570,115945,0.7696,0.9539199 M,0,115570,116320,46,87 F,0,115945,116132,0 S,0,115945,116320,0.9539199,0.7696 F,0,116320,116695,1,0 S,0,116320,116695,0.7696,0.9462399 M,0,116320,117070,46,87 F,0,116695,116882,0 S,0,116695,117070,0.9462399,0.7696 F,0,117070,117445,1,0 S,0,117070,117445,0.7696,0.9615999 M,0,117070,117820,46,87 F,0,117445,117632,0 S,0,117445,117820,0.9615999,0.7696 M,0,117820,,46,87 F,0,117820,,1 S,0,117820,,0.7696
//Storyboard Sound Samples
//Background Colour Transformations
3,100,163,162,255

[TimingPoints]
13570,750,4,2,0,60,1,0
37452,-100,4,1,0,60,0,1
49668,-100,4,2,0,60,0,0
85570,-50,4,1,1,100,0,1
85668,-50,4,1,0,60,0,1
91195,-100,4,2,0,60,0,0
97363,-100,4,2,0,60,0,1
103195,-100,4,1,0,15,0,1
103382,-100,4,1,0,40,0,1
103570,-100,4,1,0,70,0,1
103757,-100,4,1,0,100,0,1
103945,-100,4,2,0,60,0,1
109352,-100,4,2,0,60,0,0
112007,-100,4,1,1,100,0,0
112105,-50,4,2,0,60,0,0
114918,-100,4,2,0,60,0,0

[Colours]
Combo1 : 78,202,2
Combo2 : 255,0,0
Combo3 : 5,5,240
Combo4 : 255,191,0
Combo5 : 0,128,255

[HitObjects]
256,192,13570,2,0,B|336:192,1,70,4|2
400,192,14320,2,8,B|464:192,1,35
448,112,14882,2,2,B|400:112,1,35
448,52,15445,2,0,B|384:52,1,35
344,52,16007,1,4
240,52,16570,1,4
132,52,17132,5,0
132,80,17320,2,0,B|132:120,1,35
180,144,17882,2,0,B|180:200,1,35,0|4
132,208,18445,2,8,B|132:272,1,35
132,300,19007,1,4
208,96,20320,6,0,B|208:32,1,35
280,60,20882,2,0,B|280:104,1,35,0|4
280,168,21445,2,0,B|336:168,1,35
388,168,22007,1,4
384,276,22570,1,4
280,288,23132,6,0,B|268:232|232:248,1,70
160,256,23882,2,4,B|112:256,1,35,0|4
48,256,24445,2,2,B|48:192,1,35
48,144,25007,1,4
220,48,26320,6,2,B|284:48,1,35
312,52,26882,2,2,B|336:76,1,35
348,132,27445,2,8,B|348:180,1,35
312,212,28007,1,4
144,208,29132,6,0,B|96:208,2,35
200,208,29882,2,0,B|248:224,1,35,0|4
288,208,30445,2,2,B|332:184,1,35
372,208,31007,1,4
384,292,31570,1,4
272,304,32320,6,12,B|224:304,1,35,12|2
144,304,32882,2,0,B|96:304,1,35
32,304,33445,1,0
32,304,33632,1,0
32,208,34007,1,4
128,128,34570,1,4
228,56,35132,6,8,B|200:32,2,35
260,132,35882,2,0,B|260:212,1,70,4|4
260,284,36632,1,4
464,320,37570,6,0,B|336:320,1,105,0|2
192,320,38695,2,0,B|48:320,1,140
0,240,39820,1,0
96,240,40195,1,0
48,160,40570,6,0,B|176:160,1,105,0|4
256,160,41695,2,0,B|368:160,1,105,4|0
464,160,42820,1,0
464,80,43195,1,2
464,80,43570,6,8,B|32:80,1,420,12|8
28,148,46195,1,0
44,180,46382,1,2
60,212,46570,6,4,B|212:184|336:208,1,245,4|14
320,256,48257,1,8
320,188,48632,1,12
320,120,49007,1,14
320,52,49382,1,0
284,52,49570,2,2,B|220:52,1,35
56,320,61570,5,4
168,320,62320,5,0
168,320,62507,1,2
224,320,62882,1,4
312,320,63445,5,2
312,320,63632,1,2
312,264,64007,1,12
472,212,65132,6,0,B|512:212,2,35
416,212,65882,1,2
388,212,66070,1,4
332,212,66445,2,0,B|204:212,1,105,2|4
196,132,67570,1,4
132,40,68320,6,2,B|132:88,1,35
132,144,68882,1,8
132,180,69070,1,4
64,180,69445,2,0,B|16:132,3,35,2|2|4|2
16,128,70195,6,2,B|16:80,3,35,2|2|4|2
80,64,71132,6,2,B|128:112,2,35,2|4|2
148,64,71882,6,8,B|196:64,1,35,8|4
332,156,73007,5,4
272,192,73382,1,4
256,224,73570,6,4,B|288:240|332:312|416:304|508:36|268:104|176:156|128:144|232:280|136:256,1,455
192,276,76195,1,0
228,280,76382,6,4,B|520:336|464:20,1,420
392,32,79007,5,0
352,32,79195,1,0
312,32,79382,1,0
272,32,79570,6,0,B|240:160,1,105,4|4
224,208,80695,2,0,B|96:208,1,105
16,208,81820,1,0
16,320,82382,6,0,B|256:320,1,210,0|14
156,52,85570,5,4
352,48,85945,1,8
356,244,86320,2,6,B|196:244,1,140,6|8
64,120,87070,5,6
68,312,87445,1,8
208,184,87820,2,8,B|352:184,1,140,6|8
352,296,88570,5,6
212,296,88945,1,8
316,184,89320,1,6
176,184,89695,1,8
36,176,90070,6,6,B|100:48,1,140,6|8
236,24,90820,2,12,B|248:208,1,140,6|14
168,168,91570,6,0,B|192:132|168:92,3,70,0|2|0|4
244,92,93070,6,0,B|280:64|316:96,3,70,0|2|0|8
380,96,94570,6,0,B|408:132|380:160,3,70,0|2|0|4
344,220,96070,6,4,B|296:204|256:240,3,70,4|2|4|14
212,256,97570,6,4,B|180:268,1,35,4|0
224,96,98695,2,0,B|160:96,3,35,0|0|4|0
128,208,100007,2,0,B|128:320,1,105,0|4
128,313,100757,1,0
304,304,101695,6,0,B|352:304,3,35,0|0|4|0
352,144,103195,5,4
352,144,103382,1,4
352,144,103570,1,4
352,144,103757,1,4
176,144,104320,5,0
176,144,104507,1,0
176,144,104695,1,0
172,224,105070,2,8,B|168:268,1,35,12|8
128,260,105445,2,2,B|92:220,1,35,2|2
48,176,106007,6,0,B|48:128,3,35,0|0|0|4
48,64,107132,5,0
48,64,107320,1,4
48,64,107507,1,0
128,64,107882,2,0,B|192:64,1,35,0|4
240,64,108445,1,0
240,64,108632,1,0
320,64,109007,6,4,B|400:128|400:128|400:128,1,70
256,192,109570,12,0,110507
256,44,112007,5,0
256,44,112195,1,0
396,40,112570,2,0,B|508:136,1,140,4|8
492,200,113132,2,0,B|356:276,1,140,4|8
300,276,113695,2,0,B|156:276,1,140,4|8
100,240,114257,2,0,B|124:88,1,140,4|8
192,96,114820,1,12
248,96,115007,5,8
304,96,115195,2,0,B|352:96,1,35,8|4
256,192,115570,12,0,117070
224,216,118195,5,0
220,160,118570,2,4,B|112:80|256:48|384:80|288:160,1,280
280,184,120257,1,0
280,240,120632,1,0
280,296,121007,1,14
