osu file format v9

[General]
AudioFilename: Sonic & Knuckles Music- Flying Battery Zone (Act 2).mp3
AudioLeadIn: 0
PreviewTime: 41754
Countdown: 0
SampleSet: Soft
StackLeniency: 0.6
Mode: 0
LetterboxInBreaks: 0

[Editor]
Bookmarks: 1760,14560,26760,41760,54560,66760,81760,94560
DistanceSpacing: 1
BeatDivisor: 2
GridSize: 8

[Metadata]
Title:Flying Battery Zone (Act 2)
Artist:Jun Senoue
Creator:bLaTzK
Version:Easy
Source:Sonic 3 & Knuckles
Tags:SEGA Genesis Howard Drossin Tokuhiko Uwabo Tomonori Sawada Naofumi Hataya

[Difficulty]
HPDrainRate:3
CircleSize:3
OverallDifficulty:3
ApproachRate:3
SliderMultiplier:0.9
SliderTickRate:1

[Events]
//Background and Video events
0,0,"flyingbattery.png"
//Break Periods
2,41960,46720
//Storyboard Layer 0 (Background)
//Storyboard Layer 1 (Fail)
Sprite,Fail,Centre,"SB\00.PNG",320,240 F,0,1280,1480,0,1 M,0,2179,,167,107 F,0,2179,110563,1
Sprite,Fail,Centre,"SB\rings.PNG",320,240 L,4560,400 F,0,0,125,0 F,0,0,250,1 M,0,4560,,70,108
//Storyboard Layer 2 (Pass)
Sprite,Pass,Centre,"SB\rings.PNG",320,240 M,0,4560,,70,108 F,0,4560,110563,1
Sprite,Pass,Centre,"SB\1.PNG",320,240 M,0,4560,,167,108 F,0,4560,110563,1
//Storyboard Layer 3 (Foreground)
Sprite,Foreground,Centre,"SB\rings.PNG",320,240 L,1580,12 F,0,0,125,0 F,0,0,250,1 M,0,1180,,70,108 F,0,1180,1580,0,1
Sprite,Foreground,Centre,"SB\00.PNG",320,240 F,0,1180,1580,0,1 M,0,4560,,167,107
//Storyboard Sound Samples
//Background Colour Transformations
3,100,163,162,255

[TimingPoints]
1760,400,4,2,0,70,1,0
4860,-100,4,1,0,70,0,0
8060,-100,4,2,0,70,0,0
11260,-100,4,1,0,70,0,0
14460,-100,4,2,0,70,0,0
17660,-100,4,1,0,70,0,0
20860,-100,4,2,0,70,0,0
24060,-100,4,1,0,70,0,0
32160,-100,4,1,0,70,0,1
33360,-100,4,1,0,70,0,0
48060,-100,4,2,0,70,0,0
51260,-100,4,1,0,70,0,0
54460,-100,4,2,0,70,0,0
57660,-100,4,1,0,70,0,0
60860,-100,4,2,0,70,0,0
64060,-100,4,1,0,70,0,0
67360,-100,4,1,0,70,0,1
80960,-100,4,1,0,70,0,0
88260,-100,4,2,0,70,0,0
91260,-100,4,1,0,70,0,0
94460,-100,4,2,0,70,0,0
97660,-100,4,1,0,70,0,0
100860,-100,4,2,0,70,0,0
104060,-100,4,1,0,70,0,0

[Colours]
Combo1 : 240,5,5
Combo2 : 0,0,255
Combo3 : 255,128,0

[HitObjects]
256,192,2160,1,8
256,104,2560,2,0,B|160:104,1,90,0|8
166,194,3360,1,2
166,284,3760,1,8
256,284,4160,2,0,B|352:284,1,90,0|8
360,192,4960,6,0,B|72:192,1,270,2|8
90,101,6560,2,0,B|378:101,1,270,2|8
208,192,8560,6,0,B|112:192,2,90,8|0|8
296,192,9760,1,2
384,192,10160,2,0,B|480:192,2,90,8|0|8
384,282,11360,6,0,B|96:282,1,270,2|8
114,191,12960,2,0,B|402:191,1,270,2|8
256,192,14560,12,8,16560
344,192,17760,6,0,B|392:136|352:96,2,90,2|8|2
256,192,18960,1,8
168,192,19360,2,0,B|120:136|168:96,2,90,2|8|2
256,192,20560,1,8
288,104,20960,6,0,B|400:104|400:280|288:280,1,270,2|8
200,280,22560,2,0,B|88:280|88:104|200:104,1,270,2|8
256,192,24160,12,4,27360
256,192,28560,6,0,B|72:192,1,180,8|8
124,116,29760,1,0
212,116,30160,2,0,B|396:116,1,180,8|8
344,192,31360,1,0
256,192,31760,1,8
256,280,32160,6,0,B|192:312|160:264,3,90,2|2|2|2
136,192,33760,6,0,B|40:192,2,90,4|8|0
320,192,35360,2,0,B|408:192,2,90,2|8|0
256,128,36560,5,8
168,120,36960,1,0
112,192,37360,1,8
272,280,38160,1,8
360,288,38560,1,0
416,216,38960,1,8
256,192,39360,12,4,41760
256,192,48160,5,0
168,192,48560,1,8
80,192,48960,2,0,B|80:96,1,90,0|8
260,102,50160,1,8
350,102,50560,2,0,B|446:102,1,90,0|8
440,192,51360,6,0,B|440:296,2,90,2|8|2
256,192,52960,2,0,B|152:192,2,90,2|8|2
132,64,54560,6,0,B|412:64,2,270,2|8|0
256,192,57760,6,0,B|256:248|200:248,3,90,2|8|2|8
128,192,59360,2,0,B|128:136|72:136,3,90,2|8|2|8
56,224,60960,6,0,B|88:288|148:282|193:262|202:226|204:206,1,180,2|0
360,152,62560,2,0,B|424:184|418:244|398:289|362:298|342:300,1,180,2|0
256,152,64160,6,0,B|256:56,1,90,2|8
176,104,64960,2,0,B|176:200,1,90,2|8
208,280,65760,2,0,B|296:280,2,90,2|8|2
120,280,66960,1,8
120,192,67360,6,0,B|224:192,3,90,4|8|0|8
304,344,69360,1,8
304,256,69760,1,0
304,168,70160,2,0,B|320:144|328:80|288:48|256:32|216:40,1,180,8|8
215,130,71360,1,0
215,220,71760,1,8
304,192,72160,6,0,B|408:192,3,90,2|2|2|2
216,192,74160,5,8
40,192,74960,1,8
40,372,75760,1,8
103,308,76160,1,0
166,244,76560,6,0,B|150:163|166:116|262:116,1,180,8|8
334,116,77760,1,0
334,206,78160,1,8
256,192,78560,12,4,81760
376,192,82960,6,0,B|384:304|256:280,1,180,8|8
288,192,84160,1,0
256,112,84560,1,8
208,192,84960,6,0,B|104:192,2,90,2|8|2
384,192,86560,1,2
384,280,86960,1,8
296,280,87360,1,2
208,280,87760,1,8
168,104,88560,5,8
256,104,88960,1,0
344,104,89360,1,8
344,192,89760,1,2
344,280,90160,2,0,B|160:280,1,180,8|8
164,189,91360,5,2
164,99,91760,2,0,B|116:99,2,45,8|0|2
344,99,92960,1,2
344,192,93360,2,0,B|392:192,2,45,8|0|2
344,282,94160,1,8
256,192,94560,12,8,96560
432,192,97760,6,0,B|320:192,1,90,2|8
256,192,98560,1,2
319,128,98960,1,8
382,64,99360,2,0,B|270:64,1,90,2|8
202,64,100160,1,2
138,127,100560,1,8
72,192,100960,6,0,B|160:192|160:192|232:192|232:264|232:264|232:280|240:328|304:328|304:328|368:328,1,360,2|2
351,237,102960,1,8
351,147,103360,2,0,B|351:107|335:91|287:91,1,90,0|8
256,192,104160,12,4,107360
