osu file format v5

[General]
AudioFilename: Egg Fleet Mix.mp3
AudioLeadIn: 0
PreviewTime: 52061
Countdown: 1
SampleSet: Normal
StackLeniency: 0.7
Mode: 0
LetterboxInBreaks: 1
EditorBookmarks: 14783,25449,46449,77449,110782,116116,152116

[Metadata]
Title:Egg Fleet
Artist:Jun Senoue
Creator:K2J
Version:Sonic Hard
Source:Sonic Heroes
Tags:

[Difficulty]
HPDrainRate:5
CircleSize:5
OverallDifficulty:5
SliderMultiplier:1.1
SliderTickRate:2

[Events]
//Background and Video events
0,0,"heroes_26.png"
//Break Periods
2,41649,45582
2,94982,104249
//Storyboard Layer 0 (Background)
//Storyboard Layer 1 (Failing)
//Storyboard Layer 2 (Passing)
//Storyboard Layer 3 (Foreground)
//Storyboard Sound Samples
//Background Colour Transformations
3,100,163,162,255

[TimingPoints]
14800,333.333333333333,4,1,0,100,1

[Colours]
Combo1 : 45,88,228
Combo2 : 255,150,0
Combo3 : 216,48,48

[HitObjects]
80,64,14799,1,0
184,144,15133,1,0
288,224,15466,1,0
392,144,15799,1,0
312,40,16133,2,0,B|312:176,2,110
312,40,16966,1,8
312,40,17133,1,8
312,40,17299,1,8
240,40,17466,5,0
160,144,17799,1,0
96,256,18133,1,0
216,256,18466,1,0
352,256,18799,2,0,B|464:256,3,110
352,336,20133,5,0
224,336,20466,1,0
264,208,20799,1,0
304,80,21133,1,0
168,80,21466,2,0,B|112:184,2,110
168,80,22299,1,8
168,80,22466,1,8
168,80,22633,1,8
232,80,22799,5,0
368,80,23133,5,0
296,192,23466,5,0
296,328,23799,5,0
160,328,24133,6,0,B|48:328|9:148|168:88,1,330
280,40,25466,5,4
384,120,25799,2,0,B|312:120,3,55
264,120,26466,1,0
128,120,26799,2,0,B|128:344,2,220,0|0|4
208,224,28466,2,0,B|208:152,3,55
208,104,29133,1,0
336,56,29466,2,0,B|416:168,1,110
400,144,29966,2,0,B|208:272,1,220,0|0
160,304,30799,5,4
40,240,31133,2,0,B|40:176,3,55
40,120,31799,1,0
40,48,31966,2,0,B|208:48,1,165
304,136,32799,1,0
408,48,33133,1,0
464,168,33466,2,0,B|424:280,1,110
400,328,33966,1,0
128,320,34633,2,2,B|17:255|3:73|98:50|218:25|304:64,1,495,0|4
424,104,36466,6,0,B|320:256,1,165
288,296,37133,1,0
152,296,37466,2,0,C|69:243|63:147|145:164|296:72,1,440,0|4
408,64,39133,2,0,C|408:120,1,55
408,184,39466,2,0,C|408:240,1,55
408,304,39799,1,0
272,272,40133,2,0,C|192:192,1,110
216,128,40633,2,0,C|416:328,1,275,0|4
72,80,46799,6,0,C|128:80,1,55
192,80,47133,1,8
328,80,47466,2,0,C|328:144,1,55
328,200,47799,1,8
192,200,48133,2,0,C|136:200,1,55
72,200,48466,1,8
224,336,48966,2,2,C|328:272,1,110
376,248,49466,6,0,C|376:192,1,55
376,128,49799,1,8
272,40,50133,2,0,C|272:104,1,55
272,160,50466,1,8
272,296,50799,2,4,B|177:287|184:176,1,165
184,48,51633,1,4
56,200,52133,6,0,B|104:152,1,55
144,112,52466,1,8
256,40,52799,2,0,B|312:96,1,55
344,128,53133,1,8
440,216,53466,2,0,B|392:264,1,55
352,304,53799,1,8
160,304,54299,1,2
56,136,54799,6,0,B|88:224|184:256|288:224|312:128,1,330
176,136,56133,2,0,B|208:48|304:16|408:48|432:144,1,330,0|0
296,152,57466,2,0,L|160:328|24:144,2,440,4|4|4
336,96,60299,5,0
336,96,60466,2,0,L|336:152,1,55
336,216,60799,1,0
336,280,60966,2,0,L|280:280,1,55
216,280,61299,1,0
144,280,61466,1,2
104,152,61799,2,0,L|104:104,2,27.5
168,152,62133,1,0
232,152,62299,1,0
296,152,62466,2,8,L|352:152,1,55
416,152,62799,6,0,L|416:224,1,55
416,272,63133,2,0,L|360:272,1,55
296,272,63466,2,0,L|240:272,1,55
176,272,63799,2,0,L|120:272,1,55
56,272,64133,2,2,L|56:144,1,110
56,96,64633,2,2,L|296:96,1,220
344,96,65466,2,0,L|344:160,1,55
344,216,65799,2,0,L|272:216,1,55
224,216,66133,2,0,L|224:280,1,55
152,272,66466,2,0,L|152:216,1,55
152,152,66799,2,2,B|196:100|256:152,1,110
264,208,67299,2,2,B|369:328|448:216,1,220
440,152,68133,6,0,B|402:95|376:56|320:40|264:8|192:32|103:49|72:104|56:168|56:168|456:232|456:232|440:296|392:328|328:352|256:368|168:352|120:328|80:280,1,1320,4|0
88,288,72466,1,0
88,288,72799,1,0
88,288,73133,1,0
104,152,73466,2,0,B|41:105|85:2|231:79|136:160,1,220
176,272,74466,2,2,L|176:136|288:272|288:136,1,440
352,264,76133,2,0,L|352:144,3,110
352,16,77466,1,2
488,160,77966,2,0,B|408:170|358:259|504:312,1,220
424,336,78799,6,0,B|344:336,1,55
304,336,79133,2,0,B|240:336,1,55
184,336,79466,2,0,B|120:336,1,55
96,272,79799,2,0,B|160:272,1,55
176,208,80133,2,0,B|168:136|64:136|57:234,2,165
256,192,81466,12,0,84133
256,192,84466,5,0
256,192,84799,1,0
256,192,85133,1,0
256,56,85466,2,0,B|376:56,1,110
464,144,86133,1,0
408,184,86299,2,0,B|408:240,2,55
408,120,86799,5,0
296,192,87133,1,0
184,264,87466,1,0
72,192,87799,1,0
184,120,88133,2,0,B|280:280,2,165,0|8|0
312,128,89466,5,0
424,192,89799,1,0
312,264,90133,1,0
200,192,90466,1,0
72,344,90966,5,4
72,208,91299,1,0
72,208,91466,5,0
72,208,91633,1,0
264,136,92133,5,0
392,136,92466,5,0
328,248,92799,5,0
440,312,93133,5,0
304,312,93466,5,0
240,312,93633,1,0
104,312,93966,1,0
104,176,94299,1,2
104,40,94633,1,2
104,104,94799,1,4
64,304,105466,5,4
184,248,105799,2,0,B|240:248,1,55
280,200,106133,2,0,B|352:200,1,55
376,152,106466,2,0,B|432:152,1,55
456,88,106799,1,0
256,56,107299,2,2,B|149:90|64:208,1,220
72,120,108133,1,4
192,176,108466,2,0,B|248:176,1,55
288,224,108799,2,0,B|360:224,1,55
384,272,109133,2,0,B|440:272,1,55
464,336,109466,1,0
264,336,109966,2,2,B|157:302|72:184,1,220
64,144,110799,5,4
168,56,111133,2,0,B|216:96,1,55
264,128,111466,2,0,B|312:168,1,55
360,200,111799,1,0
416,240,111966,2,0,B|399:362|232:312,1,220
192,264,112799,5,0
104,136,113133,1,0
224,48,113466,1,0
352,128,113799,1,0
320,200,113966,1,0
232,296,114299,5,0
184,248,114466,1,0
144,192,114633,2,2,B|72:136|128:32|192:16|192:16|280:16|360:48,1,385
456,128,116133,6,0,B|456:192,1,55,4|0
456,248,116466,1,8
328,248,116799,2,0,B|264:248,1,55
208,248,117133,1,8
96,184,117466,2,0,B|96:240,1,55
96,304,117799,1,8
288,328,118299,2,2,B|384:248,1,110
416,208,118799,2,0,B|416:128,1,55
416,88,119133,1,8
288,88,119466,2,0,B|208:88,1,55
168,88,119799,1,8
64,168,120133,5,0
104,216,120299,1,0
168,216,120466,1,0
216,168,120633,1,4
320,248,120966,1,0
432,88,121466,5,0
368,88,121633,1,0
400,32,121799,1,8
280,88,122133,5,0
216,88,122299,1,0
248,32,122466,1,8
120,32,122799,5,0
56,32,122966,1,0
88,88,123133,1,8
88,280,123633,6,2,B|88:208,1,55
88,160,123966,1,2
136,112,124133,2,0,B|141:303|368:27|368:328,1,385
432,304,125466,6,0,B|427:113|200:389|200:88,1,385,0|0
136,104,126799,5,4
72,216,127133,1,4
136,328,127466,1,4
208,216,127799,1,4
280,104,128133,1,4
344,216,128466,1,4
408,104,128799,1,4
344,216,129133,1,4
256,312,129466,6,0,B|176:312,1,55
136,312,129799,2,0,B|136:256,1,55
136,192,130133,1,0
136,128,130299,2,0,B|200:128,1,55
256,128,130633,1,0
320,128,130799,2,8,B|320:200,2,55
320,64,131300,1,8
384,64,131466,1,8
424,112,131633,1,2
464,160,131800,1,2
368,248,132133,6,0,B|176:248,2,165,4|0|0
248,304,133466,2,0,B|184:304,1,55
128,304,133800,2,0,B|56:304,1,55
72,240,134133,2,0,B|72:184,1,55
72,120,134466,2,0,B|136:120,1,55
192,128,134800,2,2,B|286:213,1,110
248,264,135300,2,2,B|119:143,1,165,0|0
48,48,136133,6,0,B|128:48,1,55
168,48,136466,2,0,B|232:48,1,55
288,48,136800,2,0,B|352:48,1,55
408,48,137133,2,0,B|408:112,1,55
392,168,137466,2,2,B|288:232,1,110
240,248,137966,2,2,B|128:112,1,165
256,72,138800,2,0,B|256:200,1,110
240,248,139300,2,0,B|0:248,1,220
40,184,140133,1,0
112,80,140466,1,0
184,184,140800,1,0
112,288,141133,1,0
240,288,141466,6,0,B|304:288,1,55,4|0
360,288,141800,2,0,B|360:232,1,55
304,208,142133,2,0,B|240:208,1,55
184,208,142466,2,0,B|184:272,1,55
120,264,142800,2,2,B|120:136,1,110
168,112,143300,2,2,B|272:148|256:296,1,220
312,296,144133,6,0,B|312:216,1,55,4|0
312,176,144466,2,0,B|368:176,1,55
424,176,144800,2,0,B|424:240,1,55
424,296,145133,2,0,B|360:296,1,55
312,296,145466,2,2,B|312:168,1,110
304,120,145966,2,2,B|64:120,1,220
88,176,146800,5,4
88,176,146966,1,0
88,232,147133,1,0
88,232,147300,1,0
144,232,147466,1,0
144,232,147633,1,0
200,232,147800,1,0
200,232,147966,1,0
256,232,148133,2,0,B|256:352,1,110
192,344,148633,2,0,B|24:344,1,165
40,224,149466,6,0,B|105:129,1,110
144,80,149966,2,0,B|261:26|368:32,1,220
408,64,150800,2,0,B|408:128,1,55
464,136,151133,2,0,B|464:192,1,55
408,208,151466,2,0,B|408:264,1,55
464,272,151800,2,0,B|464:312,3,27.5
464,272,152133,5,0
344,272,152466,5,0
224,272,152800,5,0
104,272,153133,5,0
64,160,153466,5,0
64,96,153633,1,0
160,160,153966,1,0
240,72,154300,1,2
352,32,154633,1,2
400,72,154800,5,4
400,136,154966,1,0
400,200,155133,1,8
400,264,155300,2,0,B|224:264,1,165
112,264,156133,5,0
112,200,156300,1,0
112,136,156466,1,8
112,72,156633,2,0,B|288:72,1,165
400,72,157466,5,0
400,176,157800,1,0
400,248,157966,2,0,B|344:208,1,55,0|0
240,152,158466,1,0
136,80,158800,5,4
256,80,159133,5,4
200,184,159466,5,4
200,304,159800,5,4
320,304,160133,6,0,B|320:248,1,55
320,128,160633,1,0
256,24,160966,1,2
136,24,161300,1,2
72,24,161466,6,0,B|72:80,1,55
72,200,161966,1,0
136,304,162300,1,2
256,336,162633,1,2
256,272,162800,6,4,B|256:192,1,55
256,96,163300,1,4
256,216,163633,1,4
256,336,163966,1,4
