osu file format v5

[General]
AudioFilename: Egg Fleet Mix.mp3
AudioLeadIn: 0
PreviewTime: 52061
Countdown: 1
SampleSet: Normal
StackLeniency: 0.7
Mode: 0
LetterboxInBreaks: 1
EditorBookmarks: 77449,110782,116116

[Metadata]
Title:Egg Fleet
Artist:Jun Senoue
Creator:K2J
Version:Rose Easy
Source:
Tags:

[Difficulty]
HPDrainRate:3
CircleSize:4
OverallDifficulty:2
SliderMultiplier:1
SliderTickRate:1

[Events]
//Background and Video events
0,0,"heroes_25.png"
//Break Periods
2,46648,50889
2,84316,90556
2,129648,134556
//Storyboard Layer 0 (Background)
//Storyboard Layer 1 (Failing)
//Storyboard Layer 2 (Passing)
//Storyboard Layer 3 (Foreground)
//Storyboard Sound Samples
//Background Colour Transformations
3,100,163,162,255

[TimingPoints]
14800,333.333333333333,4,1,0,100,1

[Colours]
Combo1 : 251,130,175
Combo2 : 255,168,125
Combo3 : 125,0,125

[HitObjects]
200,144,14799,1,0
296,144,15133,1,0
392,144,15466,2,0,B|392:256,1,100,0|4
312,144,17466,5,0
224,144,17799,1,0
136,144,18133,2,0,B|136:256,1,100,0|4
256,240,20133,5,0
256,136,20466,1,0
256,32,20799,1,0
256,32,21133,1,4
352,48,21466,2,0,B|432:120|440:216|352:320,1,300,0|0
256,304,22799,5,0
256,200,23133,5,0
256,96,23466,5,0
256,96,23799,1,4
48,48,25466,6,0,B|400:280,2,400,4|0|4
448,72,29466,1,0
448,224,29966,2,0,B|392:272|304:304,1,150
216,312,30799,6,0,B|48:176,4,200,4|0|0|0|0
312,312,33799,1,0
312,312,33966,1,0
424,152,34633,2,2,B|236:74|64:168,1,350
112,248,36133,6,0,B|256:232|256:280|256:328|400:312,1,300,4|0
393,245,37466,2,0,B|256:230|256:278|256:326|112:310,1,300,4|0
112,208,38799,1,0
376,72,39799,1,0
448,136,40133,2,0,B|448:240,2,100
248,152,41466,6,0,B|152:160|120:264|192:288|264:296|336:296,3,300,4|0|0|0
416,296,44799,1,0
384,200,45133,1,0
336,112,45466,2,2,B|232:48,3,100,0|0|8|12
64,80,52466,5,0
240,168,53133,1,0
416,256,53799,1,0
208,312,54466,1,0
144,232,54799,6,0,L|256:64|368:256,4,400,0|4|4|4|4
320,328,60799,5,0
368,136,61466,1,2
200,24,62133,2,0,L|120:104,1,100,0|0
112,200,62799,6,0,B|152:304|248:376|384:304|412:189,1,400,0|2
288,56,64633,1,0
56,144,65466,6,0,B|168:144,4,100,0|0|0|0|2
176,48,67299,1,0
424,32,68133,6,0,B|424:336,2,300
224,32,70799,6,0,B|344:216,1,200
472,344,72133,2,0,B|256:344,1,200
88,272,73466,6,0,L|160:88|240:288,1,400,0|2
104,344,75299,1,0
328,224,76133,6,0,L|328:112|392:160|464:104|463:237,1,400,0|2
352,320,77966,1,0
176,144,78799,6,0,B|256:224,2,100
376,144,80133,2,2,B|184:392,1,300
256,192,81466,12,4,84133
176,120,92133,6,0,L|296:120,3,100
376,120,93466,2,0,L|376:320,2,200,0|0|4
40,336,96133,1,0
96,200,96633,2,2,B|120:128|208:88,1,150
288,48,97466,5,4
440,288,98466,2,0,L|320:288,1,100
336,136,99299,2,2,B|224:48|128:48|104:80,1,250
336,272,101133,5,0
336,272,101299,1,4
480,64,102133,2,0,B|368:64,4,100
328,64,103966,2,2,B|392:184|328:280|224:312|152:304,1,350
88,248,105466,5,4
432,40,106799,1,0
432,192,107299,2,2,B|368:288|328:304,1,150
232,304,108133,6,0,B|232:192,4,100
80,304,109966,2,2,B|208:72,1,250,2|6
448,256,111799,5,0
448,256,111966,1,4
208,320,112799,6,0,B|104:320,6,100,0|0|0|0|8|8|4
480,24,116133,6,0,B|480:144,5,100,0|2|0|2|0|8
480,320,118466,1,2
416,248,118799,6,0,B|304:248,3,100,0|2|0|2
216,248,120133,2,0,B|112:248|112:144,1,150,4|0
112,64,120966,1,2
248,64,121466,6,0,B|312:168,1,100,0|2
352,240,122133,2,0,B|264:304,1,100,0|2
192,352,122799,2,0,B|128:256,1,100,0|2
64,136,123633,1,2
192,96,124133,6,0,B|264:88|304:152|304:192|288:336,1,300
192,352,125466,6,0,B|120:360|80:296|80:256|96:112,1,300
192,136,126799,6,4,B|192:248,8,100,4|4|4|4|4|4|4|4|0
96,72,136133,6,0,B|88:184|152:272|268:300|360:328|424:280|455:254|496:176,1,550
256,88,138800,2,0,B|120:152|112:248,3,200
296,312,141466,6,0,B|408:256|408:152|368:96|312:80,1,300,4|0
216,80,142800,2,2,B|112:280,1,200
304,336,144133,2,0,B|416:336,3,100
432,240,145466,2,2,B|112:240,1,300
184,328,146800,6,0,B|272:264|368:136|331:98|331:98|296:64|232:88|184:112|177:121|177:121|120:72|74:68|44:68|32:80|24:112|24:112|16:168|104:264,2,800,0|4|0
280,344,152466,5,0
360,288,152800,5,0
440,224,153133,5,0
448,120,153466,2,0,B|432:32|360:16|192:24,1,300,4|0
176,120,154800,6,0,B|80:256|272:360,1,300,4|0
368,352,156133,6,0,B|464:216|272:112,1,300,4|0
176,128,157466,6,0,B|296:312,1,200,4|4
416,144,158800,5,0
328,104,159133,5,0
240,64,159466,5,0
144,32,159800,5,0
256,192,160133,12,4,163966
