osu file format v5

[General]
AudioFilename: Egg Fleet Mix.mp3
AudioLeadIn: 0
PreviewTime: 52061
Countdown: 1
SampleSet: Normal
StackLeniency: 0.7
Mode: 0
LetterboxInBreaks: 1
EditorBookmarks: 14783,25449,46449,77449,110782,116116,152116,154782,151665

[Metadata]
Title:Egg Fleet
Artist:Jun Senoue
Creator:K2J
Version:Dark Insane
Source:Sonic Heroes
Tags:

[Difficulty]
HPDrainRate:5
CircleSize:6
OverallDifficulty:7
SliderMultiplier:1.2
SliderTickRate:2

[Events]
//Background and Video events
0,0,"heroes_27.png"
//Break Periods
2,94982,102899
//Storyboard Layer 0 (Background)
//Storyboard Layer 1 (Failing)
//Storyboard Layer 2 (Passing)
//Storyboard Layer 3 (Foreground)
//Storyboard Sound Samples
//Background Colour Transformations
3,100,163,162,255

[TimingPoints]
14800,333.333333333333,4,1,0,100,1

[Colours]
Combo1 : 202,0,0
Combo2 : 255,0,128
Combo3 : 192,192,192

[HitObjects]
72,56,14799,1,0
192,152,15133,1,0
320,232,15466,1,0
320,80,15799,1,0
176,96,16133,1,0
176,168,16299,1,0
176,240,16466,1,0
176,312,16633,1,0
176,240,16799,1,8
176,168,16966,1,8
176,96,17133,1,8
248,96,17299,1,8
320,96,17466,5,0
440,192,17799,1,0
328,296,18133,1,0
328,144,18466,1,0
176,144,18799,1,0
120,200,18966,1,0
168,264,19133,1,0
224,320,19299,2,0,B|432:320,1,180
464,200,20133,5,0
336,112,20466,1,0
208,200,20799,1,0
208,48,21133,1,0
112,152,21466,1,0
152,216,21633,1,0
192,280,21799,1,0
240,336,21966,1,0
296,280,22133,1,8
336,216,22299,1,8
384,152,22466,1,8
432,88,22633,1,8
352,88,22799,5,0
504,88,23133,5,0
432,224,23466,5,0
432,64,23799,5,0
280,64,24133,5,0
208,64,24299,1,0
280,64,24466,1,0
280,136,24633,2,0,B|336:208|456:216,1,180
360,336,25466,5,4
216,336,25799,1,0
216,336,25966,1,0
216,264,26133,1,0
216,264,26299,1,0
216,192,26466,1,0
288,320,26799,2,0,B|288:72,2,240,0|0|4
432,312,28466,1,0
432,312,28633,1,0
360,312,28799,1,0
360,312,28966,1,0
360,240,29133,1,0
272,360,29466,2,0,B|192:248,1,120
168,192,29966,2,0,B|376:56,1,240
440,32,30799,5,4
440,184,31133,1,0
440,184,31299,1,0
360,184,31466,1,0
360,184,31633,1,0
360,256,31799,1,0
360,328,31966,2,0,B|192:216,1,180
80,144,32799,1,0
200,48,33133,1,0
264,184,33466,2,0,B|344:88,1,120
384,32,33966,1,0
144,88,34633,2,2,B|33:153|19:335|114:358|234:383|328:328,1,480,0|0
360,288,36133,1,4
208,264,36466,5,0
208,184,36633,1,0
208,104,36799,1,0
208,24,36966,1,0
272,64,37133,1,0
352,112,37466,2,0,C|435:165|441:261|359:244|176:344,1,480,0|4
32,320,39133,1,0
88,272,39299,1,0
152,224,39466,1,0
216,176,39633,1,0
176,112,39799,1,0
296,40,40133,2,0,C|384:128,1,120
400,192,40633,2,0,B|430:332|232:304,1,240,0|0
176,288,41466,5,4
176,144,41799,1,0
176,216,41966,1,0
176,144,42133,1,0
176,216,42299,1,0
176,288,42466,1,0
248,296,42633,2,0,B|391:315|456:200,1,240
408,152,43466,1,0
304,56,43799,1,0
200,152,44133,1,0
280,272,44466,1,0
280,344,44633,1,0
344,312,44799,2,2,B|344:240,1,60
344,184,45133,1,2
416,184,45299,2,2,B|369:17|149:39|80:184,1,420
80,320,46799,5,0
152,320,46966,1,0
208,248,47133,1,8
344,320,47466,1,0
264,320,47633,1,0
208,248,47799,1,8
80,184,48133,1,0
152,184,48299,1,0
208,248,48466,1,8
408,128,48966,2,2,C|472:232,1,120
424,296,49466,5,0
352,296,49633,1,0
296,232,49799,1,8
160,296,50133,1,0
240,296,50299,1,0
296,232,50466,1,8
432,144,50799,1,0
360,104,50966,1,0
288,64,51133,1,0
360,32,51299,1,4
360,192,51633,2,0,B|360:328,1,120
288,344,52133,5,0
288,344,52299,1,0
288,264,52466,1,8
152,344,52799,1,0
152,344,52966,1,0
152,264,53133,1,8
152,104,53466,1,0
152,104,53633,1,0
152,184,53799,1,8
352,64,54299,2,2,B|352:144,1,60
352,200,54633,5,8
328,272,54799,1,0
248,272,54966,2,0,B|200:216,1,60
160,160,55299,1,0
112,224,55466,2,0,B|72:288,1,60
128,336,55799,1,0
208,336,55966,1,0
288,336,56133,5,8
368,336,56299,2,0,B|400:304|360:272,1,60
288,272,56633,1,0
208,272,56799,2,0,B|176:240|216:208,1,60
280,216,57133,1,0
352,176,57299,1,0
432,176,57466,5,8
432,96,57633,2,0,L|409:62|376:72,1,60
320,104,57966,1,0
240,128,58133,2,0,L|263:162|296:152,1,60
360,136,58466,1,0
424,184,58633,1,0
392,256,58799,5,8
320,288,58966,1,0
320,288,59049,1,0
320,288,59133,1,8
240,288,59299,1,0
160,288,59466,1,0
160,208,59633,1,0
160,208,59716,1,0
160,208,59799,1,8
160,128,59966,1,0
240,128,60133,5,0
320,128,60299,1,0
320,128,60383,1,0
320,128,60466,1,8
384,168,60633,1,0
384,248,60799,1,0
328,296,60966,1,0
328,296,61049,1,0
328,296,61133,1,8
272,240,61299,1,0
224,176,61466,5,2
168,320,61799,1,8
168,320,61883,1,8
168,320,61966,1,8
88,320,62133,1,0
88,240,62299,1,0
88,160,62466,2,0,L|152:160,1,60
160,232,62799,6,0,L|224:184,1,60
272,152,63133,2,0,L|272:80,1,60
336,48,63466,2,0,L|416:48,1,60
472,40,63799,2,0,L|440:104,1,60
408,160,64133,2,2,L|408:288,1,120
360,344,64633,2,2,L|120:344,1,240
72,280,65466,5,0
72,200,65633,1,0
72,120,65799,1,0
144,120,65966,1,0
144,200,66133,1,0
224,200,66299,1,0
296,200,66466,2,0,C|344:136,1,60
344,72,66799,2,2,C|280:72,1,60
208,72,67133,1,2
272,24,67299,2,2,C|72:24,1,180
224,112,68133,6,0,B|112:56|32:40|-24:112|-24:120|16:184|112:216|144:224|198:175|212:209|192:232|202:325|136:296|88:304|48:304|16:280,1,600,4|0
24,216,69966,2,0,B|24:104|24:104|80:145|80:145|106:146|106:146|176:216,1,300,0|0
248,336,71133,2,0,L|312:200|384:360,1,300,0|0
296,328,72133,2,0,L|296:168|417:250|336:344,1,420
416,328,73466,2,0,B|446:238|533:303|501:387|456:376|424:344,2,180
352,288,74633,1,0
280,272,74799,2,2,L|216:360|168:304|120:360|56:264,1,360
168,176,76133,5,0
240,176,76299,1,0
312,176,76466,1,0
384,176,76633,1,0
384,248,76799,1,0
312,248,76966,1,0
240,248,77133,2,0,C|176:248,1,60
104,248,77466,2,2,C|104:184,1,60
104,112,77799,1,2
152,56,77966,2,2,C|352:56,1,180
424,168,78799,5,0
424,240,78966,1,0
352,240,79133,1,0
424,240,79299,1,0
368,184,79466,1,0
312,136,79633,1,0
240,136,79799,2,0,B|240:200,1,60
248,272,80133,2,2,L|160:272,1,60
112,272,80466,1,2
72,208,80633,2,2,L|320:208,1,240
368,256,81466,6,0,L|368:112,1,120
376,64,81966,2,0,B|210:5|209:198|264:192,1,240
360,208,82799,1,0
360,208,82883,1,0
408,112,83133,1,0
408,112,83216,1,0
296,112,83466,1,0
296,112,83549,1,0
296,112,83633,1,0
296,112,83716,1,0
296,112,83799,1,0
296,112,83883,1,0
296,112,83966,1,0
296,112,84049,1,0
296,112,84133,5,0
440,112,84466,5,0
376,240,84799,5,0
256,328,85133,1,0
144,224,85466,2,8,B|144:88,1,120
200,56,85966,1,0
272,56,86133,1,0
344,56,86299,1,0
344,56,86383,1,0
344,56,86466,1,0
344,56,86549,1,0
344,56,86633,1,0
344,56,86716,1,0
344,56,86799,5,0
344,208,87133,1,0
192,208,87466,1,0
264,344,87799,1,0
264,192,88133,2,4,B|264:128,1,60
184,136,88466,1,0
104,136,88633,2,0,B|104:204,1,60,0|0
152,256,88966,1,0
208,304,89133,1,0
264,256,89299,1,0
328,304,89466,5,0
328,152,89799,1,0
176,152,90133,1,0
256,280,90466,1,0
256,48,90966,5,4
256,200,91299,1,0
176,200,91466,1,0
176,280,91633,2,0,B|176:328,2,30
176,136,92133,5,0
336,136,92466,5,0
256,272,92799,5,0
408,272,93133,5,0
336,136,93466,5,2
256,136,93633,1,2
112,136,93966,1,0
232,64,94299,1,2
384,64,94633,1,2
456,64,94799,1,4
256,192,103966,12,4,105466
120,80,105799,5,0
120,160,105966,1,0
200,160,106133,1,0
200,240,106299,1,0
120,240,106466,1,0
120,240,106549,1,0
120,240,106633,1,0
120,240,106716,1,0
120,240,106799,1,0
352,240,107299,2,2,B|318:133|200:48,1,240
136,88,108133,1,4
136,240,108466,5,0
192,184,108633,1,0
248,240,108799,1,0
304,184,108966,1,0
248,128,109133,1,0
248,128,109216,1,0
248,128,109299,1,0
248,128,109383,1,0
248,128,109466,1,0
64,264,109966,2,2,B|98:157|216:72,1,240
288,80,110799,5,4
368,80,110966,1,4
448,80,111133,2,0,B|408:128,1,60
360,184,111466,2,0,B|320:232,1,60
264,280,111799,1,0
192,312,111966,2,4,B|175:434|24:248,1,240,4|0
80,192,112799,5,0
200,96,113133,1,0
328,184,113466,1,0
200,272,113799,1,0
200,192,113966,1,0
312,88,114299,1,2
384,120,114466,1,2
448,160,114633,2,2,B|520:216|464:320|400:336|400:336|312:336|232:304,1,360
184,296,115799,1,0
184,296,115883,1,0
184,296,115966,1,0
184,296,116049,1,0
184,296,116133,5,0
184,216,116299,1,0
184,136,116466,1,8
312,216,116799,1,0
352,152,116966,1,0
392,88,117133,1,8
240,88,117466,1,0
160,88,117633,1,0
200,152,117799,2,8,B|200:232,1,60
352,176,118299,2,2,B|448:256,1,120
376,296,118799,1,0
304,296,118966,1,0
248,232,119133,1,8
112,296,119466,1,0
192,296,119633,1,0
248,232,119799,1,8
400,224,120133,5,0
336,176,120299,1,0
272,136,120466,1,0
200,96,120633,1,4
112,224,120966,2,0,B|192:224,1,60,4|8
248,224,121299,1,8
328,224,121466,5,0
408,224,121633,1,0
368,152,121799,1,8
216,224,122133,5,0
136,224,122299,1,0
176,152,122466,1,8
296,24,122799,5,0
376,24,122966,1,0
336,88,123133,2,8,B|336:152,1,60
368,304,123633,2,2,B|440:304,1,60
496,272,123966,5,0
432,232,124133,1,0
360,232,124299,1,0
328,256,124383,1,0
296,232,124466,1,0
216,232,124633,1,0
216,312,124799,1,0
136,312,124966,1,0
104,288,125049,1,0
72,312,125133,1,0
72,232,125299,1,0
96,152,125466,5,0
128,80,125633,1,0
160,104,125716,1,0
192,80,125799,1,0
272,80,125966,1,0
344,48,126133,1,0
344,128,126299,1,0
368,160,126383,1,0
392,128,126466,1,0
440,64,126633,1,0
448,144,126799,5,4
448,224,126966,1,0
408,224,127049,1,0
368,224,127133,1,4
288,224,127299,1,0
288,144,127466,1,4
208,144,127633,1,0
192,184,127716,1,0
208,216,127799,1,4
128,216,127966,1,0
72,152,128133,1,4
120,88,128299,1,0
192,88,128466,1,4
264,64,128633,1,0
296,48,128716,1,0
328,72,128799,1,4
328,152,128966,1,0
392,104,129133,2,0,B|392:168,1,60,4|0
360,240,129466,6,0,B|280:240,3,60
256,168,130133,1,0
176,168,130299,2,0,B|112:168,1,60
80,96,130633,1,0
160,96,130799,2,8,B|160:24,1,60
240,40,131133,2,8,B|240:104,1,60
240,176,131466,1,8
176,232,131633,1,2
112,280,131800,1,2
272,280,132133,6,0,B|464:280,2,180
128,208,133466,2,0,B|192:208,1,60
248,208,133800,2,0,B|176:208,1,60
188,148,134133,2,0,B|188:220,1,60
188,269,134466,2,0,B|188:205,1,60
240,264,134800,2,2,B|304:152,1,120
328,104,135300,2,2,B|472:240,1,180,0|2
312,272,136133,6,0,B|232:272,1,60
312,232,136466,2,0,B|248:232,1,60
312,184,136800,2,0,B|248:184,1,60
312,136,137133,2,0,B|248:136,1,60
176,128,137466,2,2,B|280:64,1,120
344,24,137966,2,2,B|464:168,1,180
368,288,138800,2,4,B|368:160,1,120,4|0
368,88,139300,2,0,B|248:25|128:88,1,240,4|0
88,144,140133,1,0
224,208,140466,1,0
376,208,140800,1,0
376,288,140966,1,0
376,288,141050,1,0
376,288,141133,1,0
376,288,141216,1,0
376,288,141300,1,0
376,288,141383,1,0
376,288,141466,6,0,B|312:288,1,60,4|0
376,240,141800,2,0,B|304:240,1,60,0|0
376,192,142133,2,0,B|312:192,1,60
376,144,142466,2,0,B|312:144,1,60
376,96,142800,2,2,B|248:96,1,120
316,144,143300,2,2,B|60:144,1,240,2|2
120,216,144133,2,0,B|200:216,1,60,4|0
120,264,144466,2,0,B|192:264,1,60
120,312,144800,2,0,B|184:312,1,60
120,360,145133,2,0,B|184:360,1,60
256,360,145466,2,2,B|384:360,1,120
320,304,145966,2,2,B|320:48,1,240
384,72,146800,5,4
384,152,146966,1,0
384,232,147133,1,0
384,312,147300,1,0
384,232,147466,1,0
384,152,147633,1,0
384,72,147800,1,0
384,152,147966,1,0
312,192,148133,2,0,B|312:56,1,120,4|0
248,24,148633,2,0,B|64:24,1,180,4|0
48,160,149466,6,0,B|152:232,1,120,4|0
208,272,149966,2,0,B|432:176,1,240,4|0
376,120,150800,2,0,B|376:56,1,60
424,120,151133,2,0,B|424:48,1,60
472,120,151466,2,0,B|472:48,1,60
400,40,151800,1,0
360,40,151883,1,0
320,40,151966,1,0
280,40,152050,1,0
240,40,152133,5,4
160,168,152466,5,0
312,168,152800,5,0
240,304,153133,5,0
384,264,153466,5,0
384,184,153633,1,0
256,88,153966,1,0
144,192,154300,1,2
256,192,154633,1,2
256,272,154800,5,4
184,232,154966,1,0
184,152,155133,1,8
256,120,155300,2,0,B|331:136|338:200|256:248,1,180,0|8
88,184,156133,5,0
144,112,156300,1,0
216,56,156466,1,8
296,24,156633,2,0,B|352:96|312:224,1,180,0|8
256,296,157466,5,0
152,192,157633,1,0
256,88,157800,1,0
360,192,157966,1,0
256,192,158133,2,0,B|176:272|152:296,1,120
24,272,158800,5,4
168,272,159133,5,4
88,152,159466,5,4
168,272,159800,5,4
184,128,160133,5,0
256,128,160300,1,0
400,136,160633,1,0
288,40,160966,1,2
144,40,161300,1,2
200,104,161466,5,0
272,160,161633,1,0
400,40,161966,1,0
320,200,162300,1,2
192,320,162633,1,2
256,256,162800,5,0
256,160,162966,1,0
64,160,163300,1,4
256,128,163633,1,4
256,320,163966,1,4
