osu file format v5

[General]
AudioFilename: Egg Fleet Mix.mp3
AudioLeadIn: 0
PreviewTime: 52061
Countdown: 1
SampleSet: Normal
StackLeniency: 0.7
Mode: 0
LetterboxInBreaks: 1
EditorBookmarks: 14783,46449,73449,77449,110782,116116

[Metadata]
Title:Egg Fleet
Artist:Jun Senoue
Creator:K2J
Version:Chaotix Medium
Source:Sonic Heroes
Tags:

[Difficulty]
HPDrainRate:4
CircleSize:4
OverallDifficulty:4
SliderMultiplier:1.1
SliderTickRate:2

[Events]
//Background and Video events
0,0,"heroes_28.png"
//Break Periods
2,36316,45462
2,62982,69462
2,94982,104129
//Storyboard Layer 0 (Background)
//Storyboard Layer 1 (Failing)
//Storyboard Layer 2 (Passing)
//Storyboard Layer 3 (Foreground)
//Storyboard Sound Samples
//Background Colour Transformations
3,100,163,162,255

[TimingPoints]
14800,333.333333333333,4,1,0,100,1

[Colours]
Combo1 : 157,0,79
Combo2 : 253,253,0
Combo3 : 0,255,0

[HitObjects]
184,136,14799,2,0,B|312:136,1,110,4|0
416,136,15466,2,0,B|416:256,1,110
336,336,16133,2,0,B|176:304|80:120,1,330
192,80,17466,6,0,B|304:80,1,110,4|0
424,80,18133,2,0,B|424:208,1,110
424,312,18799,2,0,B|344:312,3,55,0|0|0|4
120,136,20133,6,0,B|248:136,1,110,4|0
328,64,20799,2,0,B|328:184,1,110
288,288,21466,2,0,B|520:320|432:80,1,330
312,104,22799,5,0
256,208,23133,5,0
200,104,23466,5,0
200,104,23799,1,0
256,192,24133,12,4,25466
80,56,26466,5,0
200,56,26799,2,0,B|288:56|344:120|360:208,2,220,0|0|4
448,328,29133,1,0
320,328,29466,2,0,B|232:328|128:328,2,165
392,224,30799,5,4
64,64,31799,1,0
64,64,31966,1,4
256,288,32799,2,0,B|256:152,1,110
256,56,33466,1,0
376,56,33799,1,0
376,56,33966,1,0
360,296,34633,6,2,B|72:376|192:96,1,385
304,72,36133,5,4
352,304,46799,6,0,B|216:304,1,110,0|8
132,305,47466,2,0,B|268:305,1,110,0|8
312,224,48133,2,0,B|216:144,1,110,0|8
96,48,48966,1,2
256,64,49466,6,0,B|256:200,1,110,0|8
256,284,50133,2,0,B|256:148,1,110,0|8
176,248,50799,2,0,B|72:96,2,165,0|4|0
272,328,52133,6,0,B|136:328,1,110,0|8
52,328,52799,2,0,B|188:328,1,110,0|8
248,240,53466,2,0,B|344:152,1,110,0|8
464,48,54299,1,4
288,88,54799,6,0,B|232:-8|120:8|88:104|88:176|88:216,1,330
152,296,56133,6,0,B|208:392|320:376|352:280|352:208|352:168,1,330
288,88,57466,6,0,B|232:-8|120:8|88:104|88:176|88:216,1,330,4|0
152,296,58799,6,0,B|208:392|320:376|352:280|352:208|352:168,1,330,4|0
256,112,60133,5,4
32,200,60799,1,0
272,200,61466,1,2
392,200,61799,2,0,B|392:128,6,55,0|0|8|0|8|0|4
192,96,70799,6,0,B|84:64|-15:106|-3:144|-19:259|68:291|128:312|184:304,1,440
256,256,72466,2,0,L|256:144|312:185|344:184|344:304,1,330
448,336,73799,2,0,L|448:104,1,220
384,216,74799,2,2,B|320:152|248:184|196:297|296:352|376:312|392:248,1,330
400,144,76133,6,0,B|336:80|368:8|481:-44|536:56|496:136|432:152,1,330,0|0
352,208,77466,2,2,B|352:336,1,110
408,320,77966,2,2,B|288:320,1,110
136,232,78799,6,0,B|136:112,3,110
248,160,80133,2,2,B|288:104|376:168|424:240|432:248,1,220
304,240,81133,2,0,B|368:120,3,110,0|4|0|4
256,192,82466,12,4,84133
104,304,85466,6,0,B|240:304,1,110
336,304,86133,2,0,B|336:240,3,55,0|0|0|0
96,80,88133,6,0,B|272:80,2,165,8|0|8
472,336,90966,2,0,B|472:88,1,220,4|0
304,72,92133,6,0,B|192:72,1,110
200,192,92799,6,0,B|312:192,1,110,0|0
312,312,93466,6,0,B|200:312,4,110,0|0|8|8|4
160,120,105466,5,4
280,120,105799,2,0,B|280:192,6,55
464,112,107299,2,2,B|496:176|480:272|456:312|352:336,1,275,0|4
248,296,108466,6,0,B|248:224,6,55
64,288,109966,2,2,B|32:224|48:128|72:88|152:56,1,275,0|4
232,144,111133,6,0,B|268:208,4,55
280,104,111966,2,0,B|440:352,1,275
464,216,113133,1,0
464,96,113466,1,0
344,64,113799,1,0
344,64,113966,1,0
224,64,114299,6,2,B|80:96|40:224|96:312|176:352|314:306,1,495
432,304,116133,6,0,B|432:168,1,110,0|8
432,84,116799,2,0,B|432:220,1,110,0|8
336,120,117466,2,0,B|224:120,1,110,0|8
40,112,118299,1,2
120,272,118799,6,0,B|256:272,1,110,0|8
340,272,119466,2,0,B|204:272,1,110,0|8
192,152,120133,2,0,B|344:48,2,165,0|4|0
112,248,121466,6,0,B|192:248,2,55,0|0|2
232,248,122133,2,0,B|296:248,2,55,0|0|2
352,248,122799,2,0,B|432:248,2,55,0|0|2
224,120,123633,1,0
384,32,124133,6,0,B|384:160,3,110
384,264,125466,2,0,B|272:264,3,110
160,304,126799,2,4,B|160:168,1,110,4|4
160,84,127466,2,0,B|160:220,1,110,0|4
280,192,128133,2,4,B|416:192,1,110
500,192,128799,2,4,B|364:192,1,110
400,72,129466,6,0,B|168:72,2,220
448,312,131466,1,8
384,312,131633,1,2
320,312,131799,1,2
256,208,132133,6,0,B|256:32,2,165,4|0|0
184,304,133466,2,0,B|120:304,6,55
256,208,134800,2,0,B|120:72,2,165
328,304,136133,6,0,B|400:304,6,55
256,208,137466,2,0,B|328:48,2,165,0|0|0
256,328,138800,2,0,B|72:328,2,165
256,208,140133,2,0,B|432:208,2,165
136,208,141466,6,0,B|72:88,3,110
208,104,142799,1,2
392,104,143299,2,0,B|192:216,1,220
136,208,144133,6,0,B|72:88,3,110,4|0|0|0
192,56,145466,1,2
192,56,145966,2,2,B|320:248,1,220
352,288,146800,6,0,B|352:160,1,110,0|0
352,56,147466,2,0,B|240:56,1,110
120,56,148133,1,4
120,240,148633,2,0,B|160:328|272:288,1,165
256,192,149466,12,4,152133
136,264,153466,6,0,B|264:264,3,110,0|0|8|8
368,264,154800,6,0,B|456:200|336:56,1,220,4|8
104,72,156133,6,0,B|16:136|136:280,1,220,4|8
360,328,157466,5,0
424,224,157800,1,0
360,120,158133,1,0
296,224,158466,1,0
176,256,158800,5,4
176,136,159133,5,4
72,192,159466,5,4
72,192,159800,1,4
96,72,160133,6,0,B|176:72,1,55
272,72,160633,1,0
328,176,160966,1,2
376,288,161300,1,2
400,344,161466,6,0,B|320:344,1,55
224,344,161966,1,0
168,240,162300,1,2
120,128,162633,1,2
112,64,162800,6,0,B|192:64,1,55
288,88,163300,5,4
392,32,163633,5,4
392,152,163966,5,4
