osu file format v12

[General]
AudioFilename: Casino Park Zone.mp3
AudioLeadIn: 0
PreviewTime: 13097
Countdown: 1
SampleSet: Soft
StackLeniency: 0.7
Mode: 0
LetterboxInBreaks: 1
WidescreenStoryboard: 0

[Editor]
DistanceSpacing: 1.1
BeatDivisor: 4
GridSize: 8
TimelineZoom: 1

[Metadata]
Title:Casino Park Zone
TitleUnicode:Casino Park Zone
Artist:Jun Senoue
ArtistUnicode:Jun Senoue
Creator:Gishki
Version:Normal
Source:Sonic Heroes
Tags:Sonic Heroes Casino Park Zone
BeatmapID:383137
BeatmapSetID:156341

[Difficulty]
HPDrainRate:4
CircleSize:4
OverallDifficulty:5
ApproachRate:6
SliderMultiplier:1.2
SliderTickRate:2

[Events]
//Background and Video events
0,0,"image_58559.jpg",0,0
//Break Periods
2,46430,53400
2,100676,110934
//Storyboard Layer 0 (Background)
//Storyboard Layer 1 (Fail)
//Storyboard Layer 2 (Pass)
//Storyboard Layer 3 (Foreground)
//Storyboard Sound Samples
//Background Colour Transformations
3,100,163,162,255

[TimingPoints]
6779,410.958904109589,4,2,0,60,1,0
67600,-100,4,2,0,60,0,1
80340,-100,4,2,0,60,0,0
118559,-100,4,2,0,60,0,1
124724,-100,4,2,0,60,0,0

[Colours]
Combo1 : 64,0,64
Combo2 : 128,0,128
Combo3 : 0,0,255
Combo4 : 255,0,128
Combo5 : 0,128,64
Combo6 : 128,0,255

[HitObjects]
80,56,6779,6,0,L|232:88,2,150
432,56,8422,2,0,L|280:88,2,150
176,104,10066,6,0,B|240:144|240:144|176:176|176:176|240:216|240:216|312:176|312:176|368:224|368:224|312:264|312:264|368:304|368:304|304:344|304:344|248:304|248:304|192:344|192:344|136:296|136:296|72:296|72:296,1,840
160,96,13354,5,0,0:0:0:0:
240,32,13662,2,0,L|304:128,1,90
384,80,14227,2,0,L|336:168,1,90
304,192,14895,2,0,L|304:296,1,90
176,200,16642,5,0,0:0:0:0:
256,216,16950,2,0,L|200:312,1,90
120,248,17566,2,0,L|168:344,1,90
272,264,18285,2,0,P|440:264|304:192,1,420
192,120,19929,5,0,0:0:0:0:
224,64,20237,2,0,L|336:64,1,90
376,88,20854,2,0,P|376:152|352:192,1,90
320,144,21470,2,0,P|320:208|360:224,1,90
272,232,23217,5,0,0:0:0:0:
200,304,23525,2,0,L|312:312,1,90
392,320,24142,2,0,P|392:256|384:208,1,90
256,192,24861,1,0,0:0:0:0:
336,80,26505,5,0,0:0:0:0:
288,168,26813,2,0,L|240:64,1,90
152,112,27429,2,0,L|208:8,1,90
264,104,28046,2,0,L|264:-8,1,90
336,232,29792,5,0,0:0:0:0:
256,168,30100,2,0,L|312:64,1,90
384,136,30717,2,0,L|336:32,1,90
208,88,31436,2,0,P|40:88|176:176,1,420
328,280,33080,5,0,0:0:0:0:
288,320,33388,2,0,L|176:320,1,90
96,320,34005,2,0,P|96:256|112:224,1,90
192,184,34621,2,0,P|192:112|160:88,1,90
368,64,36368,5,0,0:0:0:0:
288,64,36676,2,0,L|176:64,1,90
120,64,37292,2,0,P|120:128|144:168,1,90
256,192,38011,12,0,39244,0:0:0:0:
8,304,39655,6,0,P|128:224|128:136,1,240
136,104,40683,1,0,0:0:0:0:
192,64,40888,1,0,0:0:0:0:
320,64,41299,2,0,B|520:192|520:192|288:320,1,480
248,312,43148,6,0,P|184:248|184:160,1,180
240,120,43970,1,0,0:0:0:0:
288,56,44176,1,0,0:0:0:0:
160,56,44587,2,0,B|-40:184|-40:184|192:304,1,480
176,304,54450,5,0,0:0:0:0:
256,216,54758,2,0,L|304:320,1,90
392,272,55374,2,0,L|336:376,1,90
328,256,55991,2,0,L|328:368,1,90
176,160,57737,5,0,0:0:0:0:
256,216,58046,2,0,L|200:320,1,90
120,264,58662,2,0,L|176:368,1,90
248,152,60203,1,0,0:0:0:0:
136,64,61025,5,0,0:0:0:0:
224,64,61333,2,0,L|336:64,1,90
392,64,61950,2,0,P|392:128|368:168,1,90
304,200,62566,2,0,P|304:272|336:288,1,90
144,312,64313,5,0,0:0:0:0:
224,320,64621,2,0,L|336:328,1,90
416,328,65237,2,0,P|416:264|408:216,1,90
256,192,65957,1,0,0:0:0:0:
336,80,67600,5,0,0:0:0:0:
256,168,67909,2,0,L|208:64,1,90
96,168,68525,2,0,L|152:64,1,90
176,256,69142,2,0,L|176:144,1,90
344,248,70888,5,0,0:0:0:0:
256,168,71196,2,0,L|312:64,1,90
416,168,71813,2,0,L|368:64,1,90
328,136,72532,2,0,P|160:136|288:232,1,420
328,280,74176,5,0,0:0:0:0:
288,320,74484,2,0,L|176:320,1,90
120,320,75100,2,0,P|120:256|152:224,1,90
208,184,75717,2,0,P|208:112|176:88,1,90
376,72,77463,5,0,0:0:0:0:
288,64,77772,2,0,L|176:64,1,90
120,64,78388,2,0,P|120:128|144:168,1,90
256,192,79107,12,0,80340,0:0:0:0:
24,312,80751,6,0,P|144:224|144:136,1,240
200,104,81779,1,0,0:0:0:0:
224,40,81984,1,0,0:0:0:0:
288,64,82395,2,0,B|488:192|488:192|256:320,1,480
200,312,84244,6,0,P|136:248|136:160,1,180
224,128,85066,1,0,0:0:0:0:
296,64,85272,1,0,0:0:0:0:
224,64,85683,2,0,B|24:192|24:192|256:320,1,480
168,296,87532,6,0,P|232:232|232:144,1,180
176,104,88354,1,0,0:0:0:0:
216,56,88559,1,0,0:0:0:0:
288,64,88970,2,0,B|488:192|488:192|256:312,1,480
144,64,90820,6,0,P|80:128|80:216,1,180
112,304,91642,1,0,0:0:0:0:
184,248,91847,1,0,0:0:0:0:
224,320,92258,2,0,B|24:192|24:192|248:72,1,480
376,48,94107,6,0,P|312:112|312:200,1,180
304,256,94929,1,0,0:0:0:0:
288,320,95135,1,0,0:0:0:0:
224,320,95546,2,0,B|24:192|24:192|248:64,1,480
176,160,97395,6,0,P|248:208|248:272,1,150
176,256,98217,1,0,0:0:0:0:
208,312,98422,1,0,0:0:0:0:
288,320,98833,2,0,B|488:192|488:192|256:72,1,480
432,56,111984,6,0,L|296:88,1,120
384,136,112600,2,0,L|248:176,1,120
80,56,113628,2,0,L|224:80,1,120
40,136,114244,2,0,L|168:160,1,120
384,80,115272,6,0,B|320:120|320:120|384:152|384:152|320:192|320:192|248:152|248:152|192:200|192:200|248:240|248:240|192:280|192:280|256:320|256:320|312:280|312:280|368:320|368:320|424:272|424:272|480:264|480:264,1,840
384,48,118559,5,0,0:0:0:0:
328,64,118765,1,0,0:0:0:0:
272,80,118970,1,0,0:0:0:0:
96,216,119792,1,0,0:0:0:0:
136,272,119998,1,0,0:0:0:0:
192,312,120203,1,0,0:0:0:0:
240,272,120409,1,0,0:0:0:0:
304,272,120614,1,0,0:0:0:0:
368,192,120820,2,0,L|368:336,1,120
256,192,121847,12,0,124724,0:0:0:0:
