osu file format v12

[General]
AudioFilename: Casino Park Zone.mp3
AudioLeadIn: 0
PreviewTime: 13097
Countdown: 1
SampleSet: Soft
StackLeniency: 0.7
Mode: 0
LetterboxInBreaks: 1
WidescreenStoryboard: 1

[Editor]
DistanceSpacing: 1.1
BeatDivisor: 8
GridSize: 8
TimelineZoom: 1

[Metadata]
Title:Casino Park Zone
TitleUnicode:Casino Park Zone
Artist:Jun Senoue
ArtistUnicode:Jun Senoue
Creator:Gishki
Version:Hard
Source:Sonic Heroes
Tags:Sonic Heroes Casino Park Zone
BeatmapID:383136
BeatmapSetID:156341

[Difficulty]
HPDrainRate:5
CircleSize:5
OverallDifficulty:7
ApproachRate:8
SliderMultiplier:1.59999990463257
SliderTickRate:2

[Events]
//Background and Video events
0,0,"image_58559.jpg",0,0
//Break Periods
2,46430,53700
2,100677,111234
//Storyboard Layer 0 (Background)
//Storyboard Layer 1 (Fail)
//Storyboard Layer 2 (Pass)
//Storyboard Layer 3 (Foreground)
//Storyboard Sound Samples
//Background Colour Transformations
3,100,163,162,255

[TimingPoints]
6779,410.958904109589,4,2,0,60,1,0
67600,-100,4,2,0,60,0,1
80340,-100,4,2,0,60,0,0
118559,-100,4,2,0,60,0,1
124724,-100,4,2,0,60,0,0

[Colours]
Combo1 : 22,38,239
Combo2 : 0,230,230
Combo3 : 247,80,9
Combo4 : 255,0,128
Combo5 : 0,193,0
Combo6 : 128,0,255
Combo7 : 255,36,36
Combo8 : 238,250,22

[HitObjects]
80,56,6779,6,0,L|256:96,1,159.999990463257
128,136,7395,2,0,L|296:176,1,159.999990463257
400,200,8012,6,0,B|440:128,1,79.9999952316285
432,56,8423,6,0,L|264:88,1,159.999990463257
384,136,9039,2,0,L|224:168,1,159.999990463257
112,72,10066,6,0,B|112:112|144:120|144:120|168:120,1,79.9999952316285
256,120,10477,1,0,0:0:0:0:
352,120,10683,2,0,L|352:200,2,79.9999952316285
440,120,11299,6,0,B|440:160|464:192|464:192|440:224|440:272,1,159.999990463257
336,312,11915,1,0,0:0:0:0:
280,256,12121,1,0,0:0:0:0:
224,312,12326,1,0,0:0:0:0:
144,312,12532,2,0,L|144:224,1,79.9999952316285
160,48,13354,5,0,0:0:0:0:
208,128,13765,2,0,L|264:232,1,79.9999952316285
288,144,14176,1,0,0:0:0:0:
368,128,14381,2,0,L|312:232,1,79.9999952316285
256,216,14792,1,0,0:0:0:0:
304,248,14998,2,0,L|304:336,1,79.9999952316285
432,248,15614,6,0,P|397:206|358:215,1,79.9999952316285
328,232,16025,2,0,P|293:273|254:264,1,79.9999952316285
208,272,16436,2,0,P|180:225|202:192,1,79.9999952316285
136,96,17052,6,0,L|80:192,1,79.9999952316285
168,152,17463,1,0,0:0:0:0:
200,96,17669,2,0,L|256:192,1,79.9999952316285
168,152,18285,6,0,P|360:152|248:72,1,479.999971389771
136,64,19929,5,0,0:0:0:0:
224,64,20340,2,0,L|336:64,1,79.9999952316285
352,64,20751,1,0,0:0:0:0:
392,64,20956,2,0,P|392:128|360:160,1,79.9999952316285
344,168,21368,1,0,0:0:0:0:
304,200,21573,2,0,P|304:272|336:296,1,79.9999952316285
216,96,22189,6,0,L|216:192,1,79.9999952316285
144,144,22600,2,0,L|240:192,1,79.9999952316285
288,152,23011,2,0,L|208:184,1,79.9999952316285
224,320,23628,6,0,L|336:328,1,79.9999952316285
352,320,24039,1,0,0:0:0:0:
392,320,24244,2,0,P|392:256|384:208,1,79.9999952316285
328,144,24861,6,0,B|320:184|320:328|136:376|-24:248|144:104|168:104,1,479.999971389771
352,336,26505,5,0,0:0:0:0:
304,256,26916,2,0,L|248:152,1,79.9999952316285
216,216,27327,1,0,0:0:0:0:
144,232,27532,2,0,L|200:128,1,79.9999952316285
256,168,27943,1,0,0:0:0:0:
224,120,28149,2,0,L|224:32,1,79.9999952316285
80,136,28765,6,0,P|115:178|154:169,1,79.9999952316285
184,152,29176,2,0,P|219:111|258:120,1,79.9999952316285
304,112,29587,2,0,P|332:159|310:192,1,79.9999952316285
376,288,30203,6,0,L|432:192,1,79.9999952316285
344,232,30614,1,0,0:0:0:0:
312,288,30820,2,0,L|256:192,1,79.9999952316285
344,232,31436,6,0,P|152:232|240:304,1,479.999971389771
376,320,33080,5,0,0:0:0:0:
288,320,33491,2,0,L|176:320,1,79.9999952316285
168,320,33902,1,0,0:0:0:0:
120,320,34107,2,0,P|120:256|152:224,1,79.9999952316285
168,208,34518,1,0,0:0:0:0:
208,184,34724,2,0,P|208:112|176:88,1,79.9999952316285
296,288,35340,6,0,L|296:192,1,79.9999952316285
368,240,35751,2,0,L|272:192,1,79.9999952316285
224,232,36162,2,0,L|304:200,1,79.9999952316285
288,64,36779,6,0,L|176:64,1,79.9999952316285
168,64,37189,1,0,0:0:0:0:
120,64,37395,2,0,P|120:128|144:168,1,79.9999952316285
256,192,38012,12,0,39245,0:0:0:0:
144,352,39655,6,0,P|200:288|208:128,1,239.999985694885
136,104,40683,1,0,0:0:0:0:
184,64,40888,1,0,0:0:0:0:
256,64,41299,2,0,L|256:168,2,79.9999952316285
352,64,41915,2,0,B|440:120|440:120|376:160|376:160|440:200|440:200|384:224|384:224|464:272|464:272,1,399.999976158143
464,304,43149,6,0,P|400:240|400:152,1,159.999990463257
376,104,43971,1,0,0:0:0:0:
328,64,44176,1,0,0:0:0:0:
256,64,44587,2,0,L|256:168,2,79.9999952316285
160,64,45203,2,0,B|72:120|72:120|136:160|136:160|72:200|72:200|128:224|128:224|48:272|48:272,1,399.999976158143
160,48,54450,5,0,0:0:0:0:
208,128,54861,2,0,L|264:232,1,79.9999952316285
296,168,55272,1,0,0:0:0:0:
384,152,55477,2,0,L|328:256,1,79.9999952316285
256,216,55888,1,0,0:0:0:0:
312,288,56094,2,0,L|312:376,1,79.9999952316285
432,248,56710,6,0,P|397:206|358:215,1,79.9999952316285
328,232,57121,2,0,P|293:273|254:264,1,79.9999952316285
208,272,57532,2,0,P|180:225|202:192,1,79.9999952316285
136,96,58148,6,0,L|80:192,1,79.9999952316285
168,152,58559,1,0,0:0:0:0:
200,96,58765,2,0,L|256:192,1,79.9999952316285
168,152,59381,2,0,P|224:280|272:176,1,319.999980926514
248,152,60563,5,0,0:0:0:0:
224,136,60717,1,0,0:0:0:0:
192,120,60820,1,0,0:0:0:0:
136,64,61025,5,0,0:0:0:0:
224,64,61436,2,0,L|336:64,1,79.9999952316285
352,64,61847,1,0,0:0:0:0:
392,64,62052,2,0,P|392:128|360:160,1,79.9999952316285
344,168,62463,1,0,0:0:0:0:
304,200,62669,2,0,P|304:272|336:296,1,79.9999952316285
216,96,63285,6,0,L|216:192,1,79.9999952316285
144,144,63696,2,0,L|240:192,1,79.9999952316285
288,152,64107,2,0,L|208:184,1,79.9999952316285
224,320,64724,6,0,L|336:328,1,79.9999952316285
344,328,65135,1,0,0:0:0:0:
392,320,65340,2,0,P|392:256|384:208,1,79.9999952316285
368,192,65751,1,0,0:0:0:0:
328,144,65957,6,0,B|320:184|320:328|136:376|-24:248|144:104|160:96,1,479.999971389771
352,48,67600,5,0,0:0:0:0:
304,128,68011,2,0,L|248:232,1,79.9999952316285
216,168,68422,1,0,0:0:0:0:
136,144,68627,2,0,L|192:248,1,79.9999952316285
256,216,69038,1,0,0:0:0:0:
216,256,69244,2,0,L|216:344,1,79.9999952316285
80,248,69860,6,0,P|115:206|154:215,1,79.9999952316285
184,232,70271,2,0,P|219:273|258:264,1,79.9999952316285
304,272,70682,2,0,P|332:225|310:192,1,79.9999952316285
376,96,71298,6,0,L|432:192,1,79.9999952316285
344,152,71709,1,0,0:0:0:0:
312,96,71915,2,0,L|256:192,1,79.9999952316285
344,152,72531,6,0,P|152:152|264:72,1,479.999971389771
376,320,74176,5,0,0:0:0:0:
288,320,74587,2,0,L|176:320,1,79.9999952316285
160,320,74998,1,0,0:0:0:0:
120,320,75203,2,0,P|120:256|152:224,1,79.9999952316285
168,216,75614,1,0,0:0:0:0:
208,184,75820,2,0,P|208:112|176:88,1,79.9999952316285
296,288,76436,6,0,L|296:192,1,79.9999952316285
368,240,76847,2,0,L|272:192,1,79.9999952316285
224,232,77258,2,0,L|304:200,1,79.9999952316285
288,64,77874,6,0,L|176:64,1,79.9999952316285
168,64,78285,1,0,0:0:0:0:
120,64,78490,2,0,P|120:128|144:168,1,79.9999952316285
256,192,79108,12,0,80341,0:0:0:0:
16,224,80751,6,0,P|120:144|120:40,1,239.999985694886
48,112,81779,1,0,0:0:0:0:
192,184,81984,1,0,0:0:0:0:
256,64,82395,2,0,L|256:168,2,79.9999952316285
352,64,83011,2,0,B|440:120|440:120|376:160|376:160|440:200|440:200|384:224|384:224|464:264|464:264,1,399.999976158143
384,312,84244,6,0,P|272:240|264:184,1,159.999990463257
144,96,85066,1,0,0:0:0:0:
200,160,85271,1,0,0:0:0:0:
256,104,85631,6,0,L|304:104,3,39.9999976158143
344,104,86042,1,0,0:0:0:0:
400,176,86248,2,0,L|400:224,4,39.9999976158142
312,176,86864,2,4,B|312:256|312:256|248:256,1,139.99999165535,0|4,0:0|0:0,0:0:0:0:
88,296,87532,6,0,P|152:232|152:144,1,159.999990463257
160,112,88354,1,0,0:0:0:0:
224,112,88559,1,0,0:0:0:0:
224,112,88970,2,0,L|224:216,2,79.9999952316285
224,112,89586,2,0,B|312:168|312:168|248:208|248:208|312:248|312:248|256:272|256:272|336:312|336:312,1,399.999976158143
464,80,90820,6,0,P|400:144|400:232,1,159.999990463257
376,280,91642,1,0,0:0:0:0:
296,280,91847,1,0,0:0:0:0:
288,128,92207,6,0,L|288:88,1,39.9999976158142
376,88,92515,1,0,0:0:0:0:
376,176,92720,2,0,L|376:216,1,39.9999976158142
448,272,93029,2,0,B|384:336|312:256|312:256|264:336|176:264,1,319.999980926514,0|4,0:0|0:0,0:0:0:0:
128,88,94107,5,0,0:0:0:0:
72,144,94313,1,0,0:0:0:0:
120,216,94518,1,0,0:0:0:0:
288,208,94930,1,0,0:0:0:0:
288,128,95135,1,0,0:0:0:0:
432,208,95546,2,0,L|432:104,2,79.9999952316285
424,128,96162,2,0,B|512:72|512:72|440:32|440:32|376:72|376:72|496:144|496:144,1,399.999976158143
384,296,97395,5,0,0:0:0:0:
440,240,97601,1,0,0:0:0:0:
392,168,97806,1,0,0:0:0:0:
224,176,98218,1,0,0:0:0:0:
224,256,98423,1,0,0:0:0:0:
80,176,98834,2,0,L|80:280,2,79.9999952316285
88,256,99450,2,0,B|0:312|0:312|72:352|72:352|136:312|136:312|24:232|24:232,1,399.999976158143
432,56,111984,6,0,L|272:88,1,159.999990463257
384,136,112600,2,0,L|224:168,1,159.999990463257
112,200,113217,6,0,B|72:128,1,79.9999952316285
80,56,113628,6,0,L|240:88,1,159.999990463257
128,136,114244,2,0,L|288:168,1,159.999990463257
400,72,115272,6,0,B|400:112|368:120|368:120|344:120,1,79.9999952316285
256,120,115683,1,0,0:0:0:0:
160,120,115889,2,0,L|160:200,2,79.9999952316285
72,120,116505,6,0,B|72:160|48:192|48:192|72:224|72:272,1,159.999990463257
176,312,117121,1,0,0:0:0:0:
232,256,117327,1,0,0:0:0:0:
288,312,117532,1,0,0:0:0:0:
368,312,117738,2,0,L|368:224,1,79.9999952316285
376,56,118560,5,0,0:0:0:0:
288,56,118765,1,0,0:0:0:0:
288,144,118971,1,0,0:0:0:0:
200,152,119176,2,0,B|128:208|128:208|80:160,1,150
160,96,119793,5,0,0:0:0:0:
160,184,119998,1,0,0:0:0:0:
160,272,120203,1,0,0:0:0:0:
240,312,120409,1,0,0:0:0:0:
328,312,120614,1,0,0:0:0:0:
400,264,120820,2,0,B|400:224|440:216|440:216|400:208|400:152,1,150,0|0,0:0|0:0,0:0:0:0:
256,192,121847,12,0,124724,0:0:0:0:
