osu file format v8

[General]
AudioFilename: Kirby - Sky High.mp3
AudioLeadIn: 0
PreviewTime: 5581
Countdown: 0
SampleSet: Soft
StackLeniency: 0.7
Mode: 0
LetterboxInBreaks: 1

[Editor]
Bookmarks: 11035,16490,21944,27399,35581,41035,46490,51944,57399,65581,71035,76490,81944,87399,95580,101035,111944,117399,123918
DistanceSpacing: 1
BeatDivisor: 4
GridSize: 8

[Metadata]
Title:Sky High
Artist:Jun Ishikawa
Creator:_LRJ_
Version:Sky
Source:Kirby Super Star Ultra
Tags:dagonpater

[Difficulty]
HPDrainRate:7
CircleSize:4
OverallDifficulty:8
ApproachRate:8
SliderMultiplier:1.4
SliderTickRate:1

[Events]
//Background and Video events
0,0,"SB1.jpg"
//Break Periods
2,40847,45709
//Storyboard Layer 0 (Background)
//Storyboard Layer 1 (Fail)
//Storyboard Layer 2 (Pass)
//Storyboard Layer 3 (Foreground)
//Storyboard Sound Samples
//Background Colour Transformations
3,100,163,162,255

[TimingPoints]
80,340.909090909091,4,2,0,65,1,0
46459,340.909090909091,4,2,0,65,1,0
123489,-100,4,2,0,40,0,0
123830,-100,4,2,0,30,0,0
124170,-100,4,2,0,20,0,0
124511,-100,4,2,0,10,0,0
124852,-100,4,2,0,0,0,0

[Colours]
Combo1 : 255,230,47
Combo2 : 255,128,192
Combo3 : 255,255,145
Combo4 : 255,6,118

[HitObjects]
256,192,5534,1,4
184,192,5705,1,0
152,192,5790,1,0
120,192,5875,1,2
136,120,6046,1,0
136,120,6131,1,0
136,120,6216,1,0
152,48,6387,1,0
184,48,6472,1,0
216,48,6557,1,2
360,48,6898,5,0
320,104,7068,1,0
296,136,7154,1,0
272,168,7239,1,2
320,224,7409,1,0
344,192,7494,1,0
368,160,7580,1,0
416,104,7750,1,0
464,160,7921,1,2
416,288,8262,5,0
344,288,8432,1,0
312,288,8517,1,0
280,288,8602,1,2
208,288,8773,1,0
176,288,8858,1,0
144,288,8943,1,0
144,216,9114,1,0
144,184,9199,1,0
144,152,9284,1,2
208,32,9625,5,0
240,48,9710,1,0
272,64,9796,1,0
304,80,9881,1,0
336,96,9966,1,2
368,80,10051,1,0
400,64,10137,1,0
432,48,10222,1,0
464,32,10307,1,0
464,176,10477,1,0
464,312,10648,1,4
320,312,10989,6,0,B|208:312,1,105,0|0
176,312,11330,1,2
176,240,11500,1,0
176,208,11585,1,0
176,176,11671,1,0
176,104,11841,1,0
248,104,12012,1,2
392,104,12352,5,0
360,168,12523,1,0
392,176,12608,1,0
424,168,12693,1,2
464,224,12864,1,0
448,256,12949,1,0
424,288,13034,1,0
392,296,13120,1,0
360,288,13205,1,0
344,256,13290,1,0
328,224,13375,1,2
256,104,13716,5,0
256,176,13887,1,0
256,208,13972,1,0
256,240,14057,1,2
184,240,14227,1,0
152,232,14313,1,0
120,224,14398,1,0
88,216,14483,1,0
72,184,14568,1,0
56,152,14654,1,0
40,120,14739,1,2
104,88,14909,1,0
168,64,15080,5,0
232,32,15250,2,0,B|280:32,2,35,0|0|2
256,96,15591,2,0,B|256:176,1,70,0|2
256,288,15932,6,0,B|256:208,1,70,0|4
320,192,16273,1,0
256,160,16443,5,0
192,192,16614,1,0
160,208,16699,1,0
128,224,16784,1,2
64,192,16955,1,0
48,160,17040,1,0
32,128,17125,1,0
48,56,17296,1,0
80,40,17381,1,0
112,24,17466,1,2
256,24,17807,5,0
224,88,17977,1,0
256,88,18063,1,0
288,88,18148,1,2
256,152,18318,1,0
256,184,18404,1,0
256,216,18489,1,0
256,288,18659,1,0
256,288,18830,1,2
376,216,19171,5,0
424,168,19341,1,0
448,144,19426,1,0
472,120,19512,1,2
424,72,19682,1,0
400,48,19767,1,0
376,24,19852,1,0
328,72,20023,1,0
304,96,20108,1,0
280,120,20193,1,2
136,120,20534,5,0
104,128,20619,1,0
72,144,20705,1,0
48,168,20790,1,0
32,200,20875,1,2
48,232,20960,1,0
72,256,21046,1,0
104,272,21131,1,0
136,280,21216,1,0
248,200,21387,1,0
360,120,21557,1,4
248,32,21898,5,0
144,32,22154,1,0
112,32,22239,1,2
112,104,22409,1,0
112,136,22494,1,0
112,168,22580,1,0
184,168,22750,2,0,B|264:168,1,70,0|2
392,168,23262,5,0
392,240,23432,2,0,B|392:304,2,35,0|0|2
320,240,23773,1,0
296,264,23858,1,0
272,288,23943,1,0
240,304,24029,1,0
208,288,24114,1,0
184,264,24199,1,0
160,240,24284,1,2
240,128,24625,5,0
168,128,24796,2,0,B|120:128,2,35,0|0|2
168,56,25137,1,0
200,64,25222,1,0
232,56,25307,1,0
264,64,25392,1,0
296,56,25477,1,0
328,64,25563,1,0
360,56,25648,1,2
360,128,25818,1,0
360,200,25989,5,0
392,264,26159,1,0
360,280,26244,1,0
328,264,26330,1,2
256,264,26500,1,0
184,264,26671,2,0,B|104:232|112:128,1,140,0|2
256,152,27352,6,0,B|56:256,1,210,4|0
69,248,27949,1,0
69,248,28034,1,2
40,184,28205,1,0
96,144,28375,2,0,B|176:104,1,70
96,64,28716,2,0,B|176:24,1,70,2|0
224,64,29057,2,0,B|296:24,1,70
344,64,29398,2,0,B|400:32|448:64|440:128,1,140,2|0
352,224,30080,6,0,B|288:248|208:248|136:224,1,210,4|0
145,227,30676,1,0
145,227,30762,1,2
144,152,30932,1,0
144,80,31102,1,0
208,112,31273,1,0
280,112,31443,6,0,B|360:112,1,70,2|0
424,112,31784,1,0
448,184,31955,1,0
416,248,32125,2,0,B|368:304|272:304,1,140,2|0
224,328,32637,1,0
160,304,32807,2,2,B|104:288|80:240|104:192|160:176|216:192|240:240|296:272|352:240|376:192|352:144|296:112,1,420
176,120,34171,6,0,B|56:120|16:256,1,210
24,240,34767,1,0
24,240,34852,1,2
304,240,35534,5,4
352,192,35705,1,0
376,168,35790,1,0
400,144,35875,1,2
352,88,36046,1,0
328,64,36131,1,0
304,40,36216,1,0
256,88,36387,1,0
232,112,36472,1,0
208,136,36557,1,2
304,240,36898,5,0
232,240,37068,2,0,B|232:192,2,35,0|0|2
160,240,37409,1,0
128,232,37495,1,0
104,208,37580,1,0
160,168,37750,1,0
160,96,37921,1,2
264,192,38262,5,0
264,120,38432,1,0
264,88,38517,1,0
264,56,38602,1,2
336,56,38773,1,0
368,56,38858,1,0
400,56,38943,1,0
400,128,39114,1,0
400,160,39199,1,0
400,192,39284,1,2
264,192,39625,5,0
248,224,39710,1,0
224,248,39796,1,0
192,264,39881,1,0
160,272,39966,1,2
128,264,40051,1,0
96,248,40137,1,0
72,224,40222,1,0
56,192,40307,2,0,B|56:120,2,70,0|0|4
96,160,46459,5,0
96,88,46629,1,0
128,104,46714,1,0
160,120,46800,1,2
224,88,46970,1,0
256,104,47055,1,0
288,120,47141,1,0
352,88,47311,1,0
384,104,47396,1,0
416,120,47481,1,2
352,248,47822,5,0
288,280,47993,1,0
256,264,48078,1,0
224,248,48163,1,2
152,248,48334,1,0
120,232,48419,1,0
88,216,48504,1,0
88,144,48675,1,0
88,144,48845,1,2
224,136,49186,5,0
272,88,49356,2,0,B|304:56,2,35,0|0|2
320,136,49697,2,0,B|368:136,2,35
272,184,50038,2,0,B|312:224,2,35,0|0|2
176,88,50550,5,0
144,104,50635,1,0
128,136,50720,1,0
144,168,50805,1,0
176,184,50891,1,2
208,200,50976,1,0
224,232,51061,1,0
208,264,51146,1,0
176,280,51231,2,0,B|104:280,2,70,0|0|4
320,280,51913,5,0
320,176,52169,1,0
320,176,52254,1,2
272,128,52425,2,0,B|240:96,2,35
320,80,52766,2,0,B|376:136,1,70,0|2
368,272,53277,5,0
320,320,53447,1,0
296,296,53533,1,0
272,272,53618,1,2
224,320,53788,1,0
200,296,53874,1,0
176,272,53959,1,0
160,240,54044,1,0
176,208,54129,1,0
200,184,54214,1,0
224,160,54300,1,2
224,24,54641,5,0
296,24,54811,2,0,B|352:24,2,35,0|0|2
296,96,55152,1,0
296,128,55237,1,0
296,160,55322,2,0,B|296:208,4,35,0|0|0|0|2
368,160,55834,1,0
368,232,56004,5,0
368,304,56175,1,0
336,304,56260,1,0
304,304,56345,1,2
232,304,56516,1,0
160,304,56686,2,0,B|80:304|40:240,1,140,0|2
160,184,57368,6,0,B|240:104|240:104|344:104,1,210,4|0
376,104,57964,1,0
408,104,58050,1,2
408,176,58220,1,0
336,176,58391,1,0
336,248,58561,1,0
264,248,58731,2,0,B|264:328,1,70,2|0
336,320,59072,2,0,B|240:320,1,70
192,320,59413,2,0,B|112:288|112:192,1,140,2|0
112,72,60095,6,0,B|328:72,1,210,4|0
360,72,60692,1,0
392,72,60777,2,0,B|392:144,1,70,2|0
320,144,61118,2,0,B|232:144,1,70
248,216,61459,6,0,B|168:216,1,70,2|0
112,216,61799,2,0,B|80:208|48:240,1,70
104,288,62140,2,0,B|144:336|192:296|232:352,1,140,2|0
296,344,62652,1,0
360,312,62822,2,2,B|416:296|440:248|416:200|360:184|304:200|280:248|224:280|168:248|144:200|168:152|224:120,1,420
344,136,64186,6,0,B|280:64|136:56,1,210
120,56,64783,1,0
88,56,64868,1,2
80,336,65550,5,4
144,320,65720,1,0
176,312,65805,1,0
208,320,65891,1,2
264,280,66061,1,0
296,264,66146,1,0
320,240,66231,1,0
352,176,66402,1,0
360,144,66487,1,0
368,112,66572,1,2
224,112,66913,5,0
152,112,67084,1,0
120,96,67169,1,0
88,112,67254,1,2
120,176,67425,2,0,B|120:224,2,35
192,176,67766,2,0,B|248:232,1,70,0|2
384,224,68277,5,0
384,152,68447,1,0
384,152,68533,1,0
384,152,68618,1,2
384,80,68788,1,0
384,80,68874,1,0
384,80,68959,1,0
312,80,69129,2,0,B|272:80,2,35,0|0|2
312,224,69641,5,0
296,256,69726,1,0
272,280,69811,1,0
240,296,69896,1,0
208,304,69981,1,2
176,296,70067,1,0
144,280,70152,1,0
120,256,70237,1,0
104,224,70322,2,0,B|104:144,2,70,0|0|4
208,136,71004,5,0
312,136,71260,2,0,B|352:136,1,35,0|2
416,136,71516,1,0
416,168,71601,1,0
416,200,71686,1,0
416,272,71856,2,0,B|336:272,1,70,0|2
208,272,72368,5,0
136,272,72538,2,0,B|80:272,2,35,0|0|2
136,200,72879,1,0
112,176,72964,1,0
136,152,73050,1,0
112,128,73135,1,0
136,104,73220,1,0
112,80,73305,1,0
136,56,73391,1,2
272,56,73731,5,0
344,56,73902,1,0
376,72,73987,1,0
392,104,74072,1,2
392,176,74243,1,0
376,208,74328,1,0
352,240,74413,1,0
320,248,74499,1,0
288,240,74584,1,0
264,208,74669,1,0
248,176,74754,1,2
176,176,74925,1,0
176,248,75095,5,0
128,296,75266,1,0
104,272,75351,1,0
80,248,75436,1,2
32,192,75606,2,0,B|112:192,1,70
480,192,75947,6,0,B|400:192,1,70,0|4
336,192,76288,1,0
264,192,76459,5,0
264,264,76629,1,0
232,280,76714,1,0
200,264,76800,1,2
200,192,76970,1,0
168,176,77055,1,0
136,192,77141,1,0
136,264,77311,1,0
104,280,77396,1,0
72,264,77481,1,2
72,120,77822,5,0
136,88,77993,1,0
168,72,78078,1,0
200,56,78163,1,2
272,56,78334,1,0
304,72,78419,1,0
336,88,78504,1,0
400,120,78675,1,0
400,120,78845,1,2
280,192,79186,5,0
208,192,79356,1,0
176,192,79442,1,0
144,192,79527,1,2
176,256,79697,1,0
176,288,79783,1,0
176,320,79868,1,0
240,288,80038,1,0
272,288,80124,1,0
304,288,80209,1,2
400,192,80550,5,0
384,160,80635,1,0
360,136,80720,1,0
328,120,80805,1,0
296,112,80891,1,2
264,120,80976,1,0
232,136,81061,1,0
208,160,81146,1,0
192,192,81231,2,0,B|104:192,2,70,0|0|4
296,272,81913,5,0
192,272,82169,1,0
192,272,82254,1,2
120,272,82425,1,0
88,256,82510,1,0
56,240,82595,1,0
120,208,82766,2,0,B|120:128,1,70,0|2
216,32,83277,6,0,B|272:88,1,70
265,81,83533,1,0
265,81,83618,1,2
336,80,83788,1,0
368,88,83874,1,0
392,112,83959,1,0
400,144,84044,1,0
392,176,84129,1,0
368,200,84214,1,0
336,208,84300,1,2
208,144,84641,5,0
144,112,84811,1,0
128,144,84896,1,0
144,176,84981,1,2
144,248,85152,1,0
160,280,85237,1,0
184,304,85322,1,0
216,320,85408,1,0
248,304,85493,1,0
272,280,85578,1,0
288,248,85663,1,2
288,176,85834,1,0
288,104,86004,5,0
232,56,86175,1,0
200,40,86260,1,0
168,32,86345,1,2
96,24,86516,1,0
32,48,86686,2,0,B|0:120|64:120|24:208,1,140,0|2
136,280,87368,6,0,B|296:280|344:224,1,210,4|0
360,208,87964,1,0
376,176,88050,2,0,B|392:128|392:96,1,70,2|0
336,64,88391,2,0,B|296:56|256:64,1,70
200,64,88731,1,2
136,88,88902,1,0
88,136,89072,1,0
64,200,89243,1,0
88,264,89413,2,0,B|232:264,1,140,2|0
368,264,90095,6,0,B|424:264|456:232|456:176|424:144|368:144,1,210,4|0
368,144,90692,1,0
368,144,90777,2,0,B|288:144,1,70,2|0
232,144,91118,2,0,B|232:224,1,70
304,216,91459,5,2
280,280,91629,1,0
232,328,91800,1,0
184,280,91970,1,0
160,216,92141,2,0,B|96:184|72:112,1,140,2|0
136,80,92652,1,0
208,80,92822,2,2,B|264:96|288:144|264:192|208:208|152:192|128:144|72:112|16:144|-8:192|16:240|72:272,1,420
184,288,94186,6,0,B|256:152|336:288,1,210
334,285,94783,1,0
334,285,94868,1,2
72,192,95550,5,4
128,152,95720,1,0
160,128,95805,1,0
192,104,95891,1,2
248,64,96061,1,0
272,96,96146,1,0
296,128,96231,1,0
336,184,96402,1,0
304,208,96487,1,0
272,232,96572,1,2
160,320,96913,5,0
120,264,97084,1,0
96,232,97169,1,0
72,200,97254,1,2
72,128,97425,1,0
104,104,97510,1,0
136,88,97595,1,0
208,88,97766,2,0,B|288:88,1,70,0|2
416,88,98277,5,0
344,88,98447,1,0
344,120,98533,1,0
344,152,98618,1,2
280,120,98788,1,0
280,152,98874,1,0
280,184,98959,1,0
216,152,99129,1,0
216,184,99214,1,0
216,216,99300,1,2
216,72,99641,5,0
184,80,99726,1,0
152,96,99811,1,0
128,120,99896,1,0
112,152,99981,1,2
128,184,100067,1,0
152,208,100152,1,0
184,224,100237,1,0
216,240,100322,2,0,B|296:272,2,70,0|0|4
328,152,101004,5,0
432,152,101260,1,0
432,184,101345,1,2
432,256,101516,1,0
400,256,101601,1,0
368,256,101686,1,0
296,256,101856,2,0,B|264:280|232:256,1,70,0|2
264,120,102368,5,0
208,80,102538,1,0
176,64,102624,1,0
144,56,102709,1,2
80,80,102879,1,0
72,112,102964,1,0
80,144,103050,1,0
72,176,103135,1,0
80,208,103220,1,0
72,240,103305,1,0
80,272,103391,1,2
184,176,103731,5,0
256,176,103902,1,0
288,192,103987,1,0
320,176,104072,1,2
288,112,104243,1,0
320,96,104328,1,0
352,112,104413,1,0
384,96,104499,1,0
416,112,104584,1,0
448,96,104669,1,0
480,112,104754,1,2
448,176,104925,1,0
384,208,105095,5,0
320,240,105266,1,0
288,256,105351,1,0
256,272,105436,1,2
192,240,105606,2,0,B|120:240,1,70
320,144,105947,6,0,B|392:144,1,70,0|4
392,72,106288,1,0
320,72,106459,5,0
256,104,106629,1,0
224,88,106714,1,0
192,72,106800,1,2
128,104,106970,1,0
96,120,107055,1,0
64,136,107141,1,0
128,168,107311,1,0
160,184,107396,1,0
192,200,107481,1,2
312,272,107822,5,0
312,200,107993,1,0
312,168,108078,1,0
312,136,108163,1,2
312,64,108334,2,0,B|272:64,2,35,0|0|0
384,64,108675,2,0,B|408:96|384:128,1,70,0|2
384,272,109186,5,0
312,272,109356,1,0
280,272,109442,1,0
248,272,109527,1,2
176,272,109697,1,0
152,248,109783,1,0
128,224,109868,1,0
128,152,110038,1,0
128,120,110124,1,0
128,88,110209,1,2
256,32,110550,6,0,B|256:88,3,35
256,104,110891,2,0,B|256:152,3,35,2|0|0|0
256,176,111231,1,0
184,296,111402,1,0
320,296,111572,1,4
392,176,111913,5,0
320,96,112169,2,0,B|320:48,1,35,0|2
256,24,112425,1,0
256,56,112510,1,0
256,88,112595,1,0
192,56,112766,2,0,B|192:128,1,70,0|2
256,256,113277,6,0,B|184:256,1,70
152,256,113533,1,0
120,256,113618,1,2
120,184,113788,1,0
152,168,113874,1,0
184,152,113959,1,0
216,144,114044,1,0
248,152,114129,1,0
280,168,114214,1,0
312,184,114300,1,2
400,72,114641,5,0
384,144,114811,1,0
400,176,114896,1,0
416,208,114981,1,2
400,280,115152,1,0
368,272,115237,1,0
336,264,115322,1,0
304,256,115408,1,0
272,264,115493,1,0
240,272,115578,1,0
208,280,115663,1,2
144,256,115834,1,0
192,208,116004,5,0
128,184,116175,1,0
152,160,116260,1,0
176,136,116345,1,2
112,112,116516,1,0
160,64,116686,2,0,B|224:48|312:48,1,140,0|2
408,136,117368,6,0,B|408:272|280:296,1,210,4|0
264,280,117964,1,0
232,264,118050,2,0,B|160:264,1,70,2|0
160,192,118391,2,0,B|240:192,1,70
304,192,118731,1,2
376,192,118902,1,0
376,120,119072,1,0
376,48,119243,1,0
304,48,119413,2,0,B|240:48|240:104|176:104,1,140,2|0
40,104,120095,6,0,B|80:200|208:224,1,210,4|0
202,222,120692,1,0
202,222,120777,2,0,B|272:168,1,70,2|0
328,184,121118,2,0,B|392:136,1,70
440,96,121459,5,2
392,40,121629,1,0
328,16,121800,1,0
264,40,121970,1,0
216,88,122141,2,0,B|176:144|136:128|96:200,1,140,2|0
112,248,122652,1,0
256,192,122822,12,4,124868
