osu file format v5

[General]
AudioFilename: Vs. Marx - Super Smash Bros Brawl.MP3
AudioLeadIn: 0
PreviewTime: 47
Countdown: 0
SampleSet: Normal
StackLeniency: 0.7
Mode: 0
LetterboxInBreaks: 1

[Metadata]
Title:Marx Battle!
Artist:Jun Ishikawa
Creator:Zerostarry
Version:Normal
Source:
Tags:

[Difficulty]
HPDrainRate:4
CircleSize:5
OverallDifficulty:5
SliderMultiplier:1.6
SliderTickRate:2

[Events]
//Background and Video events
0,0,"kirbysuperstarkirbyvmarft8.jpg"
//Break Periods
2,42870,45619
//Storyboard Layer 0 (Background)
//Storyboard Layer 1 (Failing)
//Storyboard Layer 2 (Passing)
//Storyboard Layer 3 (Foreground)
//Storyboard Sound Samples
//Background Colour Transformations
3,100,163,162,255

[TimingPoints]
4056,638.297872340426,4,1,0,80,1,0
16183,638.297872340426,4,2,0,80,0,0
20012,638.297872340426,4,1,0,80,0,0
32139,638.297872340426,4,2,0,100,0,0
46819,638.297872340426,4,1,0,80,0,0
81916,631.578947368421,4,2,0,100,1,0
92180,631.578947368421,4,2,0,100,1,0

[Colours]
Combo1 : 128,128,255
Combo2 : 255,128,255
Combo3 : 128,0,255

[HitObjects]
128,128,4056,1,0
224,128,4694,1,0
224,176,5013,2,2,B|224:280,1,80
224,304,5651,1,4
272,304,5970,1,2
320,304,6290,1,2
416,304,6928,1,4
416,256,7247,2,2,B|416:152,2,80
368,256,8204,5,0
336,216,8524,1,0
304,176,8843,1,0
272,136,9162,2,2,B|200:64,1,80
184,112,9800,1,4
184,160,10119,1,4
192,208,10438,2,2,B|256:280,1,80
248,312,11077,1,0
296,312,11396,1,0
344,312,11715,1,2
392,312,12034,2,4,B|392:200,2,80
384,232,13311,6,0,B|216:232,2,160
384,184,14907,2,2,B|384:80,3,80
336,112,16183,5,0
288,112,16502,1,2
240,112,16821,1,4
192,112,17141,1,2
72,192,18098,1,0
72,240,18417,1,2
72,288,18736,1,4
72,336,19055,1,2
256,336,20013,6,2,B|256:248,1,80
256,224,20651,1,0
256,176,20970,2,2,B|256:88,2,80
160,176,22247,2,0,B|56:176,1,80
32,176,22885,1,0
32,128,23204,2,2,B|32:40,2,80
32,176,24162,1,4
32,224,24481,1,0
32,272,24800,1,0
80,272,25119,2,2,B|168:272,1,80
208,272,25758,5,0
256,272,26077,1,0
304,272,26396,2,2,B|304:184,1,80
304,144,27034,1,0
304,96,27353,2,2,B|208:96,1,80
176,96,27992,1,4
128,96,28311,1,4
80,96,28630,1,4
48,192,29268,6,0,B|48:360,2,160
48,144,30864,2,2,B|48:56,3,80
88,64,32141,5,2
136,64,32460,1,2
184,64,32779,1,2
232,64,33098,1,2
232,208,34055,1,2
232,256,34375,1,2
232,304,34694,1,2
232,352,35013,1,2
376,352,35970,5,0
424,352,36290,1,0
400,256,36928,2,2,B|400:200,2,40,2|2|2
256,56,38843,6,2,B|192:56,2,40,0|0|0
240,104,39481,1,0
192,120,39800,1,2
176,160,40119,1,0
168,208,40438,1,2
184,248,40758,1,0
232,264,41077,1,2
272,248,41396,1,0
296,208,41715,1,2
296,160,42034,1,0
280,112,42353,1,2
232,104,42673,1,4
72,80,46821,6,2,B|160:80,3,80
200,80,48098,1,0
256,80,48417,1,0
312,80,48736,1,2
456,192,50013,2,2,B|368:192,3,80
328,192,51290,1,0
272,192,51609,1,0
216,192,51928,1,0
160,192,52247,1,0
40,304,53524,6,2,B|136:304,3,80
168,304,54800,1,0
216,304,55119,1,0
264,304,55438,1,0
312,304,55758,1,2
56,264,57353,5,0
152,264,57992,1,0
224,200,58630,1,0
296,136,59268,1,0
368,200,59907,1,0
432,272,60545,1,0
336,272,61183,2,2,B|248:272,3,80
200,272,62460,1,0
144,272,62779,1,0
88,272,63098,1,0
80,80,64375,6,2,B|176:80,3,80
216,80,65651,1,4
272,80,65970,1,0
328,80,66290,1,0
384,80,66609,1,0
368,192,67885,6,0,B|368:288,4,80
312,192,69481,1,0
256,192,69800,1,0
200,192,70119,1,0
72,96,71715,1,0
184,96,72353,1,0
272,160,72992,1,0
344,240,73630,1,0
304,344,74268,1,0
192,320,74907,1,0
88,264,75545,1,0
256,192,75704,12,4,81768
48,56,83179,6,2,C|192:160,1,160
224,64,84442,2,2,C|400:64,1,160
424,152,85705,2,4,C|424:320,1,160
328,312,86968,2,2,C|152:312,3,160
80,344,89494,2,2,B|-8:92|208:128,1,320
400,96,92180,2,2,B|400:264,3,160
312,216,94706,5,2
264,216,95022,1,2
216,216,95337,1,2
168,216,95653,1,2
120,216,95969,1,2
80,128,96601,1,2
176,128,97232,1,2
272,128,97864,1,2
368,128,98495,1,2
464,128,99127,1,2
256,192,99916,12,4,101653
256,192,102285,5,4
256,192,102916,12,4,104811
