osu file format v12

[General]
AudioFilename: Green Greens.mp3
AudioLeadIn: 500
PreviewTime: 6491
Countdown: 0
SampleSet: Normal
StackLeniency: 0.7
Mode: 0
LetterboxInBreaks: 0
WidescreenStoryboard: 0

[Editor]
Bookmarks: 18806,32120,44103,57417,69400,82714
DistanceSpacing: 1
BeatDivisor: 4
GridSize: 4
TimelineZoom: 1

[Metadata]
Title:Green Greens
TitleUnicode:Green Greens
Artist:Jun Ishikawa
ArtistUnicode:Jun Ishikawa
Creator:Ylinestra44
Version:Normal
Source:Kirby's Adventure
Tags:NES Nintendo Gameboy Dreamland Kokatsu Deif
BeatmapID:173172
BeatmapSetID:57453

[Difficulty]
HPDrainRate:4
CircleSize:3
OverallDifficulty:4
ApproachRate:5
SliderMultiplier:1
SliderTickRate:2

[Events]
//Background and Video events
0,0,"Kirby Green Greens Raining.jpg",0,0
//Break Periods
//Storyboard Layer 0 (Background)
//Storyboard Layer 1 (Fail)
//Storyboard Layer 2 (Pass)
//Storyboard Layer 3 (Foreground)
//Storyboard Sound Samples
//Background Colour Transformations
3,100,163,162,255

[TimingPoints]
6824.07363727005,332.852546321979,4,1,1,30,1,0
7822,-100,4,2,1,60,0,0
8155,-100,4,1,1,30,0,0
8821,-100,4,2,1,60,0,0
9486,-100,4,1,1,25,0,0
9819,-100,4,2,1,60,0,0
10152,-100,4,2,1,25,0,0
10485,-100,4,2,1,60,0,0
10818,-100,4,1,1,25,0,0
11816,-100,4,2,1,60,0,0
12149,-100,4,1,1,25,0,0
13148,-100,4,2,1,60,0,0
13481,-100,4,1,1,30,0,0
14146,-100,4,2,1,60,0,0
14812,-100,4,1,1,25,0,0
15145,-100,4,2,1,60,0,0
15478,-100,4,2,1,25,0,0
15811,-100,4,2,1,60,0,0
16143,-100,4,1,1,25,0,0
16809,-100,4,2,1,60,0,0
17475,-100,4,1,1,30,0,0
17724,-100,4,2,1,60,0,0
18141,-100,4,2,1,40,0,0
18806,-100,4,1,1,25,0,0
19472,-100,4,2,1,40,0,0
20138,-100,4,1,1,20,0,0
20803,-100,4,2,1,40,0,0
21469,-100,4,1,1,25,0,0
21802,-100,4,2,1,60,0,0
22800,-100,4,1,1,30,0,0
23133,-100,4,2,1,60,0,0
24132,-100,4,1,1,30,0,0
24465,-100,4,2,1,60,0,0
25463,-100,4,1,1,30,0,0
26129,-100,4,2,1,30,0,0
26795,-100,4,1,1,30,0,0
27128,-100,4,2,1,60,0,0
28126,-100,4,1,1,30,0,0
28459,-100,4,2,1,60,0,0
29458,-100,4,1,1,30,0,0
29790,-100,4,2,1,60,0,0
30789,-100,4,1,1,30,0,0
31455,-100,4,2,1,30,0,0
32120,-100,4,1,1,30,0,0
32786,-100,4,2,1,60,0,0
33452,-100,4,1,1,30,0,0
34117,-100,4,2,1,60,0,0
34783,-100,4,1,1,25,0,0
35116,-100,4,2,1,60,0,0
35449,-100,4,2,1,25,0,0
35782,-100,4,2,1,60,0,0
36115,-100,4,1,1,25,0,0
37113,-100,4,2,1,60,0,0
37446,-100,4,1,1,30,0,0
38445,-100,4,2,1,60,0,0
38777,-100,4,1,1,30,0,0
39443,-100,4,2,1,60,0,0
40109,-100,4,1,1,25,0,0
40442,-100,4,2,1,60,0,0
40775,-100,4,2,1,25,0,0
41107,-100,4,2,1,60,0,0
41440,-100,4,1,1,25,0,0
42106,-100,4,2,1,60,0,0
42772,-100,4,1,1,30,0,0
43021,-100,4,2,1,60,0,0
43437,-100,4,2,1,40,0,0
44103,-100,4,1,1,25,0,0
44769,-100,4,2,1,40,0,0
45434,-100,4,1,1,20,0,0
46100,-100,4,2,1,40,0,0
46766,-100,4,1,1,25,0,0
47432,-100,4,2,1,60,0,0
48097,-100,4,1,1,30,0,0
48763,-100,4,2,1,60,0,0
49429,-100,4,1,1,30,0,0
50094,-100,4,2,1,60,0,0
50760,-100,4,1,1,30,0,0
51426,-100,4,2,1,25,0,0
52092,-100,4,1,1,30,0,0
52757,-100,4,2,1,60,0,0
53423,-100,4,1,1,30,0,0
54089,-100,4,2,1,60,0,0
54754,-100,4,1,1,30,0,0
55420,-100,4,2,1,60,0,0
56086,-100,4,1,1,30,0,0
56751,-100,4,2,1,25,0,0
57417,-100,4,1,1,30,0,0
58416,-100,4,2,1,60,0,0
58749,-100,4,1,1,30,0,0
59414,-100,4,2,1,60,0,0
60080,-100,4,1,1,25,0,0
60413,-100,4,2,1,60,0,0
60746,-100,4,2,1,25,0,0
61079,-100,4,2,1,60,0,0
61411,-100,4,1,1,25,0,0
62410,-100,4,2,1,25,0,0
62743,-100,4,1,1,25,0,0
63741,-100,4,2,1,60,0,0
64074,-100,4,1,1,30,0,0
64740,-100,4,2,1,60,0,0
65406,-100,4,1,1,25,0,0
65738,-100,4,2,1,60,0,0
66071,-100,4,2,1,25,0,0
66404,-100,4,2,1,60,0,0
66737,-100,4,1,1,25,0,0
67403,-100,4,2,1,60,0,0
68068,-100,4,1,1,30,0,0
68318,-100,4,2,1,60,0,0
68734,-100,4,2,1,40,0,0
69400,-100,4,1,1,25,0,0
70066,-100,4,2,1,40,0,0
70731,-100,4,1,1,20,0,0
71397,-100,4,2,1,40,0,0
72063,-100,4,1,1,25,0,0
72396,-100,4,2,1,60,0,0
73394,-100,4,1,1,30,0,0
73727,-100,4,2,1,60,0,0
74725,-100,4,1,1,30,0,0
75058,-100,4,2,1,60,0,0
76057,-100,4,1,1,30,0,0
76723,-100,4,2,1,25,0,0
77388,-100,4,1,1,25,0,0
78054,-100,4,2,1,60,0,0
78720,-100,4,1,1,30,0,0
79385,-100,4,2,1,60,0,0
80051,-100,4,1,1,30,0,0
80717,-100,4,2,1,60,0,0
81383,-100,4,2,1,20,0,0

[Colours]
Combo1 : 75,65,33
Combo2 : 250,160,245
Combo3 : 156,210,96

[HitObjects]
416,276,6824,6,0,B|260:344|128:240,1,300,4|0,0:0|0:0,0:0:0:0:
32,240,8155,2,0,B|32:192|68:148|120:128|176:154,1,200,0|2,0:0|0:0,0:0:0:0:
356,72,9486,6,0,B|372:120|348:168,1,100,4|0,0:0|0:0,0:0:0:0:
448,188,10152,2,0,B|432:244|384:260,1,100,6|0,0:0|0:0,0:0:0:0:
288,240,10818,2,0,B|180:140|124:340|16:240,1,300,4|0,0:0|0:0,0:0:0:0:
80,164,12149,6,0,B|168:88|288:92|352:160,1,300,4|0,0:0|0:0,0:0:0:0:
419,87,13481,2,0,B|476:144|452:224|383:256,1,200,0|2,0:0|0:0,0:0:0:0:
200,320,14812,6,0,B|208:272|184:224,1,100,4|0,0:0|0:0,0:0:0:0:
104,284,15478,2,0,B|79:235|87:187,1,100,6|0,0:0|0:0,0:0:0:0:
80,88,16143,2,0,B|136:88|164:132|164:132|216:124|256:164,1,200,4|0,0:0|0:0,0:0:0:0:
384,320,17475,6,0,B|424:308|444:280,1,75
428,156,18141,2,0,B|384:176,1,50,2|0,0:0|0:0,0:0:0:0:
256,96,18806,5,4,0:0:0:0:
72,176,19472,1,0,0:0:0:0:
268,220,20138,1,0,0:0:0:0:
84,300,20803,1,0,0:0:0:0:
284,320,21469,6,0,B|333:310|362:262,1,100,4|0,0:0|0:0,0:0:0:0:
442,202,22135,2,0,B|408:163|353:162,1,100,2|0,0:0|0:0,0:0:0:0:
261,123,22801,2,0,B|244:170|268:220,1,100
172,248,23466,2,0,B|188:200|165:151,1,100
68,124,24132,6,0,B|80:72|136:56,1,100
236,64,24798,2,0,B|280:88|332:80,1,100,2|0,0:0|0:0,0:0:0:0:
432,60,25463,1,0,0:0:0:0:
344,240,26129,1,4,0:0:0:0:
168,144,26795,6,0,B|136:104|84:96,2,100,0|0|2,0:0|0:0|0:0,0:0:0:0:
256,96,27793,1,0,0:0:0:0:
344,144,28126,2,0,B|376:104|428:96,2,100,0|0|0,0:0|0:0|0:0,0:0:0:0:
256,192,29125,1,0,0:0:0:0:
168,240,29458,6,0,B|136:280|84:288,2,100,0|0|2,0:0|0:0|0:0,0:0:0:0:
256,288,30456,1,0,0:0:0:0:
344,240,30789,2,0,B|432:180|444:72,1,200,0|4,0:0|0:0,0:0:0:0:
244,68,32120,6,0,B|156:128|144:236,1,200,4|2,0:0|0:0,0:0:0:0:
44,60,33452,1,0,0:0:0:0:
52,260,34117,1,2,0:0:0:0:
236,340,34783,6,0,B|280:320|300:268,1,100,4|0,0:0|0:0,0:0:0:0:
400,252,35449,2,0,B|392:196|343:175,1,100,6|0,0:0|0:0,0:0:0:0:
244,188,36115,2,0,B|224:124|288:44|388:48|452:124,1,300,4|0,0:0|0:0,0:0:0:0:
416,216,37446,6,0,B|436:280|372:360|272:356|208:280,1,300,4|0,0:0|0:0,0:0:0:0:
164,192,38777,1,0,0:0:0:0:
316,64,39443,1,2,0:0:0:0:
120,104,40109,6,0,B|72:128|64:182,1,100,4|0,0:0|0:0,0:0:0:0:
108,276,40775,2,0,B|152:305|203:285,1,100,6|0,0:0|0:0,0:0:0:0:
264,204,41440,2,0,B|308:108|420:96,1,200,4|0,0:0|0:0,0:0:0:0:
432,296,42772,6,0,B|404:324|364:328,1,75
240,312,43437,2,0,B|192:292,1,50,2|0,0:0|0:0,0:0:0:0:
108,168,44103,5,4,0:0:0:0:
268,48,44769,1,0,0:0:0:0:
436,160,45434,1,0,0:0:0:0:
352,344,46100,1,0,0:0:0:0:
152,328,46766,6,0,B|52:284|16:188,1,200,4|2,0:0|0:0,0:0:0:0:
116,172,47764,1,0,0:0:0:0:
192,108,48097,2,0,B|280:52|384:88,1,200
460,152,49096,1,0,0:0:0:0:
488,248,49429,6,0,B|480:320|388:348|336:288,1,200,0|2,0:0|0:0,0:0:0:0:
256,228,50427,1,0,0:0:0:0:
175,287,50760,2,0,B|124:348|32:320|24:248,1,200,0|4,0:0|0:0,0:0:0:0:
144,88,52092,5,4,0:0:0:0:
340,124,52757,1,2,0:0:0:0:
436,300,53423,1,0,0:0:0:0:
240,264,54089,1,0,0:0:0:0:
52,336,54754,5,0,0:0:0:0:
88,140,55420,1,2,0:0:0:0:
280,84,56086,2,0,B|332:196|224:252,1,200,0|4,0:0|0:0,0:0:0:0:
424,220,57417,6,0,B|416:312|316:376|188:336,1,300,4|0,0:0|0:0,0:0:0:0:
136,252,58749,2,0,B|208:200|272:284|324:216,1,200,0|2,0:0|0:0,0:0:0:0:
460,72,60080,6,0,B|404:62|363:87,1,100,4|0,0:0|0:0,0:0:0:0:
272,128,60746,2,0,B|229:148|174:126,1,100,6|0,0:0|0:0,0:0:0:0:
92,72,61411,2,0,B|28:172|88:292|192:300,1,300,4|0,0:0|0:0,0:0:0:0:
276,356,62743,6,0,B|340:257|274:136|175:127,1,300,4|0,0:0|0:0,0:0:0:0:
244,52,64074,2,0,B|340:92|380:196,1,200,0|2,0:0|0:0,0:0:0:0:
236,332,65406,6,0,B|184:320|160:272,1,100,4|0,0:0|0:0,0:0:0:0:
252,232,66071,2,0,B|228:184|176:172,1,100,6|0,0:0|0:0,0:0:0:0:
76,172,66737,2,0,B|72:104|152:48|216:80,1,200,4|0,0:0|0:0,0:0:0:0:
416,100,68068,6,0,B|424:140|400:172,1,75
312,260,68734,2,0,B|264:276,1,50,2|0,0:0|0:0,0:0:0:0:
120,228,69400,5,4,0:0:0:0:
212,52,70066,1,0,0:0:0:0:
204,252,70731,1,0,0:0:0:0:
296,76,71397,1,0,0:0:0:0:
472,172,72063,6,0,B|448:224|400:236,1,100,4|0,0:0|0:0,0:0:0:0:
372,332,72728,2,0,B|316:316|304:264,1,100,2|0,0:0|0:0,0:0:0:0:
324,168,73394,2,0,B|268:156|231:195,1,100
180,280,74060,2,0,B|140:312|88:312,1,100
36,224,74725,6,0,B|56:176|108:160,1,100
208,140,75391,2,0,B|260:136|300:104,1,100,2|0,0:0|0:0,0:0:0:0:
372,36,76057,1,0,0:0:0:0:
460,216,76723,1,4,0:0:0:0:
288,320,77388,6,0,B|180:340|100:272,1,200,4|2,0:0|0:0,0:0:0:0:
128,76,78720,2,0,B|232:104|316:36,1,200
472,160,80051,6,0,B|452:268|348:304,1,200,0|2,0:0|0:0,0:0:0:0:
256,192,81383,12,4,82714,0:0:0:0:
