osu file format v12

[General]
AudioFilename: Green Greens.mp3
AudioLeadIn: 500
PreviewTime: 6491
Countdown: 0
SampleSet: Soft
StackLeniency: 0.7
Mode: 0
LetterboxInBreaks: 0
WidescreenStoryboard: 0

[Editor]
Bookmarks: 18806,32120,44103,57417,69400,82714
DistanceSpacing: 1
BeatDivisor: 4
GridSize: 4
TimelineZoom: 1

[Metadata]
Title:Green Greens
TitleUnicode:Green Greens
Artist:Jun Ishikawa
ArtistUnicode:Jun Ishikawa
Creator:Ylinestra44
Version:Hard
Source:Kirby's Adventure
Tags:NES Nintendo Gameboy Dreamland Kokatsu Deif
BeatmapID:173168
BeatmapSetID:57453

[Difficulty]
HPDrainRate:6
CircleSize:4
OverallDifficulty:6
ApproachRate:7
SliderMultiplier:1.3
SliderTickRate:2

[Events]
//Background and Video events
0,0,"Kirby Green Greens Raining.jpg",0,0
//Break Periods
//Storyboard Layer 0 (Background)
//Storyboard Layer 1 (Fail)
//Storyboard Layer 2 (Pass)
//Storyboard Layer 3 (Foreground)
//Storyboard Sound Samples
//Background Colour Transformations
3,100,163,162,255

[TimingPoints]
6824.07363727005,332.852546321979,4,1,1,30,1,0
7822,-100,4,2,1,60,0,0
8155,-100,4,1,1,30,0,0
8321,-100,4,2,1,60,0,0
9486,-100,4,1,1,25,0,0
9819,-100,4,2,1,60,0,0
10152,-100,4,2,1,25,0,0
10485,-100,4,2,1,60,0,0
10818,-100,4,1,1,25,0,0
11816,-100,4,2,1,60,0,0
12149,-100,4,1,1,25,0,0
13148,-100,4,2,1,60,0,0
13481,-100,4,1,1,30,0,0
13647,-100,4,2,1,60,0,0
14812,-100,4,1,1,25,0,0
15145,-100,4,2,1,60,0,0
15478,-100,4,2,1,25,0,0
15811,-100,4,2,1,60,0,0
16143,-100,4,1,1,25,0,0
16809,-100,4,2,1,60,0,0
17475,-100,4,1,1,30,0,0
17724,-100,4,2,1,60,0,0
18307,-100,4,2,1,40,0,0
18806,-100,4,1,1,25,0,0
18973,-100,4,2,1,60,0,0
19472,-100,4,2,1,40,0,0
20138,-100,4,1,1,20,0,0
20304,-100,4,2,1,60,0,0
20803,-100,4,2,1,40,0,0
21469,-100,4,1,1,25,0,0
21802,-100,4,2,1,60,0,0
22800,-100,4,1,1,30,0,0
23133,-100,4,2,1,60,0,0
24132,-100,4,1,1,30,0,0
24465,-100,4,2,1,60,0,0
25463,-100,4,1,1,30,0,0
26129,-100,4,2,1,30,0,0
26795,-100,4,1,1,30,0,0
27128,-100,4,2,1,30,0,0
28126,-100,4,1,1,30,0,0
28459,-100,4,2,1,60,0,0
29458,-100,4,1,1,30,0,0
29790,-100,4,2,1,60,0,0
30789,-100,4,1,1,30,0,0
30955,-100,4,2,1,60,0,0
31455,-100,4,2,1,30,0,0
32120,-100,4,1,1,30,0,0
33119,-100,4,2,1,60,0,0
33452,-100,4,1,1,30,0,0
33618,-100,4,2,1,60,0,0
34783,-100,4,1,1,25,0,0
35116,-100,4,2,1,60,0,0
35449,-100,4,2,1,25,0,0
35782,-100,4,2,1,60,0,0
36115,-100,4,1,1,25,0,0
37113,-100,4,2,1,60,0,0
37446,-100,4,1,1,30,0,0
38445,-100,4,2,1,60,0,0
38777,-100,4,1,1,30,0,0
38944,-100,4,2,1,60,0,0
40109,-100,4,1,1,25,0,0
40442,-100,4,2,1,60,0,0
40775,-100,4,2,1,25,0,0
41107,-100,4,2,1,60,0,0
41440,-100,4,1,1,25,0,0
42106,-100,4,2,1,60,0,0
42772,-100,4,1,1,30,0,0
43021,-100,4,2,1,60,0,0
43604,-100,4,2,1,40,0,0
44103,-100,4,1,1,25,0,0
44269,-100,4,2,1,60,0,0
44769,-100,4,2,1,40,0,0
45434,-100,4,1,1,20,0,0
45601,-100,4,2,1,60,0,0
46100,-100,4,2,1,40,0,0
46766,-100,4,1,1,25,0,0
47099,-100,4,2,1,60,0,0
48097,-100,4,1,1,30,0,0
48430,-100,4,2,1,60,0,0
49429,-100,4,1,1,30,0,0
49762,-100,4,2,1,60,0,0
50760,-100,4,1,1,30,0,0
51426,-100,4,2,1,25,0,0
52092,-100,4,1,1,30,0,0
52424,-100,4,2,1,60,0,0
53423,-100,4,1,1,30,0,0
53756,-100,4,2,1,60,0,0
54754,-100,4,1,1,30,0,0
55087,-100,4,2,1,60,0,0
56086,-100,4,1,1,30,0,0
56252,-100,4,2,1,60,0,0
56751,-100,4,2,1,25,0,0
57417,-100,4,1,1,30,0,0
58416,-100,4,2,1,60,0,0
58749,-100,4,1,1,30,0,0
58915,-100,4,2,1,60,0,0
60080,-100,4,1,1,25,0,0
60413,-100,4,2,1,60,0,0
60746,-100,4,2,1,25,0,0
61079,-100,4,2,1,60,0,0
61411,-100,4,1,1,25,0,0
62410,-100,4,2,1,25,0,0
62743,-100,4,1,1,25,0,0
63741,-100,4,2,1,60,0,0
64074,-100,4,1,1,30,0,0
64241,-100,4,2,1,60,0,0
65406,-100,4,1,1,25,0,0
65738,-100,4,2,1,60,0,0
66071,-100,4,2,1,25,0,0
66404,-100,4,2,1,60,0,0
66737,-100,4,1,1,25,0,0
67403,-100,4,2,1,60,0,0
68068,-100,4,1,1,30,0,0
68318,-100,4,2,1,60,0,0
68901,-100,4,2,1,40,0,0
69400,-100,4,1,1,25,0,0
69566,-100,4,2,1,60,0,0
70066,-100,4,2,1,40,0,0
70731,-100,4,1,1,20,0,0
70898,-100,4,2,1,60,0,0
71397,-100,4,2,1,40,0,0
72063,-100,4,1,1,25,0,0
72396,-100,4,2,1,60,0,0
73394,-100,4,1,1,30,0,0
73727,-100,4,2,1,60,0,0
74725,-100,4,1,1,30,0,0
75058,-100,4,2,1,60,0,0
76057,-100,4,1,1,30,0,0
76723,-100,4,2,1,25,0,0
77388,-100,4,1,1,25,0,0
77721,-100,4,2,1,60,0,0
78720,-100,4,1,1,30,0,0
79053,-100,4,2,1,60,0,0
80051,-100,4,1,1,30,0,0
80384,-100,4,2,1,60,0,0
81383,-100,4,2,1,20,0,0

[Colours]
Combo1 : 75,65,33
Combo2 : 250,160,245
Combo3 : 156,210,96

[HitObjects]
48,248,6824,6,0,B|80:144|224:76|380:124,1,390,4|0,0:0|0:0,0:0:0:0:
472,212,8155,2,0,B|412:232,1,65,0|2,0:0|0:0,0:0:0:0:
344,228,8488,2,0,B|284:208,1,65,0|2,0:0|0:0,0:0:0:0:
216,204,8821,2,0,B|152:232|120:288,1,130,2|0,0:0|0:0,0:0:0:0:
32,192,9486,2,0,B|48:128|104:88,1,130,4|0,0:0|0:0,0:0:0:0:
232,56,10152,2,0,B|304:48|352:92,1,130,6|0,0:0|0:0,0:0:0:0:
420,204,10818,2,0,B|436:344|348:388|232:408|160:304,1,390,4|0,0:0|0:0,0:0:0:0:
36,336,12149,6,0,B|20:196|108:152|224:132|296:236,1,390,4|0,0:0|0:0,0:0:0:0:
344,348,13481,2,0,B|408:332,1,65,0|2,0:0|0:0,0:0:0:0:
452,284,13813,2,0,B|464:220,1,65,0|2,0:0|0:0,0:0:0:0:
468,156,14146,2,0,B|476:88|412:48,1,130,2|0,0:0|0:0,0:0:0:0:
280,48,14812,2,0,B|212:56|164:104,1,130,4|0,0:0|0:0,0:0:0:0:
104,216,15478,2,0,B|88:288|24:312,1,130,6|0,0:0|0:0,0:0:0:0:
156,312,16143,2,0,B|224:192|376:200,1,260,4|0,0:0|0:0,0:0:0:0:
120,148,17475,6,0,B|152:108|204:96,2,97.5,0|0|2,0:0|0:0|0:0,0:0:0:0:
188,260,18307,1,0,0:0:0:0:
244,224,18473,1,2,0:0:0:0:
284,172,18640,1,0,0:0:0:0:
328,124,18806,5,4,0:0:0:0:
384,92,18973,2,0,B|440:60,2,65,0|2|0,0:0|0:0|0:0,0:0:0:0:
412,152,19472,2,0,B|464:188,2,65,0|0|2,0:0|0:0|0:0,0:0:0:0:
352,268,20138,5,0,0:0:0:0:
304,312,20304,2,0,B|248:344,2,65,0|2|0,0:0|0:0|0:0,0:0:0:0:
256,268,20803,2,0,B|200:236,2,65,0|0|2,0:0|0:0|0:0,0:0:0:0:
244,136,21469,6,0,B|224:68|156:48,1,130,4|0,0:0|0:0,0:0:0:0:
32,84,22135,2,0,B|52:152|120:172,1,130,2|0,0:0|0:0,0:0:0:0:
28,264,22800,2,0,B|80:312|150:296,1,130
268,348,23466,2,0,B|292:284|255:223,1,130
444,168,24132,6,0,B|416:108|348:84,1,130
232,140,24798,2,0,B|164:116|136:56,1,130,2|0,0:0|0:0,0:0:0:0:
40,144,25463,2,0,B|161:189|35:305|157:351,1,260,0|4,0:0|0:0,0:0:0:0:
408,292,26795,6,0,B|424:224|368:176,1,130
256,244,27460,2,0,B|220:188|152:172,1,130,2|0,0:0|0:0,0:0:0:0:
32,220,28126,2,0,B|32:292|100:320,1,130
228,344,28792,2,0,B|300:356|344:304,1,130
492,176,29458,6,0,B|456:116|388:104,1,130
260,108,30123,2,0,B|192:124|136:88,1,130,2|0,0:0|0:0,0:0:0:0:
52,188,30789,1,0,0:0:0:0:
88,216,30955,1,0,0:0:0:0:
128,236,31122,1,0,0:0:0:0:
172,244,31288,1,0,0:0:0:0:
216,248,31455,1,4,0:0:0:0:
388,188,32120,6,0,B|420:308|264:384|96:316,1,390,4|0,0:0|0:0,0:0:0:0:
40,204,33452,2,0,B|84:156,1,65,0|2,0:0|0:0,0:0:0:0:
140,128,33785,2,0,B|204:108,1,65,0|2,0:0|0:0,0:0:0:0:
268,100,34117,2,0,B|336:88|396:116,1,130,2|0,0:0|0:0,0:0:0:0:
468,224,34783,2,0,B|448:288|376:308,1,130,4|0,0:0|0:0,0:0:0:0:
248,304,35449,2,0,B|176:292|144:232,1,130,6|0,0:0|0:0,0:0:0:0:
40,156,36115,2,0,B|52:64|148:36|280:96|348:192,1,390,4|0,0:0|0:0,0:0:0:0:
472,228,37446,6,0,B|460:320|364:348|232:288|164:192,1,390,4|0,0:0|0:0,0:0:0:0:
48,248,38777,2,0,B|88:300,1,65,0|2,0:0|0:0,0:0:0:0:
144,332,39110,2,0,B|208:352,1,65,0|2,0:0|0:0,0:0:0:0:
272,360,39443,2,0,B|348:360|396:324,1,130,2|0,0:0|0:0,0:0:0:0:
468,216,40109,2,0,B|448:152|376:132,1,130,4|0,0:0|0:0,0:0:0:0:
248,136,40775,2,0,B|176:148|128:104,1,130,6|0,0:0|0:0,0:0:0:0:
24,184,41440,2,0,B|60:320|216:336,1,260,4|0,0:0|0:0,0:0:0:0:
456,244,42772,6,0,B|408:264|361:240,2,97.5,0|0|2,0:0|0:0|0:0,0:0:0:0:
476,116,43604,1,0,0:0:0:0:
416,88,43770,1,2,0:0:0:0:
352,88,43937,1,0,0:0:0:0:
292,116,44103,5,4,0:0:0:0:
252,168,44269,2,0,B|216:224,2,65,0|2|0,0:0|0:0|0:0,0:0:0:0:
188,156,44769,2,0,B|128:176,2,65,0|0|2,0:0|0:0|0:0,0:0:0:0:
56,160,45434,5,0,0:0:0:0:
32,100,45601,2,0,B|4:40,2,65,0|2|0,0:0|0:0|0:0,0:0:0:0:
96,112,46100,2,0,B|148:72,2,65,0|0|2,0:0|0:0|0:0,0:0:0:0:
100,244,46766,5,4,0:0:0:0:
196,332,47099,1,0,0:0:0:0:
324,324,47432,2,0,B|392:316|440:268,1,130,2|0,0:0|0:0,0:0:0:0:
400,144,48097,1,0,0:0:0:0:
288,76,48430,1,0,0:0:0:0:
160,88,48763,2,0,B|96:116|64:172,1,130
252,224,49429,5,0,0:0:0:0:
352,140,49762,1,0,0:0:0:0:
428,36,50094,1,2,0:0:0:0:
468,160,50427,1,0,0:0:0:0:
388,264,50760,2,0,B|296:376|148:304,1,260,0|4,0:0|0:0,0:0:0:0:
352,140,52092,5,4,0:0:0:0:
240,80,52424,1,0,0:0:0:0:
112,100,52757,1,2,0:0:0:0:
60,220,53090,1,0,0:0:0:0:
112,340,53423,2,0,B|178:309|188:241,1,130
320,252,54089,2,0,B|324:176|267:139,1,130
388,296,54754,6,0,B|348:352|276:352,1,130
148,336,55420,1,2,0:0:0:0:
72,228,55753,1,0,0:0:0:0:
112,104,56086,1,0,0:0:0:0:
152,84,56252,1,0,0:0:0:0:
196,80,56418,1,0,0:0:0:0:
240,88,56585,1,0,0:0:0:0:
280,108,56751,1,4,0:0:0:0:
436,316,57417,6,0,B|316:372|256:100|196:372|76:316,1,390,4|0,0:0|0:0,0:0:0:0:
132,196,58749,2,0,B|176:148,1,65,0|2,0:0|0:0,0:0:0:0:
232,116,59081,2,0,B|292:96,1,65,0|2,0:0|0:0,0:0:0:0:
356,84,59414,2,0,B|424:84|480:120,1,130,2|0,0:0|0:0,0:0:0:0:
432,240,60080,2,0,B|359:231|308:272,1,130,4|0,0:0|0:0,0:0:0:0:
200,340,60746,2,0,B|130:351|78:307,1,130,4|0,0:0|0:0,0:0:0:0:
80,176,61411,2,0,B|164:316|332:196|416:336,1,390,4|0,0:0|0:0,0:0:0:0:
432,208,62743,6,0,B|348:68|180:188|96:48,1,390,4|0,0:0|0:0,0:0:0:0:
224,36,64074,2,0,B|288:40,1,65,0|2,0:0|0:0,0:0:0:0:
352,48,64407,2,0,B|412:72,1,65,0|2,0:0|0:0,0:0:0:0:
468,104,64740,2,0,B|512:160|508:228,1,130,2|0,0:0|0:0,0:0:0:0:
436,332,65406,1,4,0:0:0:0:
320,276,65738,1,0,0:0:0:0:
192,276,66071,1,6,0:0:0:0:
76,332,66404,1,0,0:0:0:0:
132,216,66737,2,0,B|256:148|380:216,1,260,4|0,0:0|0:0,0:0:0:0:
144,104,68068,6,0,B|92:104|52:136,2,97.5,0|0|2,0:0|0:0|0:0,0:0:0:0:
228,204,68901,1,0,0:0:0:0:
288,184,69067,1,2,0:0:0:0:
340,148,69233,1,0,0:0:0:0:
388,104,69400,5,4,0:0:0:0:
440,64,69566,2,0,B|492:28,2,65,0|2|0,0:0|0:0|0:0,0:0:0:0:
468,124,70066,2,0,B|512:172,2,65,0|0|2,0:0|0:0|0:0,0:0:0:0:
388,224,70731,5,0,0:0:0:0:
332,192,70898,2,0,B|276:160,2,65,0|2|0,0:0|0:0|0:0,0:0:0:0:
284,240,71397,2,0,B|224:260,2,65,0|0|2,0:0|0:0|0:0,0:0:0:0:
212,348,72063,6,0,B|144:356|92:308,1,130,4|0,0:0|0:0,0:0:0:0:
20,200,72728,1,2,0:0:0:0:
60,76,73061,1,0,0:0:0:0:
188,52,73394,1,0,0:0:0:0:
304,116,73727,1,0,0:0:0:0:
432,140,74060,2,0,B|444:68|393:21,1,130
160,136,74725,6,0,B|92:152|56:212,1,130
80,340,75391,1,2,0:0:0:0:
188,268,75724,1,0,0:0:0:0:
308,320,76057,2,0,B|416:348|488:244|452:168,1,260,0|4,0:0|0:0,0:0:0:0:
211,69,77388,5,4,0:0:0:0:
127,169,77721,1,0,0:0:0:0:
172,291,78054,1,2,0:0:0:0:
300,314,78387,1,0,0:0:0:0:
384,214,78720,1,0,0:0:0:0:
339,92,79053,1,0,0:0:0:0:
256,192,79385,1,0,0:0:0:0:
256,192,79718,1,0,0:0:0:0:
375,260,80051,5,0,0:0:0:0:
187,311,80384,1,0,0:0:0:0:
136,123,80717,1,2,0:0:0:0:
324,72,81050,1,0,0:0:0:0:
256,192,81383,12,4,82714,0:0:0:0:
