osu file format v12

[General]
AudioFilename: Green Greens.mp3
AudioLeadIn: 500
PreviewTime: 6491
Countdown: 0
SampleSet: Normal
StackLeniency: 0.7
Mode: 0
LetterboxInBreaks: 0
WidescreenStoryboard: 0

[Editor]
Bookmarks: 18806,32120,44103,57417,69400,82714
DistanceSpacing: 1
BeatDivisor: 2
GridSize: 4
TimelineZoom: 1

[Metadata]
Title:Green Greens
TitleUnicode:Green Greens
Artist:Jun Ishikawa
ArtistUnicode:Jun Ishikawa
Creator:Ylinestra44
Version:Easy
Source:Kirby's Adventure
Tags:NES Nintendo Gameboy Dreamland Kokatsu Deif
BeatmapID:173167
BeatmapSetID:57453

[Difficulty]
HPDrainRate:2
CircleSize:3
OverallDifficulty:2
ApproachRate:3
SliderMultiplier:0.8
SliderTickRate:2

[Events]
//Background and Video events
0,0,"Kirby Green Greens Raining.jpg",0,0
//Break Periods
//Storyboard Layer 0 (Background)
//Storyboard Layer 1 (Fail)
//Storyboard Layer 2 (Pass)
//Storyboard Layer 3 (Foreground)
//Storyboard Sound Samples
//Background Colour Transformations
3,100,163,162,255

[TimingPoints]
6824.07363727005,332.852546321979,4,1,1,30,1,0
7822,-100,4,2,1,60,0,0
8155,-100,4,1,1,30,0,0
8821,-100,4,2,1,60,0,0
9486,-100,4,1,1,25,0,0
10152,-100,4,2,1,25,0,0
10818,-100,4,1,1,25,0,0
11816,-100,4,2,1,60,0,0
12149,-100,4,1,1,25,0,0
13148,-100,4,2,1,60,0,0
13481,-100,4,1,1,30,0,0
14146,-100,4,2,1,60,0,0
14812,-100,4,1,1,25,0,0
15478,-100,4,2,1,25,0,0
16143,-100,4,1,1,25,0,0
16809,-100,4,2,1,60,0,0
17475,-100,4,1,1,30,0,0
18141,-100,4,2,1,40,0,0
18806,-100,4,1,1,25,0,0
19472,-100,4,2,1,40,0,0
20138,-100,4,1,1,20,0,0
20803,-100,4,2,1,40,0,0
21469,-100,4,1,1,25,0,0
22135,-100,4,2,1,60,0,0
22800,-100,4,1,1,30,0,0
23466,-100,4,2,1,60,0,0
24132,-100,4,1,1,30,0,0
24798,-100,4,2,1,60,0,0
25463,-100,4,1,1,30,0,0
26129,-100,4,2,1,30,0,0
26795,-100,4,1,1,30,0,0
27460,-100,4,2,1,60,0,0
28126,-100,4,1,1,30,0,0
28792,-100,4,2,1,60,0,0
29458,-100,4,1,1,30,0,0
30123,-100,4,2,1,60,0,0
30789,-100,4,1,1,30,0,0
31455,-100,4,2,1,30,0,0
32120,-100,4,1,1,30,0,0
32786,-100,4,2,1,60,0,0
33452,-100,4,1,1,30,0,0
34117,-100,4,2,1,60,0,0
34783,-100,4,1,1,25,0,0
35449,-100,4,2,1,25,0,0
36115,-100,4,1,1,25,0,0
37446,-100,4,1,1,30,0,0
38112,-100,4,2,1,60,0,0
38777,-100,4,1,1,30,0,0
39443,-100,4,2,1,60,0,0
40109,-100,4,1,1,25,0,0
40775,-100,4,2,1,25,0,0
41440,-100,4,1,1,25,0,0
42106,-100,4,2,1,60,0,0
42772,-100,4,1,1,30,0,0
43437,-100,4,2,1,40,0,0
44103,-100,4,1,1,25,0,0
44769,-100,4,2,1,40,0,0
45434,-100,4,1,1,20,0,0
46100,-100,4,2,1,40,0,0
46766,-100,4,1,1,25,0,0
47432,-100,4,2,1,60,0,0
48097,-100,4,1,1,30,0,0
48763,-100,4,2,1,60,0,0
49429,-100,4,1,1,30,0,0
50094,-100,4,2,1,60,0,0
50760,-100,4,1,1,30,0,0
51426,-100,4,2,1,25,0,0
52092,-100,4,1,1,30,0,0
52757,-100,4,2,1,60,0,0
53423,-100,4,1,1,30,0,0
54089,-100,4,2,1,60,0,0
54754,-100,4,1,1,30,0,0
55420,-100,4,2,1,60,0,0
56086,-100,4,1,1,30,0,0
56751,-100,4,2,1,25,0,0
57417,-100,4,1,1,30,0,0
58416,-100,4,2,1,60,0,0
58749,-100,4,1,1,30,0,0
59414,-100,4,2,1,60,0,0
60080,-100,4,1,1,25,0,0
60746,-100,4,2,1,25,0,0
61411,-100,4,1,1,25,0,0
62410,-100,4,2,1,25,0,0
62743,-100,4,1,1,25,0,0
63741,-100,4,2,1,60,0,0
64074,-100,4,1,1,30,0,0
64740,-100,4,2,1,60,0,0
65406,-100,4,1,1,25,0,0
66071,-100,4,2,1,25,0,0
66737,-100,4,1,1,25,0,0
67403,-100,4,2,1,60,0,0
68068,-100,4,1,1,30,0,0
68734,-100,4,2,1,40,0,0
69400,-100,4,1,1,25,0,0
70066,-100,4,2,1,40,0,0
70731,-100,4,1,1,20,0,0
71397,-100,4,2,1,40,0,0
72063,-100,4,1,1,25,0,0
72728,-100,4,2,1,60,0,0
73394,-100,4,1,1,30,0,0
74060,-100,4,2,1,60,0,0
74725,-100,4,1,1,30,0,0
75391,-100,4,2,1,60,0,0
76057,-100,4,1,1,30,0,0
76723,-100,4,2,1,25,0,0
77388,-100,4,1,1,25,0,0
78054,-100,4,2,1,60,0,0
78720,-100,4,1,1,30,0,0
79385,-100,4,2,1,60,0,0
80051,-100,4,1,1,30,0,0

[Colours]
Combo1 : 75,65,33
Combo2 : 250,160,245
Combo3 : 156,210,96

[HitObjects]
64,324,6824,6,0,B|100:228|212:284|248:188,1,240,4|0,0:0|0:0,0:0:0:0:
280,116,8155,2,0,B|320:48|420:60,1,160,0|2,0:0|0:0,0:0:0:0:
400,220,9486,5,4,0:0:0:0:
256,292,10152,1,6,0:0:0:0:
112,220,10818,2,0,B|44:197|55:84|168:72|191:140,1,240,4|0,0:0|0:0,0:0:0:0:
192,220,12149,6,0,B|214:287|327:276|339:163|271:140,1,240,4|0,0:0|0:0,0:0:0:0:
300,64,13481,2,0,B|384:100|392:188,1,160,0|2,0:0|0:0,0:0:0:0:
312,324,14812,5,4,0:0:0:0:
152,344,15478,1,6,0:0:0:0:
32,236,16143,2,0,B|12:144|73:86,2,160,4|2|0,0:0|0:0|0:0,0:0:0:0:
188,196,18141,1,2,0:0:0:0:
292,76,18806,5,4,0:0:0:0:
412,180,19472,1,0,0:0:0:0:
440,336,20138,1,0,0:0:0:0:
284,308,20803,1,0,0:0:0:0:
256,152,21469,6,0,B|188:104|103:124,1,160,4|2,0:0|0:0,0:0:0:0:
12,256,22800,1,0,0:0:0:0:
156,328,23466,1,0,0:0:0:0:
304,268,24132,6,0,B|348:196|436:192,1,160,0|2,0:0|0:0,0:0:0:0:
300,112,25463,2,0,B|252:44|160:44,1,160,0|4,0:0|0:0,0:0:0:0:
48,160,26795,5,0,0:0:0:0:
128,300,27460,1,2,0:0:0:0:
284,328,28126,1,0,0:0:0:0:
420,244,28792,1,0,0:0:0:0:
372,92,29458,5,0,0:0:0:0:
216,52,30123,1,2,0:0:0:0:
64,104,30789,2,0,B|92:184|180:212,1,160,0|4,0:0|0:0,0:0:0:0:
336,200,32120,5,4,0:0:0:0:
464,296,32786,1,2,0:0:0:0:
316,360,33452,1,0,0:0:0:0:
160,316,34117,1,2,0:0:0:0:
96,168,34783,6,0,B|172:124|180:40,2,160,4|6|4,0:0|0:0|0:0,0:0:0:0:
416,168,37446,6,0,B|340:124|332:40,1,160,4|2,0:0|0:0,0:0:0:0:
304,196,38777,2,0,B|364:264|336:344,1,160,0|2,0:0|0:0,0:0:0:0:
176,344,40109,6,0,B|148:264|208:196,2,160,4|6|4,0:0|0:0|0:0,0:0:0:0:
64,232,42106,1,2,0:0:0:0:
152,96,42772,5,0,0:0:0:0:
312,80,43437,1,2,0:0:0:0:
460,136,44103,6,0,B|496:140|540:192|496:244|460:248,1,160,4|0,0:0|0:0,0:0:0:0:
344,356,45434,2,0,B|308:352|264:300|308:248|344:244,1,160
224,140,46766,5,4,0:0:0:0:
68,108,47432,1,2,0:0:0:0:
116,260,48097,2,0,B|164:332|244:348,1,160,0|0,0:0|0:0,0:0:0:0:
392,292,49429,5,0,0:0:0:0:
452,144,50094,1,2,0:0:0:0:
292,144,50760,2,0,B|256:220|160:220,1,160,0|4,0:0|0:0,0:0:0:0:
20,140,52092,5,4,0:0:0:0:
156,60,52757,1,2,0:0:0:0:
161,219,53423,1,0,0:0:0:0:
288,316,54089,1,0,0:0:0:0:
444,284,54754,6,0,B|496:216|480:132,1,160,0|2,0:0|0:0,0:0:0:0:
372,56,56086,2,0,B|320:124|336:208,1,160,0|4,0:0|0:0,0:0:0:0:
212,308,57417,6,0,B|88:248|88:116,1,240,4|0,0:0|0:0,0:0:0:0:
167,99,58749,2,0,B|164:192|240:232,1,160,0|2,0:0|0:0,0:0:0:0:
328,96,60080,5,4,0:0:0:0:
456,192,60746,1,6,0:0:0:0:
380,332,61411,2,0,B|324:380|208:360|192:264,1,240,4|0,0:0|0:0,0:0:0:0:
156,192,62743,6,0,B|212:144|328:164|344:260,1,240,4|0,0:0|0:0,0:0:0:0:
424,260,64074,2,0,B|420:176|348:124,1,160,0|2,0:0|0:0,0:0:0:0:
196,88,65406,6,0,B|100:104|72:176,2,160,4|6|4,0:0|0:0|0:0,0:0:0:0:
216,248,67403,1,2,0:0:0:0:
348,336,68068,5,0,0:0:0:0:
492,272,68734,1,2,0:0:0:0:
436,124,69400,6,0,B|380:64|292:64,1,160,4|0,0:0|0:0,0:0:0:0:
312,224,70731,2,0,B|224:224|168:164,1,160
68,40,72063,5,4,0:0:0:0:
8,188,72728,1,2,0:0:0:0:
164,224,73394,2,0,B|144:308|64:340,1,160
224,348,74725,5,0,0:0:0:0:
272,196,75391,1,2,0:0:0:0:
380,316,76057,2,0,B|444:256|432:172,1,160,0|4,0:0|0:0,0:0:0:0:
272,196,77388,5,4,0:0:0:0:
136,108,78054,1,2,0:0:0:0:
292,72,78720,1,0,0:0:0:0:
428,160,79385,1,0,0:0:0:0:
256,192,80051,12,4,82714,0:0:0:0:
