osu file format v9

[General]
AudioFilename: diamonds.mp3
AudioLeadIn: 993
PreviewTime: 77922
Countdown: 0
SampleSet: Soft
StackLeniency: 0.5
Mode: 0
LetterboxInBreaks: 0

[Editor]
Bookmarks: 17922,52516,78462,113057
DistanceSpacing: 1
BeatDivisor: 4
GridSize: 8

[Metadata]
Title:DIAMONDS
Artist:Jun Fukuyama
Creator:Lanttu
Version:Normal
Source:Durarara!!
Tags:cover Shinra Kishitani Princess puri Yunacat

[Difficulty]
HPDrainRate:4
CircleSize:3
OverallDifficulty:4
ApproachRate:4
SliderMultiplier:1.6
SliderTickRate:2

[Events]
//Background and Video events
0,0,"kawaiiiii.png"
//Break Periods
//Storyboard Layer 0 (Background)
//Storyboard Layer 1 (Fail)
//Storyboard Layer 2 (Pass)
//Storyboard Layer 3 (Foreground)
//Storyboard Sound Samples
//Background Colour Transformations
3,100,255,255,255

[TimingPoints]
633,540.540540540541,4,2,1,100,1,0
13470,-100,4,2,1,20,0,0
16849,-100,4,2,1,100,0,0
49957,-100,4,2,1,20,0,0
51714,-100,4,2,1,100,0,0
74011,-100,4,2,1,20,0,0
76308,-100,4,2,1,100,0,0
78470,-100,4,2,1,100,0,1
93605,-100,4,2,1,100,0,0
95768,-100,4,2,1,100,0,1
110903,-100,4,2,1,100,0,0

[Colours]
Combo1 : 234,234,238
Combo2 : 184,183,199
Combo3 : 122,120,148
SliderBorder : 105,105,130

[HitObjects]
464,240,633,2,0,B|376:240|336:160,2,160,12|2|0
440,320,1984,1,0
360,296,2254,1,2
296,248,2524,2,0,B|202:154|75:197,1,240,0|2
192,88,3876,2,0,B|272:104|336:160,1,160,0|2
480,216,4957,6,0,B|392:184|416:88,1,160,4|2
264,48,6038,1,0
192,88,6308,1,0
144,152,6578,1,2
224,160,6849,2,0,B|176:280|56:328,1,240,0|2
224,320,8200,2,0,B|280:264|312:176,1,160,0|2
184,88,9281,6,0,B|88:96|32:32,2,160,4|2|0
264,88,10633,1,0
344,80,10903,1,2
416,48,11173,2,0,B|464:72|464:152|360:152|360:232|416:256,1,240,0|2
264,184,12524,2,0,B|256:296|344:336,1,160,0|2
256,192,13605,12,2,16849
400,192,17930,6,0,B|312:192|264:120,1,160,4|8
280,40,18741,2,0,B|280:128|216:192,1,160,0|0
167,245,19551,1,8
40,152,20092,6,0,B|128:184|168:248,1,160,0|8
216,312,20903,2,0,B|304:352|368:296,1,160
416,232,21714,1,8
336,96,22254,6,0,B|256:56|176:96,2,160,0|8|0
216,200,23876,1,8
296,200,24146,1,0
352,256,24416,2,0,B|328:312|256:344|184:312|160:256,2,240,0|8|8
440,120,26578,6,0,B|480:152|488:208,2,80,0|0|8
448,280,27660,2,0,B|451:321|491:345,2,80,0|0|8
336,168,28741,2,0,B|240:152|232:64,1,160,0|8
176,216,29822,2,0,B|272:232|280:320,1,160,0|8
120,288,30903,6,0,B|88:328|32:336,2,80,0|0|8
40,152,31984,2,0,B|12:120|24:74,2,80,0|0|8
144,272,33065,2,0,B|256:352|368:272,2,240,0|0|2
64,120,35227,6,0,B|80:96|136:72|192:96|208:120,1,160,4|8
176,192,36038,2,0,B|192:112|264:64,1,160
328,16,36849,1,8
328,176,37389,6,0,B|344:152|400:128|456:152|472:176,1,160,0|8
504,104,38200,2,0,B|458:171|475:256,1,160
488,336,39011,1,8
328,304,39551,6,0,B|256:368|184:304,2,160,0|8|0
216,192,41173,1,8
296,192,41443,1,0
352,136,41714,2,0,B|328:80|256:48|184:80|160:136,2,240,0|8|8
456,256,43876,6,0,B|448:208|400:184,2,80,0|0|8
320,336,44957,1,0
256,288,45227,1,0
192,336,45497,1,8
56,256,46038,2,0,B|64:208|112:184,2,80,0|0|8
184,152,47119,2,0,B|256:216|328:152,1,160,0|8
256,24,48200,6,0,B|256:192,1,160,0|8
256,264,49011,1,0
328,304,49281,2,0,B|256:376|184:304,1,160,0|8
256,192,50092,12,0,51443
184,160,52524,6,0,B|120:232|184:304,1,160,4|8
320,224,53605,2,0,B|384:152|320:80,1,160,0|8
168,120,54687,1,0
112,176,54957,1,0
104,256,55227,1,8
144,328,55497,1,0
144,328,56308,1,8
256,216,56849,6,0,B|328:280|400:216,1,160,0|8
256,136,57930,2,0,B|184:72|112:136,1,160,0|8
224,248,59011,1,0
280,304,59281,1,0
360,312,59551,1,8
432,272,59821,1,0
432,272,60632,1,8
344,136,61173,6,8,B|432:120|448:24,2,160,4|8|0
184,160,62795,1,8
96,32,63335,1,0
34,81,63605,1,0
21,158,63876,1,8
42,236,64146,1,0
42,236,64957,1,8
200,240,65497,6,8,B|112:256|96:352,2,160,0|8|0
360,216,67119,1,8
384,376,67659,1,0
456,344,67929,1,0
488,272,68200,1,8
488,192,68470,1,0
488,192,69281,1,8
400,192,69551,6,0,B|368:168|360:120,1,80,0|0
336,48,70092,2,0,B|288:72,1,40,0|8
184,64,70633,6,0,B|180:103|142:134,1,80,8|0
92,191,71174,2,0,B|137:220,1,40,0|8
184,320,71714,6,0,B|221:304|267:321,1,80,8|0
340,336,72255,2,0,B|344:282,1,40,0|8
256,208,72795,6,0,B|256:128,2,80,8|0|0
296,280,73605,1,8
216,280,73876,1,0
256,192,74146,12,4,76308
296,176,77930,6,0,B|256:160|216:176,1,80,0|2
152,224,78470,5,4
96,168,78741,1,0
40,224,79011,1,8
96,280,79281,1,0
176,304,79551,6,0,B|228:347|331:338,1,160,0|8
308,260,80362,2,0,B|374:271|459:211,1,160,2|2
512,152,81173,1,8
512,152,81714,1,0
400,40,82254,6,0,B|400:128|328:184,2,160,8|6|8
320,48,83605,5,8
256,96,83876,2,0,B|256:256,1,160,0|8
192,304,84687,1,8
112,312,84957,2,0,B|112:224|178:172,2,160,2|8|0
80,152,86578,6,0,B|32:216|24:320,2,160,8|6|8
136,96,87930,5,0
208,56,88200,2,0,B|256:208,1,160,0|8
184,248,89011,1,0
256,288,89281,2,8,B|312:352|400:352,1,160,2|8
344,200,90362,2,8,B|421:234|501:197,2,160,0|8|2
416,56,91984,5,8
360,112,92254,1,0
312,48,92524,2,0,B|272:64|256:104|256:104|240:64|200:48,1,160,0|8
152,112,93335,1,0
96,56,93605,1,2
96,56,94146,1,8
256,56,94687,5,2
216,208,95227,2,0,B|256:224|296:208,1,80,2|0
360,160,95767,5,4
416,216,96038,1,0
472,160,96308,1,8
416,104,96578,1,0
336,80,96848,6,0,B|283:36|180:45,1,160,0|8
204,124,97659,2,0,B|137:112|52:172,1,160,2|2
0,232,98470,1,8
0,232,99011,1,0
160,264,99551,6,0,B|248:248|274:156,2,160,8|6|8
184,344,100903,5,0
256,312,101173,1,0
416,344,101714,1,8
344,312,101984,1,0
328,232,102254,2,0,B|352:144|440:128,2,160,2|8|0
208,128,103876,6,0,B|176:96|136:88|96:96|64:128,2,160,8|6|8
256,64,105227,5,0
304,128,105497,2,0,B|336:96|376:88|416:96|448:128,1,160,0|8
400,280,106578,2,0,B|320:320|256:248,1,160,2|8
112,280,107660,2,0,B|192:320|256:248,1,160,0|8
112,176,108741,2,0,B|160:120|256:96|352:120|400:176,2,320,2|8|2
256,240,111443,6,0,B|256:112,2,120,2|0|0
256,320,112524,1,2
256,320,113065,1,4
