osu file format v9

[General]
AudioFilename: diamonds.mp3
AudioLeadIn: 993
PreviewTime: 77922
Countdown: 0
SampleSet: Soft
StackLeniency: 0.5
Mode: 0
LetterboxInBreaks: 0

[Editor]
Bookmarks: 17922,52516,78462,113057
DistanceSpacing: 1
BeatDivisor: 4
GridSize: 8

[Metadata]
Title:DIAMONDS
Artist:Jun Fukuyama
Creator:Lanttu
Version:Hard
Source:Durarara!!
Tags:cover Shinra Kishitani Princess puri Yunacat

[Difficulty]
HPDrainRate:6
CircleSize:4
OverallDifficulty:6
ApproachRate:6
SliderMultiplier:2
SliderTickRate:2

[Events]
//Background and Video events
0,0,"kawaiiiii.png"
//Break Periods
//Storyboard Layer 0 (Background)
//Storyboard Layer 1 (Fail)
//Storyboard Layer 2 (Pass)
//Storyboard Layer 3 (Foreground)
//Storyboard Sound Samples
//Background Colour Transformations
3,100,255,255,255

[TimingPoints]
633,540.540540540541,4,2,1,100,1,0
49957,-100,4,2,1,20,0,0
52119,-100,4,2,1,100,0,0
74146,-100,4,2,1,20,0,0
76308,-100,4,2,1,100,0,0
78470,-100,4,2,1,100,0,1
93605,-100,4,2,1,100,0,0
95768,-100,4,2,1,100,0,1
110903,-100,4,2,1,100,0,0

[Colours]
Combo1 : 234,234,238
Combo2 : 184,183,199
Combo3 : 122,120,148
SliderBorder : 105,105,130

[HitObjects]
464,240,633,2,0,B|400:240|376:168,1,100,12|2
336,104,1173,2,0,B|312:154|256:152,1,100,0|2
208,152,1578,2,0,B|96:152,2,100,0|2|2
256,152,2254,1,0
256,56,2524,1,2
256,152,2795,6,0,B|256:216|192:224,1,100,8|2
104,240,3335,2,0,B|104:304|168:312,1,100,0|2
208,312,3741,2,0,B|312:312,2,100,0|2|2
160,312,4416,1,0
200,224,4687,1,2
208,128,4957,6,0,B|232:80|208:32,1,100,4|2
304,64,5497,2,0,B|280:112|304:160,1,100,0|2
328,208,5903,2,0,B|352:248|352:304,2,100,0|2|2
304,160,6578,1,0
392,112,6849,1,2
480,64,7119,6,0,B|504:112|480:160,1,100,8|2
464,256,7660,2,0,B|447:306|396:323,1,100,0|2
352,304,8065,2,0,B|312:280|256:280,2,100,0|2|2
396,324,8741,1,0
376,224,9011,1,2
328,176,9191,6,0,B|296:144,1,33.3333333333333,0|8
256,200,9461,2,0,B|224:232,1,33.3333333333333,0|2
184,176,9732,2,0,B|160:152,1,33.3333333333333,0|0
88,80,10092,1,2
56,120,10227,2,0,B|32:176|72:216,2,100,0|2|2
88,80,10903,2,0,B|144:104|184:64,1,100,0|2
256,136,11443,5,0
304,224,11714,1,2
208,224,11984,1,0
256,312,12254,1,2
208,328,12389,2,0,B|152:360|96:320,2,100,0|2|2
256,312,13065,2,0,B|312:280|368:320,1,100,0|2
440,352,13605,6,0,B|504:336|504:208|440:192,1,200,4|0
344,280,14416,2,0,B|312:224|264:224|216:224|192:160,1,200,4|0
320,160,15227,2,0,B|296:223|248:223|200:223|168:279,1,200,2|4
72,192,16038,2,0,B|8:207|8:335|72:351,1,200,2|0
120,264,16849,2,0,B|151:303|208:312,1,100,2|2
304,312,17389,2,0,B|336:352,2,50,0|2|0
280,216,17930,6,0,B|224:216|192:176,1,100,4|8
272,120,18470,1,0
176,80,18741,1,8
176,80,18876,2,0,B|176:168|104:200,1,150,0|8
24,144,19551,1,0
24,248,19822,1,8
104,200,20092,6,0,B|160:216|184:264,1,100,0|8
96,320,20633,1,0
176,376,20903,1,8
176,376,21038,2,8,B|208:296|304:320,1,150,0|8
392,352,21714,1,0
298,319,21984,2,8,B|320:248|416:224|472:288,1,200
392,352,22795,5,0
461,277,23065,1,8
461,277,23200,2,0,B|496:216|480:128,1,150,0|8
384,152,23876,1,0
408,56,24146,1,8
312,88,24416,6,0,B|288:192,1,100,0|8
200,232,24957,2,0,B|224:128,1,100,0|8
232,88,25362,1,0
136,128,25633,1,0
136,128,25768,1,8
112,224,26038,1,0
48,144,26308,1,8
24,240,26578,6,0,B|40:304|104:312,1,100,0|8
184,344,27119,1,0
224,248,27389,1,8
288,328,27660,2,0,B|344:361|395:322,1,100,0|8
336,240,28200,1,0
376,152,28470,1,8
472,168,28741,6,0,B|480:64,1,100,0|8
384,56,29281,2,0,B|376:160,1,100,0|8
280,144,29822,2,0,B|288:40,2,100,0|8|0
272,240,30633,1,8
256,336,30903,2,0,B|304:312|352:336,1,100,0|8
256,336,31443,2,0,B|208:360|160:336,1,100,0|8
128,240,31984,5,0
32,264,32254,1,8
8,168,32524,1,0
104,144,32795,1,8
128,240,33065,2,0,B|216:304|320:256,2,200,0|2|0
328,168,34596,6,0,B|296:136,1,33.3333333333333,0|8
256,192,34866,2,0,B|216:152,1,33.3333333333333,0|2
184,216,35137,2,0,B|160:192,1,33.3333333333333,0|4
136,96,35497,5,8
56,160,35768,1,0
32,256,36038,1,8
32,256,36173,2,0,B|32:352|128:352,1,150,0|8
224,352,36849,1,0
304,288,37119,1,8
384,352,37389,5,0
487,361,37660,1,8
496,257,37930,1,0
393,248,38200,1,8
393,248,38335,2,0,B|397:192|469:198|475:126,1,150,0|8
480,32,39011,1,0
475,129,39281,1,8
392,72,39551,6,0,B|344:96|296:72,1,100,0|8
304,168,40092,1,0
208,168,40362,1,8
208,168,40497,2,0,B|136:204|63:168,1,150,0|8
88,72,41173,2,0,B|136:96|184:72,1,100,0|8
256,144,41714,6,0,B|256:248,1,100,0|8
304,328,42254,2,0,B|256:352|208:328,1,100,0|8
168,304,42660,1,0
256,248,42930,1,0
256,248,43065,1,8
344,304,43335,1,0
256,248,43605,1,8
352,208,43876,6,0,B|352:152|296:128,1,100,0|8
212,129,44416,2,0,B|160:152|160:208,1,100,0|8
256,248,44957,1,0
344,304,45227,1,8
256,352,45497,1,0
168,304,45768,1,8
88,360,46038,6,0,B|32:264,1,100,0|8
120,216,46578,2,0,B|170:302,1,100,0|8
256,248,47119,2,0,B|200:152,2,100,0|8|0
304,336,47930,1,8
400,312,48200,6,0,B|450:340|501:300,1,100,0|8
445,221,48741,2,0,B|501:205|509:141,1,100,0|8
405,136,49281,2,0,B|433:85|393:34,2,100,0|8|0
256,192,50092,12,0,51984
384,160,52524,6,0,B|336:192|288:160,1,100,4|8
256,128,52930,2,0,B|184:79|111:128,1,150,0|8
136,224,53605,2,0,B|184:192|232:224,1,100,0|8
264,256,54011,2,0,B|336:304|408:256,1,150,0|8
496,208,54687,5,0
480,304,54957,1,8
392,360,55227,1,0
296,368,55497,1,8
96,360,56038,1,8
8,312,56308,1,0
96,264,56578,1,8
176,200,56849,6,0,B|208:152|176:104,1,100,0|8
132,84,57255,2,0,B|204:133|277:84,1,150,0|8
368,56,57930,2,0,B|336:104|368:152,1,100,0|8
412,172,58336,2,0,B|340:123|267:172,1,150,0|8
336,248,59011,5,0
304,344,59281,1,8
208,344,59551,1,0
176,248,59822,1,8
304,176,60227,5,2
304,176,60362,1,0
256,88,60633,1,2
208,176,60903,1,0
208,176,61038,1,2
208,176,61173,6,0,B|196:232|140:243,1,100,4|8
96,240,61578,2,0,B|112:325|198:342,1,150,0|8
248,256,62254,2,0,B|312:248|336:200,1,100,0|8
384,296,62795,2,0,B|448:304|472:352,1,100,0|8
384,296,63335,5,0
456,224,63605,1,8
480,128,63876,1,0
472,32,64146,1,8
256,40,64687,1,8
304,128,64957,1,0
208,128,65227,1,8
256,216,65497,6,0,B|200:228|189:284,1,100,0|8
184,336,65903,2,0,B|99:320|82:234,1,150,0|8
256,216,66578,2,0,B|312:228|323:284,1,100,0|8
328,336,66984,2,0,B|413:320|430:234,1,150,0|8
376,152,67660,5,0
304,80,67930,1,8
208,80,68200,1,0
136,152,68470,1,8
272,216,68876,1,0
272,216,69011,1,8
256,120,69281,1,0
232,48,69461,6,0,B|200:16,1,33.3333333333333,0|8
168,80,69732,2,0,B|128:64,1,33.3333333333333,0|8
112,168,70092,1,8
112,168,70227,1,0
143,284,70542,6,0,B|131:328,1,33.3333333333333,0|8
203,324,70813,2,0,B|209:366,1,33.3333333333333,0|8
307,328,71173,1,8
307,328,71308,1,0
392,243,71623,6,0,B|436:231,1,33.3333333333333,0|8
396,171,71894,2,0,B|430:145,1,33.3333333333333,0|8
348,79,72254,1,8
348,79,72389,1,0
192,144,72795,5,8
281,116,73065,1,0
335,193,73335,1,8
279,268,73605,1,0
190,238,73876,1,8
256,192,74146,12,4,76308
200,64,77389,5,0
312,64,77660,1,2
256,144,77930,1,8
288,240,78200,2,0,B|256:248|216:240,1,66.6666666666667,2|2
192,232,78470,5,4
120,160,78741,1,8
48,232,79011,1,0
120,304,79281,1,8
192,232,79551,5,2
256,152,79822,1,8
320,232,80092,1,0
256,304,80362,1,8
352,328,80633,6,0,B|400:360|448:328,1,100,2|8
400,240,81173,2,0,B|456:228|467:172,1,100,0|8
432,136,81578,2,0,B|464:88|432:40,2,100,2|8|8
468,175,82254,1,0
368,88,82524,6,0,B|319:63|271:87,1,100,8|4
144,160,83065,2,0,B|192:184|240:160,1,100,10|0
192,72,83605,5,8
88,72,83876,1,2
40,160,84146,1,8
88,248,84416,1,0
184,256,84687,1,8
152,160,84957,6,0,B|104:184|88:240,1,100,2|8
192,240,85497,2,0,B|240:216|256:160,1,100,0|8
280,120,85903,2,0,B|168:120,2,100,2|8|8
328,120,86578,1,0
280,208,86849,6,0,B|329:233|377:209,1,100,8|4
512,280,87390,2,0,B|464:256|416:280,1,100,10|0
464,368,87930,5,8
368,360,88200,1,2
272,336,88470,1,8
176,296,88741,1,0
88,248,89011,1,8
16,184,89281,6,0,B|-16:136|8:72,1,100,2|8
96,136,89822,2,0,B|82:79|126:28,1,100,0|8
192,112,90362,2,0,B|198:54|257:22,1,100,2|8
288,120,90903,2,0,B|313:68|380:57,2,100,0|8|2
256,216,91714,1,8
336,168,91984,5,0
416,232,92254,1,8
496,296,92524,2,0,B|457:332|403:339,1,100,2|8
336,272,93065,1,0
256,216,93335,1,8
176,272,93605,1,2
104,338,93876,2,0,B|54:332|16:296,1,100,8|0
96,232,94416,1,8
176,168,94687,5,2
256,104,94957,1,8
336,168,95227,1,10
256,232,95497,2,0,B|281:252|321:262,1,66.6666666666667,0|8
344,272,95768,5,4
416,344,96039,1,8
486,273,96309,1,0
416,200,96579,1,8
480,120,96849,5,2
416,48,97119,1,8
320,24,97389,1,0
224,32,97660,1,8
128,72,97930,6,0,B|112:136|160:176,1,100,2|8
64,224,98470,2,0,B|96:280|176:280,1,100,0|8
192,288,98876,2,0,B|256:272|296:320,2,100,2|8|8
143,276,99551,1,0
152,176,99822,6,0,B|168:123|219:106,1,100,8|4
361,68,100363,2,0,B|344:118|293:135,1,100,10|0
264,40,100903,5,8
200,120,101173,1,2
256,208,101443,1,8
312,296,101714,1,0
248,376,101984,1,8
216,280,102254,6,0,B|264:264|312:296,1,100,2|8
360,208,102795,2,0,B|405:230|416:287,1,100,0|8
416,336,103200,2,0,B|464:352|512:320,2,100,2|8|8
416,288,103876,1,0
360,208,104146,6,0,B|307:191|290:140,1,100,8|4
145,94,104687,2,0,B|195:110|212:161,1,100,10|0
120,192,105227,5,8
160,280,105497,1,2
256,320,105768,1,8
352,280,106038,1,0
392,192,106308,1,8
488,168,106578,6,0,B|472:112|416:96,1,100,2|8
384,8,107119,2,0,B|370:57|314:73,1,100,0|8
304,176,107660,2,0,B|256:152|208:176,1,100,2|8
197,73,108200,2,0,B|141:57|128:8,1,100,0|8
89,98,108741,2,0,B|40:112|24:168,1,100,2|8
120,200,109281,5,0
80,288,109551,1,8
168,344,109822,1,2
256,304,110092,1,8
344,344,110362,1,0
432,288,110633,2,8,B|440:224|392:200|344:176|360:104,1,200
456,128,111443,5,2
424,32,111714,1,8
424,32,111849,1,2
360,112,112119,1,0
360,112,112254,1,10
272,72,112524,2,0,B|224:136,3,50,0|2|0|2
208,152,113065,1,4
