osu file format v5

[General]
AudioFilename: Dia.mp3
AudioLeadIn: 0
PreviewTime: -1
Countdown: 1
SampleSet: Normal
StackLeniency: 1
Mode: 0
LetterboxInBreaks: 1

[Metadata]
Title:Dia
Artist:Jumbo
Creator:txrocker92
Version:Normal
Source:
Tags:Jumbo,Rush,Dia

[Difficulty]
HPDrainRate:5
CircleSize:6
OverallDifficulty:3
SliderMultiplier:1.5
SliderTickRate:1

[Events]
//Background and Video events
0,0,"CCC.jpg"
//Break Periods
//Storyboard Layer 0 (Background)
//Storyboard Layer 1 (Failing)
//Storyboard Layer 2 (Passing)
//Storyboard Layer 3 (Foreground)
//Storyboard Sound Samples
//Background Colour Transformations
3,100,163,162,255

[TimingPoints]
58801.9018404908,368.098159509202,4,1,0,0,1

[Colours]
Combo1 : 49,196,67
Combo2 : 255,255,255
Combo3 : 0,0,0
Combo4 : 240,5,5

[HitObjects]
43,44,17303,1,0
120,72,18024,2,0,B|367:70,1,180
279,80,20187,1,0
129,160,20908,1,0
374,194,21629,1,0
168,125,23071,6,0,B|351:244,1,180
246,93,25234,1,0
163,237,25955,1,0
379,208,26676,1,0
150,156,27397,5,0
296,81,28118,1,0
120,159,29560,6,0,B|388:60,2,180
273,101,33771,1,0
275,214,34139,1,0
236,295,34507,1,0
137,284,34875,1,0
144,101,35328,6,0,B|412:228,3,180
172,241,38212,1,0
289,212,38933,1,0
277,169,39654,5,0
75,210,40375,1,0
213,185,41817,1,0
330,124,42538,1,0
224,87,43259,1,0
198,224,43980,5,0
289,131,44701,1,0
159,92,45422,5,0
176,202,46143,1,0
58,227,46864,1,0
169,216,48306,2,0,B|297:75,1,180
204,122,49748,1,0
296,208,50469,1,0
278,119,51190,1,0
118,120,52632,6,0,B|340:257,1,180
159,172,54074,1,0
292,168,54795,1,0
156,252,59121,1,0
186,125,59842,1,0
317,177,60563,1,0
154,244,62726,6,0,B|370:115,1,150
271,92,63219,2,0,B|58:203,1,150
184,203,65610,1,0
332,207,66331,1,0
106,200,67773,2,0,B|361:81,2,150
242,212,70657,6,0,B,1,0
228,107,73541,1,0
413,219,74262,1,0
162,280,74983,1,0
316,179,75704,1,0
358,96,77146,6,0,B|107:224,1,150
199,107,79309,1,0
348,220,80030,1,0
96,215,82193,2,0,B|399:94,3,300
124,66,85077,1,0
147,229,85797,1,0
228,108,86518,5,0
300,173,87239,1,0
88,236,87960,2,0,B|288:76,1,150
106,200,91565,1,0
244,165,92286,1,0
274,246,93007,5,0
244,165,93728,1,0
205,221,103101,6,0,B|420:68,1,150
258,80,106706,1,0
400,221,108148,1,0
250,212,108869,1,0
256,192,111032,12,0,112474
177,212,113916,5,0
290,130,114637,1,0
128,152,115358,1,0
290,130,116079,1,0
236,231,116800,1,0
210,120,117521,5,0
338,174,118242,1,0
140,247,118963,1,0
315,160,119684,1,0
250,153,120405,1,0
211,218,121126,1,0
344,192,121847,1,0
168,84,122568,1,0
291,164,123289,5,0
173,186,124010,1,0
199,56,124731,5,0
307,203,125452,5,0
159,178,126173,5,0
167,64,126894,1,0
230,187,127615,5,0
327,120,128336,5,0
327,120,129057,1,0
211,148,129778,1,0
211,148,130499,5,0
211,148,131220,1,0
211,148,131941,1,0
211,148,132662,1,0
360,112,133383,5,0
248,162,134104,5,0
139,118,134825,5,0
265,84,135546,5,0
265,84,136267,1,0
248,196,136988,1,0
155,133,137709,1,0
358,120,138430,1,0
249,216,139151,1,0
117,243,139872,6,0,B|339:72,1,150
228,170,142756,1,0
256,192,144198,12,0,152129
