osu file format v13

[General]
AudioFilename: Somewhere (Cut Ver.).mp3
AudioLeadIn: 1500
PreviewTime: 14792
Countdown: 0
SampleSet: Soft
StackLeniency: 0.7
Mode: 0
LetterboxInBreaks: 0
WidescreenStoryboard: 0

[Editor]
DistanceSpacing: 1.4
BeatDivisor: 4
GridSize: 4
TimelineZoom: 1

[Metadata]
Title:Somewhere
TitleUnicode:Somewhere
Artist:July
ArtistUnicode:줄라이
Creator:Mako Sakata
Version:Normal
Source:
Tags:Piano Hip hop In Love
BeatmapID:549686
BeatmapSetID:237507

[Difficulty]
HPDrainRate:4
CircleSize:3
OverallDifficulty:4
ApproachRate:5
SliderMultiplier:1.6
SliderTickRate:1

[Events]
//Background and Video events
0,0,"bgsomewhere.jpg",0,0
//Break Periods
//Storyboard Layer 0 (Background)
//Storyboard Layer 1 (Fail)
//Storyboard Layer 2 (Pass)
//Storyboard Layer 3 (Foreground)
//Storyboard Sound Samples

[TimingPoints]
1820,810.810810810811,4,2,1,30,1,0
12360,-100,4,2,1,15,0,0
13171,-100,4,2,1,30,0,0
13779,-100,4,2,1,15,0,0
14184,-100,4,2,1,30,0,0
14792,-100,4,2,1,15,0,0
15350,681.818181818182,4,2,1,40,1,8
15690,681.818181818182,4,2,1,40,1,0
59326,-100,4,2,1,50,0,1
81144,-100,4,2,1,15,0,0

[Colours]
Combo1 : 187,103,229
Combo2 : 255,213,128
Combo3 : 242,121,97
Combo4 : 255,140,179

[HitObjects]
60,188,1009,6,0,P|98:176|138:180,1,80,2|0,0:0|0:0,0:0:0:0:
256,200,1820,6,0,P|332:208|444:180,1,160,2|2,0:0|0:0,0:0:0:0:
512,124,3036,1,0,0:0:0:0:
408,64,3441,2,0,P|328:56|250:71,1,160,2|2,0:0|0:0,0:0:0:0:
136,108,4657,1,0,0:0:0:0:
22,68,5063,6,0,P|13:145|64:205,1,160,2|2,0:0|0:0,0:0:0:0:
118,232,6076,2,0,L|112:288,1,40,0|2,0:0|0:0,0:0:0:0:
196,360,6684,2,0,P|272:368|384:340,1,160,2|2,0:0|0:0,0:0:0:0:
460,296,7901,1,0,0:0:0:0:
460,176,8306,6,0,B|441:137|457:101|457:101|474:60|459:18,1,160,2|2,0:0|0:0,0:0:0:0:
344,56,9522,1,0,0:0:0:0:
224,48,9928,2,0,B|185:66|149:50|149:50|108:33|66:48,1,160,2|2,0:0|0:0,0:0:0:0:
28,92,10941,2,0,L|40:164,1,40,0|2,0:0|0:0,0:0:0:0:
100,232,11549,6,0,P|178:217|257:225,1,160,2|0,0:0|0:0,0:0:0:0:
484,304,13171,2,0,P|364:220|448:104,1,320,2|0,0:0|0:0,0:0:0:0:
268,32,15350,6,0,L|212:40,1,40,2|0,0:0|0:0,0:0:0:0:
172,44,15690,6,0,P|188:128|172:200,1,160,2|10,0:0|0:0,0:0:0:0:
132,304,16712,2,0,P|172:312|212:304,1,80,0|2,0:0|0:0,0:0:0:0:
320,280,17394,2,0,P|360:272|400:280,1,80,0|10,0:0|0:0,0:0:0:0:
504,320,18076,1,0,0:0:0:0:
500,208,18417,6,0,B|484:168|500:128|500:128|516:88|500:52,1,160,2|10,0:0|0:0,0:0:0:0:
392,84,19440,2,0,L|300:96,1,80,0|2,0:0|0:0,0:0:0:0:
240,180,20121,2,0,L|148:168,1,80,0|10,0:0|0:0,0:0:0:0:
76,96,20803,1,0,0:0:0:0:
76,96,21144,6,0,P|52:172|80:248,1,160,2|10,0:0|0:0,0:0:0:0:
184,284,22167,2,0,P|191:244|183:205,1,80,0|2,0:0|0:0,0:0:0:0:
268,132,22849,2,0,L|347:122,1,80,0|10,0:0|0:0,0:0:0:0:
456,148,23530,2,0,L|464:204,1,40,2|0,0:0|0:0,0:0:0:0:
440,240,23871,6,0,L|264:264,1,160,2|10,0:0|0:0,0:0:0:0:
208,348,24894,2,0,P|181:317|168:278,1,80,0|2,0:0|0:0,0:0:0:0:
56,260,25576,2,0,P|69:221|96:190,1,80,0|10,0:0|0:0,0:0:0:0:
204,168,26258,2,0,L|248:168,1,40,2|0,0:0|0:0,0:0:0:0:
300,168,26599,6,0,P|284:84|300:12,1,160,2|10,0:0|0:0,0:0:0:0:
408,40,27621,1,0,0:0:0:0:
472,132,27962,2,0,P|480:172|472:212,1,80,2|0,0:0|0:0,0:0:0:0:
400,296,28644,2,0,P|392:336|400:376,1,80,10|0,0:0|0:0,0:0:0:0:
288,360,29326,6,0,L|192:352,1,80,2|2,0:0|0:0,0:0:0:0:
152,348,29837,2,0,P|164:288|152:228,1,120,2|2,0:0|0:0,0:0:0:0:
100,132,30690,2,0,P|92:92|100:53,1,80,2|2,0:0|0:0,0:0:0:0:
148,24,31201,2,0,L|252:32,1,80,2|2,0:0|0:0,0:0:0:0:
276,60,31712,2,0,L|380:52,1,80,2|2,0:0|0:0,0:0:0:0:
464,24,32394,5,0,0:0:0:0:
464,24,32735,2,0,B|480:60|464:100|464:100|448:140|464:180,1,160,10|2,0:0|0:0,0:0:0:0:
504,284,33758,2,0,P|464:292|424:284,1,80,0|10,0:0|0:0,0:0:0:0:
316,260,34440,2,0,L|308:308,1,40,2|0,0:0|0:0,0:0:0:0:
276,344,34780,6,0,L|100:320,1,160,2|10,0:0|0:0,0:0:0:0:
96,212,35803,2,0,L|175:222,1,80,0|2,0:0|0:0,0:0:0:0:
288,204,36485,2,0,P|275:165|248:134,1,80,0|10,0:0|0:0,0:0:0:0:
148,88,37167,2,0,L|156:32,1,40,2|0,0:0|0:0,0:0:0:0:
208,32,37508,6,0,P|292:48|364:32,1,160,2|10,0:0|0:0,0:0:0:0:
468,72,38530,2,0,L|456:164,1,80,0|2,0:0|0:0,0:0:0:0:
352,188,39212,2,0,L|364:280,1,80,0|10,0:0|0:0,0:0:0:0:
474,282,39894,1,0,0:0:0:0:
400,366,40235,6,0,B|364:382|324:366|324:366|284:350|244:366,1,160,2|10,0:0|0:0,0:0:0:0:
132,356,41258,1,0,0:0:0:0:
196,264,41599,2,0,P|204:224|196:184,1,80,2|0,0:0|0:0,0:0:0:0:
108,116,42280,2,0,L|29:106,1,80,10|0,0:0|0:0,0:0:0:0:
96,16,42962,6,0,L|254:37,1,160,2|10,0:0|0:0,0:0:0:0:
364,12,43985,1,0,0:0:0:0:
464,64,44326,1,2,0:0:0:0:
368,124,44667,1,0,0:0:0:0:
468,176,45008,1,10,0:0:0:0:
372,236,45349,2,0,L|363:298,1,40,2|0,0:0|0:0,0:0:0:0:
335,322,45690,6,0,P|259:338|179:322,1,160,2|10,0:0|0:0,0:0:0:0:
75,362,46712,2,0,P|67:321|75:281,1,80,0|2,0:0|0:0,0:0:0:0:
111,178,47394,2,0,P|118:137|110:97,1,80,0|10,0:0|0:0,0:0:0:0:
204,36,48076,2,0,L|260:44,1,40,2|0,0:0|0:0,0:0:0:0:
300,48,48417,6,0,P|284:132|300:204,1,160,2|10,0:0|0:0,0:0:0:0:
304,316,49440,2,0,P|262:309|227:288,1,80,0|2,0:0|0:0,0:0:0:0:
120,316,50121,2,0,P|116:274|128:235,1,80,0|10,0:0|0:0,0:0:0:0:
68,140,50803,1,0,0:0:0:0:
68,140,51144,6,0,P|106:125|147:125,1,80,2|2,0:0|0:0,0:0:0:0:
200,132,51655,2,0,P|260:138|319:121,1,120,2|2,0:0|0:0,0:0:0:0:
396,44,52508,2,0,P|420:76|427:116,1,80,2|2,0:0|0:0,0:0:0:0:
426,169,53019,2,0,P|436:207|465:238,1,80,2|2,0:0|0:0,0:0:0:0:
476,292,53530,2,0,L|400:329,1,80,2|2,0:0|0:0,0:0:0:0:
292,320,54212,5,0,0:0:0:0:
184,356,54553,2,0,B|169:316|186:275|186:275|202:239|183:200,1,160,10|2,0:0|0:0,0:0:0:0:
72,184,55576,2,0,P|85:145|112:114,1,80,0|10,0:0|0:0,0:0:0:0:
200,48,56258,2,0,L|244:48,1,40,2|0,0:0|0:0,0:0:0:0:
296,48,56599,6,0,P|280:128|296:204,1,160,2|0,0:0|0:0,0:0:0:0:
360,296,57621,1,0,0:0:0:0:
360,296,58303,1,0,0:0:0:0:
464,256,58644,1,10,0:0:0:0:
376,188,58985,1,2,0:0:0:0:
376,188,59155,1,0,0:0:0:0:
376,188,59326,6,0,L|200:164,1,160,6|10,0:0|0:0,0:0:0:0:
112,128,60349,2,0,P|126:88|125:48,1,80,0|2,0:0|0:0,0:0:0:0:
236,52,61030,2,0,L|328:64,1,80,0|10,0:0|0:0,0:0:0:0:
428,60,61712,1,0,0:0:0:0:
492,152,62053,6,0,P|476:236|492:308,1,160,2|10,0:0|0:0,0:0:0:0:
400,372,63076,1,0,0:0:0:0:
308,308,63417,2,0,L|294:229,1,80,2|2,0:0|0:0,0:0:0:0:
240,243,63928,2,0,P|203:259|164:258,1,80,2|2,0:0|0:0,0:0:0:0:
111,243,64439,2,0,P|71:238|34:252,1,80,2|2,0:0|0:0,0:0:0:0:
76,148,65121,5,0,0:0:0:0:
76,148,65462,2,0,L|89:69,1,80,10|0,0:0|0:0,0:0:0:0:
200,52,66144,2,0,L|186:130,1,80,2|0,0:0|0:0,0:0:0:0:
296,108,66826,2,0,L|309:29,1,80,10|0,0:0|0:0,0:0:0:0:
420,12,67508,6,0,L|396:188,1,160,2|10,0:0|0:0,0:0:0:0:
460,264,68530,1,0,0:0:0:0:
348,271,68871,2,0,P|284:227|207:242,1,160,2|10,0:0|0:0,0:0:0:0:
263,339,69894,1,2,0:0:0:0:
263,339,70065,1,0,0:0:0:0:
263,339,70235,6,0,P|186:353|122:309,1,160,2|10,0:0|0:0,0:0:0:0:
10,298,71258,2,0,P|20:256|44:223,1,80,0|2,0:0|0:0,0:0:0:0:
26,114,71939,2,0,P|68:113|105:129,1,80,0|10,0:0|0:0,0:0:0:0:
200,183,72621,1,0,0:0:0:0:
200,183,72962,6,0,P|278:205|355:196,1,160,2|10,0:0|0:0,0:0:0:0:
460,156,73985,2,0,P|467:196|460:235,1,80,0|2,0:0|0:0,0:0:0:0:
355,196,74667,2,0,P|348:157|356:115,1,80,0|10,0:0|0:0,0:0:0:0:
404,16,75349,1,0,0:0:0:0:
292,24,75690,6,0,L|116:48,1,160,2|10,0:0|0:0,0:0:0:0:
61,131,76712,2,0,P|75:170|74:210,1,80,0|2,0:0|0:0,0:0:0:0:
185,227,77394,2,0,L|277:215,1,80,0|10,0:0|0:0,0:0:0:0:
377,219,78076,1,0,0:0:0:0:
313,311,78417,6,0,L|137:335,1,160,2|10,0:0|0:0,0:0:0:0:
256,192,79780,12,4,81144,0:0:0:0:
