osu file format v14

[General]
AudioFilename: July - Silent.mp3
AudioLeadIn: 0
PreviewTime: 27276
Countdown: 0
SampleSet: Soft
StackLeniency: 0.7
Mode: 0
LetterboxInBreaks: 0
WidescreenStoryboard: 0

[Editor]
DistanceSpacing: 1.6
BeatDivisor: 6
GridSize: 4
TimelineZoom: 2.4

[Metadata]
Title:Silent
TitleUnicode:Silent
Artist:July
ArtistUnicode:줄라이
Creator:Lethargy
Version:Hard
Source:
Tags:chill silent piano Pjecoo Geronimaa Mortem
BeatmapID:718497
BeatmapSetID:323222

[Difficulty]
HPDrainRate:5
CircleSize:4
OverallDifficulty:5
ApproachRate:7
SliderMultiplier:1.6
SliderTickRate:1

[Events]
//Background and Video events
0,0,"winter-sunrise-glow-1280x720.jpg",0,0
//Break Periods
//Storyboard Layer 0 (Background)
//Storyboard Layer 1 (Fail)
//Storyboard Layer 2 (Pass)
//Storyboard Layer 3 (Foreground)
//Storyboard Sound Samples

[TimingPoints]
1078,821.917808219178,4,2,1,20,1,0
26557,-100,4,2,2,20,0,0
27364,769.230769230769,4,2,2,30,1,0
27364,-83.3333333333333,4,2,2,30,0,0

[Colours]
Combo1 : 154,50,50
Combo2 : 214,214,214
Combo3 : 253,105,94
Combo4 : 255,204,51

[HitObjects]
92,182,1078,5,2,0:0:0:0:
366,96,2310,1,0,0:0:0:0:
321,181,2721,1,0,0:0:0:0:
321,181,4365,5,2,0:0:0:0:
46,269,5598,1,0,0:0:0:0:
97,188,6009,1,0,0:0:0:0:
261,89,6831,1,2,0:0:0:0:
261,89,7653,5,2,0:0:0:0:
95,324,8886,1,0,0:0:0:0:
139,239,9297,2,0,P|196:214|257:238,1,120
364,315,10530,1,0,0:0:0:0:
395,224,10941,5,2,0:0:0:0:
140,89,12173,1,0,0:0:0:0:
190,170,12584,1,0,0:0:0:0:
190,170,14228,5,2,0:0:0:0:
469,241,15461,1,0,0:0:0:0:
445,147,15872,1,0,0:0:0:0:
260,98,16694,1,2,0:0:0:0:
260,98,17516,5,2,0:0:0:0:
103,339,18749,1,0,0:0:0:0:
77,246,19160,1,0,0:0:0:0:
77,246,20804,5,2,0:0:0:0:
322,96,22036,1,0,0:0:0:0:
322,96,22447,2,0,B|332:146|332:146|325:217,1,120,0|0,0:0|0:0,0:0:0:0:
275,349,23680,1,0,0:0:0:0:
275,349,24091,5,2,0:0:0:0:
130,100,25324,1,0,0:0:0:0:
98,190,25735,1,0,0:0:0:0:
382,81,26557,5,8,0:0:0:0:
286,121,26968,1,0,0:0:0:0:
278,140,27105,1,0,0:0:0:0:
271,160,27242,1,8,0:0:0:0:
265,178,27364,6,0,P|220:206|202:267,1,95.9999970703126,2|0,0:0|0:0,0:0:0:0:
108,282,28005,1,2,0:0:0:0:
108,282,28133,2,0,L|96:165,1,95.9999970703126,8|0,0:0|0:0,0:0:0:0:
69,88,28774,2,0,L|17:106,1,31.9999990234375,8|2,0:0|0:0,0:0:0:0:
192,103,29287,1,6,0:0:0:0:
303,73,29671,2,0,P|315:142|301:184,1,95.9999970703126,8|0,0:0|0:0,0:0:0:0:
254,252,30312,5,8,0:0:0:0:
254,252,30440,2,0,L|340:276,1,63.9999980468751,2|0,0:0|0:0,0:0:0:0:
340,276,30825,1,0,0:0:0:0:
415,218,31081,1,2,0:0:0:0:
415,218,31210,2,0,P|413:165|443:109,1,95.9999970703126,8|0,0:0|0:0,0:0:0:0:
309,78,31851,1,8,0:0:0:0:
309,78,31979,2,0,L|317:163,1,63.9999980468751,2|8,0:0|0:0,0:0:0:0:
313,167,32364,1,6,0:0:0:0:
158,156,32748,2,0,P|197:200|192:256,1,95.9999970703126,8|0,0:0|0:0,0:0:0:0:
189,258,33261,1,0,0:0:0:0:
174,279,33389,1,8,0:0:0:0:
157,298,33517,6,0,L|269:318,1,95.9999970703126,2|0,0:0|0:0,0:0:0:0:
352,297,34158,1,2,0:0:0:0:
352,297,34287,2,0,P|351:251|382:200,1,95.9999970703126,8|0,0:0|0:0,0:0:0:0:
435,125,34928,2,0,L|491:114,1,31.9999990234375,8|2,0:0|0:0,0:0:0:0:
313,103,35440,1,6,0:0:0:0:
198,117,35825,2,0,P|209:170|181:226,1,95.9999970703126,8|0,0:0|0:0,0:0:0:0:
131,261,36466,5,8,0:0:0:0:
131,261,36594,2,0,L|143:348,1,63.9999980468751,2|0,0:0|0:0,0:0:0:0:
158,358,36979,1,0,0:0:0:0:
233,286,37235,1,2,0:0:0:0:
233,286,37364,2,0,P|279:263|348:283,1,95.9999970703126,8|0,0:0|0:0,0:0:0:0:
409,214,38005,1,8,0:0:0:0:
409,214,38133,2,0,L|404:121,1,63.9999980468751,2|8,0:0|0:0,0:0:0:0:
424,102,38517,2,0,P|372:110|314:75,1,95.9999970703126,6|8,0:0|0:0,0:0:0:0:
186,106,39287,1,0,0:0:0:0:
165,121,39415,1,0,0:0:0:0:
149,141,39543,1,8,0:0:0:0:
141,165,39671,6,0,P|155:202|144:266,1,95.9999970703126,2|0,0:0|0:0,0:0:0:0:
91,308,40312,1,2,0:0:0:0:
91,308,40440,2,0,P|133:332|199:311,1,95.9999970703126,8|0,0:0|0:0,0:0:0:0:
273,286,41081,2,0,L|330:297,1,31.9999990234375,8|2,0:0|0:0,0:0:0:0:
218,163,41594,1,6,0:0:0:0:
314,89,41979,2,0,P|306:133|341:182,1,95.9999970703126,8|0,0:0|0:0,0:0:0:0:
428,237,42620,5,8,0:0:0:0:
428,237,42748,2,0,L|418:325,1,63.9999980468751,2|0,0:0|0:0,0:0:0:0:
410,324,43133,1,0,0:0:0:0:
308,311,43389,1,2,0:0:0:0:
308,311,43517,2,0,P|280:268|228:251,1,95.9999970703126,8|0,0:0|0:0,0:0:0:0:
265,156,44158,1,8,0:0:0:0:
265,156,44287,2,0,L|282:79,1,63.9999980468751,2|8,0:0|0:0,0:0:0:0:
294,58,44671,2,0,P|342:52|401:96,1,95.9999970703126,6|8,0:0|0:0,0:0:0:0:
402,197,45440,1,0,0:0:0:0:
392,220,45569,1,0,0:0:0:0:
383,244,45697,1,8,0:0:0:0:
373,267,45825,6,0,P|332:297|271:296,1,95.9999970703126,2|0,0:0|0:0,0:0:0:0:
255,231,46466,1,2,0:0:0:0:
255,231,46594,2,0,P|174:206|157:213,1,95.9999970703126,8|0,0:0|0:0,0:0:0:0:
70,241,47235,2,0,L|62:288,1,31.9999990234375,8|0,0:0|0:0,0:0:0:0:
54,131,47748,1,6,0:0:0:0:
135,53,48133,2,0,P|152:97|222:118,1,95.9999970703126,8|0,0:0|0:0,0:0:0:0:
293,132,48774,5,8,0:0:0:0:
293,132,48902,2,0,L|292:220,1,63.9999980468751,2|0,0:0|0:0,0:0:0:0:
285,233,49287,1,0,0:0:0:0:
394,269,49543,1,2,0:0:0:0:
394,269,49671,2,0,P|381:220|396:172,1,95.9999970703126,8|0,0:0|0:0,0:0:0:0:
440,67,50312,1,8,0:0:0:0:
440,67,50440,2,0,B|348:52,1,63.9999980468751,2|8,0:0|0:0,0:0:0:0:
340,45,50825,2,0,P|321:101|269:125,1,95.9999970703126,6|8,0:0|0:0,0:0:0:0:
182,155,51594,1,0,0:0:0:0:
170,178,51722,1,0,0:0:0:0:
159,201,51851,1,8,0:0:0:0:
148,224,51979,6,0,P|136:274|152:320,1,95.9999970703126,2|0,0:0|0:0,0:0:0:0:
52,252,52620,1,2,0:0:0:0:
52,252,52748,2,0,L|43:150,1,95.9999970703126,8|0,0:0|0:0,0:0:0:0:
77,59,53389,2,0,L|29:49,1,31.9999990234375,8|2,0:0|0:0,0:0:0:0:
192,96,53902,1,6,0:0:0:0:
177,210,54287,2,0,P|223:230|255:287,1,95.9999970703126,8|0,0:0|0:0,0:0:0:0:
363,249,54928,5,8,0:0:0:0:
363,249,55056,2,0,L|374:161,1,63.9999980468751,2|0,0:0|0:0,0:0:0:0:
369,160,55440,1,0,0:0:0:0:
322,62,55697,1,2,0:0:0:0:
322,62,55825,2,0,P|271:58|222:82,1,95.9999970703126,8|0,0:0|0:0,0:0:0:0:
150,160,56466,1,8,0:0:0:0:
150,160,56594,2,0,L|166:243,1,63.9999980468751,2|8,0:0|0:0,0:0:0:0:
158,261,56979,2,0,P|213:251|266:278,1,95.9999970703126,6|8,0:0|0:0,0:0:0:0:
368,275,57748,1,0,0:0:0:0:
377,251,57876,1,0,0:0:0:0:
387,227,58005,1,8,0:0:0:0:
397,203,58133,6,0,P|405:150|377:105,1,95.9999970703126,2|0,0:0|0:0,0:0:0:0:
271,103,58774,1,2,0:0:0:0:
271,103,58902,2,0,L|260:227,1,95.9999970703126,8|0,0:0|0:0,0:0:0:0:
240,311,59543,2,0,L|273:361,1,31.9999990234375,8|2,0:0|0:0,0:0:0:0:
160,238,60056,1,6,0:0:0:0:
110,92,60440,2,0,P|91:148|58:170,1,95.9999970703126,8|0,0:0|0:0,0:0:0:0:
194,141,61081,5,8,0:0:0:0:
194,141,61210,2,0,L|270:135,1,63.9999980468751,2|0,0:0|0:0,0:0:0:0:
281,126,61594,1,0,0:0:0:0:
361,46,61851,1,2,0:0:0:0:
361,46,61979,2,0,P|388:86|386:158,1,95.9999970703126,8|0,0:0|0:0,0:0:0:0:
363,242,62620,1,8,0:0:0:0:
363,242,62748,2,0,L|376:311,1,63.9999980468751,2|8,0:0|0:0,0:0:0:0:
358,339,63133,2,0,P|311:321|263:334,1,95.9999970703126,6|8,0:0|0:0,0:0:0:0:
161,282,63902,1,0,0:0:0:0:
149,259,64030,1,0,0:0:0:0:
144,233,64158,1,8,0:0:0:0:
145,207,64287,6,0,P|180:171|177:101,1,95.9999970703126,2|0,0:0|0:0,0:0:0:0:
288,65,64928,1,2,0:0:0:0:
288,65,65056,2,0,L|303:186,1,95.9999970703126,8|0,0:0|0:0,0:0:0:0:
343,253,65697,2,0,L|381:257,1,31.9999990234375,8|2,0:0|0:0,0:0:0:0:
481,212,66210,1,6,0:0:0:0:
335,337,66594,2,0,P|287:317|222:343,1,95.9999970703126,8|0,0:0|0:0,0:0:0:0:
129,345,67235,5,8,0:0:0:0:
129,345,67364,2,0,L|132:253,1,63.9999980468751,2|0,0:0|0:0,0:0:0:0:
129,255,67748,1,0,0:0:0:0:
162,144,68005,1,2,0:0:0:0:
162,144,68133,2,0,P|205:159|279:136,1,95.9999970703126,8|0,0:0|0:0,0:0:0:0:
359,204,68774,1,8,0:0:0:0:
359,204,68902,2,0,L|443:212,1,63.9999980468751,2|8,0:0|0:0,0:0:0:0:
459,222,69287,2,0,P|456:170|479:116,1,95.9999970703126,6|8,0:0|0:0,0:0:0:0:
437,18,70056,1,0,0:0:0:0:
411,17,70184,1,0,0:0:0:0:
386,24,70312,1,8,0:0:0:0:
363,36,70440,6,0,P|319:68|259:69,1,95.9999970703126,2|0,0:0|0:0,0:0:0:0:
173,127,71081,1,2,0:0:0:0:
173,127,71210,2,0,P|183:169|169:228,1,95.9999970703126,8|0,0:0|0:0,0:0:0:0:
123,310,71851,2,0,L|181:329,1,31.9999990234375,8|2,0:0|0:0,0:0:0:0:
268,315,72364,1,6,0:0:0:0:
257,162,72748,2,0,P|270:112|325:82,1,95.9999970703126,8|0,0:0|0:0,0:0:0:0:
417,104,73389,5,8,0:0:0:0:
417,104,73517,2,0,L|424:195,1,63.9999980468751,2|0,0:0|0:0,0:0:0:0:
420,193,73902,1,0,0:0:0:0:
412,308,74158,1,2,0:0:0:0:
412,308,74287,2,0,P|363:286|302:304,1,95.9999970703126,8|0,0:0|0:0,0:0:0:0:
206,273,74928,1,8,0:0:0:0:
206,273,75056,2,0,L|215:194,1,63.9999980468751,2|8,0:0|0:0,0:0:0:0:
228,174,75440,2,0,P|179:171|137:123,1,95.9999970703126,6|8,0:0|0:0,0:0:0:0:
52,72,76210,1,0,0:0:0:0:
55,97,76338,1,0,0:0:0:0:
57,122,76466,1,8,0:0:0:0:
60,148,76594,5,2,0:0:0:0:
