osu file format v12

[General]
AudioFilename: 02 - In Love.mp3
AudioLeadIn: 0
PreviewTime: 65108
Countdown: 1
SampleSet: Normal
StackLeniency: 1
Mode: 0
LetterboxInBreaks: 1
WidescreenStoryboard: 1

[Editor]
Bookmarks: 98212
DistanceSpacing: 1.5
BeatDivisor: 8
GridSize: 8

[Metadata]
Title:In Love
TitleUnicode:In Love
Artist:July
ArtistUnicode:July
Creator:Estivarus
Version:Insane
Source:
Tags:piano
BeatmapID:360507
BeatmapSetID:145305

[Difficulty]
HPDrainRate:6
CircleSize:4
OverallDifficulty:7
ApproachRate:8
SliderMultiplier:2.79999990463257
SliderTickRate:2

[Events]
//Background and Video events
0,0,"22159-girl-standing-in-the-rain-1920x1200-anime-wallpaper.jpg",0,0
//Break Periods
2,87032,97462
2,153240,161870
2,212424,221714
//Storyboard Layer 0 (Background)
//Storyboard Layer 1 (Fail)
//Storyboard Layer 2 (Pass)
//Storyboard Layer 3 (Foreground)
//Storyboard Sound Samples
//Background Colour Transformations
3,100,163,162,255

[TimingPoints]
975,612.244897959184,4,1,0,50,1,0
20715,697.674418604651,4,2,0,24,1,0
40249,-100,4,3,0,50,0,0
43040,689.655172413793,4,2,0,40,1,0
65108,-83.3333333333333,4,1,0,60,0,1
87177,-100,4,2,0,40,0,0
131315,-83.3333333333333,4,1,0,60,0,1
153390,576.923076923077,4,3,0,35,1,0
171851,-100,4,3,0,45,0,0
181082,-100,4,3,0,50,0,0
188005,588.235294117647,4,2,0,55,1,0
188605,600,4,2,0,60,1,0
188605,-133.333333333333,4,2,0,60,0,0
189205,631.578947368421,4,2,0,50,1,0
189840,652.173913043478,4,2,0,50,1,0
189840,-133.333333333333,4,2,0,50,0,0
190500,689.655172413793,4,2,0,50,1,0
190500,-111.111111111111,4,2,0,50,0,0
190844,-83.3333333333333,4,1,0,45,0,1
212568,618.556701030928,4,1,0,50,1,0
222464,-200,4,2,0,30,0,0

[Colours]
Combo1 : 0,255,0
Combo2 : 5,245,255
Combo3 : 255,255,5
Combo4 : 255,135,15

[HitObjects]
184,272,20715,2,0,P|112:208|96:152,1,139.999995231628
360,72,21412,1,0,0:0:0:0:
422,133,21586,1,0,0:0:0:0:
432,221,21761,2,0,L|360:280,1,69.9999976158142
312,312,22110,1,0,0:0:0:0:
240,224,22459,2,0,L|304:176,1,69.9999976158142
392,104,22982,2,0,P|328:48|312:48,1,69.9999976158142
104,80,23505,5,0,0:0:0:0:
104,80,23854,1,0,0:0:0:0:
120,264,24203,2,0,L|216:328,1,69.9999976158142
264,320,24551,1,0,0:0:0:0:
328,288,24726,1,0,0:0:0:0:
376,232,24901,2,0,P|408:144|376:56,1,139.999995231628
352,32,25424,1,0,0:0:0:0:
104,80,25947,5,0,0:0:0:0:
304,56,26296,1,0,0:0:0:0:
320,264,26645,1,0,0:0:0:0:
128,304,26994,1,0,0:0:0:0:
193,180,27168,1,0,0:0:0:0:
269,296,27342,1,0,0:0:0:0:
128,303,27517,1,0,0:0:0:0:
72,218,27691,2,0,P|56:136|88:48,1,139.999995231628
136,32,28215,1,0,0:0:0:0:
240,264,28738,5,0,0:0:0:0:
392,328,29087,2,0,P|456:264|480:152,1,139.999995231628
312,256,29784,2,0,L|350:197,1,69.9999976158143
296,80,30133,2,0,L|240:160,1,69.9999976158142
208,200,30482,1,0,0:0:0:0:
104,184,30831,2,0,L|160:104,1,69.9999976158142
56,248,31180,1,0,0:0:0:0:
208,32,31528,5,0,0:0:0:0:
336,64,31877,2,0,P|400:184|392:248,1,139.999995231628
320,344,32575,1,0,0:0:0:0:
200,104,32924,2,0,L|120:64,1,69.9999976158142
56,32,33273,1,0,0:0:0:0:
48,200,33621,1,0,0:0:0:0:
0,280,33796,1,0,0:0:0:0:
152,168,34145,2,0,L|64:128,1,69.9999976158143
96,296,34494,2,0,L|176:336,1,69.9999976158142
376,184,35017,6,0,P|320:88|240:64,1,139.999995231628
224,216,35540,2,0,L|288:160,1,69.9999976158143
144,80,35889,2,0,L|72:144,1,69.9999976158142
248,304,36412,2,0,L|312:248,1,69.9999976158143
368,200,36761,1,0,0:0:0:0:
304,104,37110,1,0,0:0:0:0:
304,312,37459,6,0,B|232:296|232:296|176:184,1,139.999995231628
400,120,38156,2,0,L|344:192,2,69.9999976158142
112,240,38680,2,0,L|168:168,1,69.9999976158142
280,152,39203,2,0,L|224:224,1,69.9999976158142
128,152,39552,1,0,0:0:0:0:
400,216,39901,1,0,0:0:0:0:
296,320,40249,1,8,0:0:0:0:
296,320,40598,1,0,0:0:0:0:
312,152,40947,6,0,L|248:224,1,69.9999976158143
96,128,41470,1,8,0:0:0:0:
96,128,41645,1,8,0:0:0:0:
176,40,41994,1,0,0:0:0:0:
368,224,42342,1,0,0:0:0:0:
208,240,42691,1,4,0:0:0:0:
176,88,43040,6,0,L|352:72,1,139.999995231629
312,160,43729,1,8,0:0:0:0:
432,272,43901,1,0,0:0:0:0:
272,320,44073,1,0,0:0:0:0:
312,160,44246,1,0,0:0:0:0:
272,320,44419,2,0,L|176:296|176:296,1,69.9999976158143
192,160,44764,2,0,L|288:184,1,69.9999976158143
256,176,45108,6,0,P|296:72|368:48,1,139.999995231629
424,176,45798,1,0,0:0:0:0:
424,176,46143,1,0,0:0:0:0:
152,56,46488,2,0,L|96:136,1,69.9999976158143
216,256,46833,1,0,0:0:0:0:
216,256,46919,1,0,0:0:0:0:
216,256,47005,2,0,L|272:176,1,69.9999976158143
400,192,47522,6,0,L|480:240,2,69.9999976158143
144,64,48040,1,0,0:0:0:0:
192,184,48212,1,0,0:0:0:0:
352,120,48557,2,0,P|408:224|392:296,1,139.999995231629
240,280,49246,2,0,L|160:360,1,69.9999976158143
64,200,49591,2,0,L|56:104,1,69.9999976158143
48,48,49936,1,0,0:0:0:0:
376,152,50281,6,0,L|368:80,2,69.9999976158143
248,296,50798,1,0,0:0:0:0:
392,264,50971,1,0,0:0:0:0:
104,280,51315,2,0,P|80:200|96:120,1,139.999995231629
216,64,52005,2,0,L|320:8,1,69.9999976158143
432,160,52350,2,0,L|352:200,1,69.9999976158143
296,232,52695,1,0,0:0:0:0:
144,296,53040,6,0,L|56:208,2,69.9999976158143
24,176,53557,1,0,0:0:0:0:
184,136,53729,1,0,0:0:0:0:
344,88,54074,2,0,P|384:176|360:248,1,139.999995231629
136,256,54764,2,0,P|232:280|320:248,1,139.999995231629
376,216,55281,1,0,0:0:0:0:
400,104,55453,2,0,P|296:80|216:128,1,139.999995231629
280,176,55971,1,0,0:0:0:0:
334,304,56143,5,0,0:0:0:0:
463,251,56315,1,0,0:0:0:0:
354,161,56488,1,0,0:0:0:0:
248,264,56660,2,0,L|160:312,1,69.9999976158143
72,176,57177,1,0,0:0:0:0:
239,36,57522,1,0,0:0:0:0:
367,47,57695,1,0,0:0:0:0:
287,143,57867,1,0,0:0:0:0:
288,144,58040,2,0,L|280:264,1,69.9999976158143
112,248,58557,6,0,L|192:312,2,69.9999976158143
72,144,59074,1,0,0:0:0:0:
144,72,59246,2,0,P|208:88|296:64,1,139.999995231629
432,192,59936,2,0,P|368:176|280:200,1,139.999995231629
216,336,60453,1,0,0:0:0:0:
384,248,60626,1,0,0:0:0:0:
384,248,60712,1,0,0:0:0:0:
384,248,60798,2,0,L|440:184|440:184,1,69.9999976158143
358,115,61315,2,0,L|312:168,1,69.9999976158143
256,232,61660,1,0,0:0:0:0:
358,114,62005,5,0,0:0:0:0:
184,104,62350,2,0,L|80:240,1,139.999995231629
360,280,63040,1,0,0:0:0:0:
480,120,63384,1,0,0:0:0:0:
480,120,63471,1,0,0:0:0:0:
480,120,63557,2,0,L|437:175,1,69.9999976158143
336,296,64074,2,0,P|240:312|176:272,1,139.999995231629
88,176,64764,1,4,0:0:0:0:
88,176,65108,6,0,P|136:280|224:312,1,167.999989151001
424,232,65798,2,0,P|408:288|376:320,2,83.9999945755007
432,160,66315,1,0,0:0:0:0:
424,128,66402,1,0,0:0:0:0:
408,96,66488,2,0,P|328:40|240:48,1,167.999989151001
240,200,67005,1,0,0:0:0:0:
104,280,67177,2,0,P|184:336|272:328,1,167.999989151001
440,184,67867,1,0,0:0:0:0:
304,40,68212,1,0,0:0:0:0:
232,232,68557,5,0,0:0:0:0:
232,232,68643,1,0,0:0:0:0:
232,232,68729,2,0,L|312:160,2,83.9999945755007
160,296,69246,1,0,0:0:0:0:
136,96,69591,2,0,L|56:168,1,83.9999945755007
368,272,69936,1,0,0:0:0:0:
216,304,70281,1,0,0:0:0:0:
72,256,70626,2,0,P|128:184|200:152,1,167.999989151001
456,192,71315,5,0,0:0:0:0:
328,48,71488,1,0,0:0:0:0:
448,72,71660,2,0,L|480:40,2,41.9999972877504
384,128,72005,2,0,L|232:264,1,167.999989151001
184,304,72522,1,0,0:0:0:0:
64,184,72695,1,0,0:0:0:0:
224,24,73040,1,0,0:0:0:0:
248,120,73384,1,0,0:0:0:0:
312,192,73729,1,0,0:0:0:0:
408,184,74074,5,0,0:0:0:0:
368,272,74246,1,0,0:0:0:0:
312,192,74419,1,0,0:0:0:0:
368,272,74591,1,0,0:0:0:0:
368,272,74677,1,0,0:0:0:0:
368,272,74764,2,0,B|288:312|288:312|224:304|208:272|208:208,2,167.999989151001
408,184,75626,1,0,0:0:0:0:
320,48,75798,1,0,0:0:0:0:
216,160,76143,6,0,P|240:256|328:304,1,167.999989151001
134,210,76833,1,0,0:0:0:0:
120,80,77005,1,0,0:0:0:0:
120,80,77091,1,0,0:0:0:0:
120,80,77177,2,0,L|56:160,1,83.9999945755007
136,208,77522,2,0,B|192:144|192:144|320:144,1,167.999989151001
472,144,78040,1,0,0:0:0:0:
408,224,78212,1,0,0:0:0:0:
192,312,78557,1,0,0:0:0:0:
112,128,78902,6,0,P|208:64|304:88,1,167.999989151001
400,208,79591,2,0,P|304:272|208:248,1,167.999989151001
176,224,80108,1,0,0:0:0:0:
176,224,80195,1,0,0:0:0:0:
176,224,80281,2,0,L|120:144,2,83.9999945755007
256,64,80971,5,0,0:0:0:0:
360,240,81315,1,0,0:0:0:0:
312,336,81660,1,0,0:0:0:0:
400,136,82005,2,0,P|312:72|208:64,1,167.999989151001
272,200,82522,1,0,0:0:0:0:
400,256,82695,2,0,L|320:336,2,83.9999945755007
104,160,83384,2,0,L|225:44,1,167.999989151001
280,232,84074,1,0,0:0:0:0:
208,48,84419,6,0,P|136:96|128:200,1,167.999989151001
280,248,85108,2,0,P|320:208|328:160,1,83.9999945755007
232,160,85453,2,0,L|184:232,2,83.9999945755007
432,152,86143,1,0,0:0:0:0:
240,80,86488,2,0,P|176:184|200:280,1,167.999989151001
192,112,98212,6,0,P|288:80|368:96,1,139.999995231628
296,248,98902,1,0,0:0:0:0:
128,248,99246,1,0,0:0:0:0:
112,165,99419,1,0,0:0:0:0:
192,112,99591,2,0,P|264:176|288:248,1,139.999995231628
248,320,100108,1,0,0:0:0:0:
144,280,100281,1,0,0:0:0:0:
112,160,100453,1,0,0:0:0:0:
232,184,100625,1,0,0:0:0:0:
144,280,100798,1,0,0:0:0:0:
232,184,100971,2,0,P|344:192|400:256,1,139.999995231629
464,320,101660,5,0,0:0:0:0:
408,56,101833,2,0,B|392:176|392:176,2,69.9999976158142
64,144,102350,1,0,0:0:0:0:
176,192,102695,2,0,L|248:224,1,69.9999976158142
376,96,103040,1,0,0:0:0:0:
360,280,103384,2,0,P|264:248|224:184,1,139.999995231628
168,64,104074,1,0,0:0:0:0:
369,123,104419,1,0,0:0:0:0:
463,168,104591,1,0,0:0:0:0:
376,224,104764,2,0,L|288:272|288:272,2,69.9999976158143
144,80,105453,6,0,L|224:40,2,69.9999976158143
368,88,106143,1,0,0:0:0:0:
368,88,106488,2,0,L|344:280,1,139.999995231628
200,304,107177,1,0,0:0:0:0:
120,160,107522,2,0,L|136:56,2,69.9999976158143
264,248,108212,1,0,0:0:0:0:
320,88,108557,2,0,P|224:88|152:136,1,139.999995231628
280,280,109246,6,0,L|416:160,1,139.999995231628
248,96,109936,2,0,L|184:24,1,69.9999976158142
112,160,110281,2,0,L|176:232,1,69.9999976158142
216,272,110626,1,0,0:0:0:0:
432,72,110971,2,0,L|382:121,1,69.9999976158142
216,272,111315,1,0,0:0:0:0:
328,176,111660,1,0,0:0:0:0:
216,72,112005,2,0,L|96:192,1,139.999995231628
344,192,112695,5,0,0:0:0:0:
232,296,112867,2,0,L|312:224,2,69.9999976158143
186,201,113384,1,0,0:0:0:0:
96,128,113729,2,0,L|24:72,1,69.9999976158142
160,176,114074,1,0,0:0:0:0:
216,32,114419,2,0,L|376:160,1,139.999995231628
384,176,115108,1,0,0:0:0:0:
376,256,115453,2,0,L|336:360,1,69.9999976158142
256,312,115798,2,0,L|256:200,1,69.9999976158142
136,256,116143,2,0,L|176:360,2,69.9999976158142
208,88,116833,5,0,0:0:0:0:
376,152,117177,1,0,0:0:0:0:
304,320,117522,1,0,0:0:0:0:
136,256,117866,1,0,0:0:0:0:
312,160,118212,2,0,L|384:192,1,69.9999976158143
200,280,118557,2,0,L|88:232,2,69.9999976158142
368,56,119246,6,0,L|440:160,1,69.9999976158142
360,192,119591,2,0,L|248:192,2,69.9999976158142
419,254,120108,2,0,L|368:328,1,69.9999976158142
216,232,120626,2,0,B|176:192|176:192|152:120|208:64,1,139.999995231628
279,133,121143,1,0,0:0:0:0:
328,216,121315,2,0,P|328:272|296:320,2,69.9999976158142
160,64,122005,1,0,0:0:0:0:
88,104,122177,1,0,0:0:0:0:
256,176,122522,1,0,0:0:0:0:
328,128,122695,6,0,L|432:64,1,69.9999976158142
456,48,123039,1,0,0:0:0:0:
296,80,123384,2,0,B|368:120|368:120|392:192|344:232,1,139.999995231628
344,256,123902,1,0,0:0:0:0:
272,296,124074,1,0,0:0:0:0:
232,296,124160,1,0,0:0:0:0:
192,280,124246,1,0,0:0:0:0:
128,224,124419,2,0,P|115:156|141:92,1,139.999995231628
448,152,124936,1,0,0:0:0:0:
304,120,125108,1,0,0:0:0:0:
304,120,125453,1,0,0:0:0:0:
184,272,125798,6,0,B|120:240|120:240|144:168|88:120,2,139.999995231628
280,264,126660,1,0,0:0:0:0:
320,256,126746,1,0,0:0:0:0:
360,248,126833,2,0,L|424:312,2,69.9999976158142
488,160,127522,2,0,L|408:80,1,69.9999976158142
376,48,127867,1,0,0:0:0:0:
376,48,128212,1,0,0:0:0:0:
208,56,128557,6,0,P|128:112|96:192,1,139.999995231628
232,280,129246,2,0,P|312:224|336:136,1,139.999995231628
287,90,129764,1,0,0:0:0:0:
176,112,129936,2,0,P|96:56|0:80,1,139.999995231628
96,216,130626,1,0,0:0:0:0:
240,336,130971,2,4,L|264:240,1,69.9999976158142,0|4,0:0|0:0,0:0:0:0:
288,176,131315,6,0,B|368:128|368:128|440:120|472:192,1,167.999989151001
160,216,132005,1,0,0:0:0:0:
72,176,132177,1,0,0:0:0:0:
24,80,132350,1,0,0:0:0:0:
128,88,132522,1,0,0:0:0:0:
176,80,132608,1,0,0:0:0:0:
216,56,132695,2,0,P|328:72|392:144,2,167.999989151001
104,240,133557,1,0,0:0:0:0:
104,240,133729,2,0,B|192:240|192:240|280:144,1,167.999989151001
328,80,134419,1,0,0:0:0:0:
88,80,134764,5,0,0:0:0:0:
144,232,134936,1,0,0:0:0:0:
0,216,135108,1,0,0:0:0:0:
88,80,135281,1,0,0:0:0:0:
144,232,135453,2,0,B|216:264|216:264|280:224|344:272,1,167.999989151001
416,288,135971,1,0,0:0:0:0:
359,175,136143,5,0,0:0:0:0:
280,272,136488,2,0,P|179:243|136:152,1,167.999989151001
304,104,137177,2,0,P|404:132|448:216,1,167.999989151001
184,320,137694,1,0,0:0:0:0:
120,240,137867,1,0,0:0:0:0:
98,211,137953,1,0,0:0:0:0:
76,183,138039,1,0,0:0:0:0:
192,208,138212,1,8,0:0:0:0:
248,96,138557,2,0,L|296:-8,1,83.9999945755007
368,112,138902,1,8,0:0:0:0:
368,112,139246,6,0,B|296:280|296:280|288:280|288:280,1,167.999989151001
152,104,139936,1,0,0:0:0:0:
360,112,140281,1,8,0:0:0:0:
224,88,140453,1,0,0:0:0:0:
192,120,140540,1,0,0:0:0:0:
168,160,140626,1,0,0:0:0:0:
136,272,140798,2,8,L|240:312,1,83.9999945755007
376,144,141315,1,0,0:0:0:0:
280,184,141488,1,0,0:0:0:0:
96,64,141660,5,0,0:0:0:0:
168,136,141833,1,0,0:0:0:0:
176,240,142005,1,0,0:0:0:0:
376,88,142350,1,0,0:0:0:0:
328,296,142695,6,0,B|312:232|248:232|248:232|208:144,1,167.999989151001
128,184,143212,1,0,0:0:0:0:
160,40,143384,1,0,0:0:0:0:
128,184,143557,1,0,0:0:0:0:
0,88,143729,1,0,0:0:0:0:
160,256,144074,2,8,L|200:360,1,83.9999945755007
256,200,144419,1,8,0:0:0:0:
56,256,144764,1,0,0:0:0:0:
288,40,145108,6,0,P|176:56|96:128,1,167.999989151001
168,328,145798,1,0,0:0:0:0:
296,320,145971,1,0,0:0:0:0:
360,208,146143,1,0,0:0:0:0:
232,216,146315,1,0,0:0:0:0:
304,112,146488,1,0,0:0:0:0:
80,96,146833,2,0,L|8:160,2,83.9999945755007
144,136,147522,6,0,P|200:232|184:328,1,167.999989151001
48,152,148212,2,8,P|112:48|208:56,1,167.999989151001
280,272,148902,1,0,0:0:0:0:
312,240,148988,1,0,0:0:0:0:
344,208,149074,1,0,0:0:0:0:
376,40,149246,1,8,0:0:0:0:
392,320,149591,1,0,0:0:0:0:
128,88,149936,1,8,0:0:0:0:
344,208,150281,1,0,0:0:0:0:
256,288,150626,6,0,B|192:240|192:240|104:256|104:152,1,167.999989151001
184,136,151143,1,0,0:0:0:0:
264,72,151315,2,0,L|336:16,1,83.9999945755007
448,192,151660,2,0,L|352:264,1,83.9999945755007
304,304,152005,1,8,0:0:0:0:
304,304,152350,1,0,0:0:0:0:
128,80,152695,1,8,0:0:0:0:
224,120,153040,1,4,0:0:0:0:
272,80,162620,6,0,L|440:176,1,139.999995231628
352,312,163197,2,0,L|208:240,1,139.999995231628
64,208,163774,2,0,L|126:82,1,139.999995231628
296,128,164351,2,0,L|226:249,1,139.999995231628
336,240,164928,1,0,0:0:0:0:
304,112,165216,1,0,0:0:0:0:
176,144,165505,1,0,0:0:0:0:
208,272,165793,1,0,0:0:0:0:
360,320,166082,5,0,0:0:0:0:
128,296,166370,1,0,0:0:0:0:
152,64,166659,1,0,0:0:0:0:
384,88,166947,1,0,0:0:0:0:
280,280,167236,1,0,0:0:0:0:
136,176,167524,1,0,0:0:0:0:
304,104,167813,1,0,0:0:0:0:
264,288,168101,5,0,0:0:0:0:
151,150,168389,1,0,0:0:0:0:
332,124,168678,1,0,0:0:0:0:
246,292,168966,1,0,0:0:0:0:
173,130,169254,1,0,0:0:0:0:
355,152,169543,1,4,0:0:0:0:
256,192,169832,12,0,170697,0:0:0:0:
144,88,171851,5,8,0:0:0:0:
360,312,172140,1,0,0:0:0:0:
208,320,172428,1,8,0:0:0:0:
392,48,172716,1,0,0:0:0:0:
224,72,173005,1,8,0:0:0:0:
304,160,173293,1,0,0:0:0:0:
48,224,173582,5,8,0:0:0:0:
112,72,173870,1,0,0:0:0:0:
216,336,174159,1,8,0:0:0:0:
424,80,174447,1,0,0:0:0:0:
280,104,174736,1,8,0:0:0:0:
384,208,175024,1,0,0:0:0:0:
336,288,175313,5,8,0:0:0:0:
128,160,175601,1,0,0:0:0:0:
376,160,175890,1,8,0:0:0:0:
176,288,176178,1,0,0:0:0:0:
256,64,176467,1,8,0:0:0:0:
360,312,176755,5,0,0:0:0:0:
104,136,177043,1,8,0:0:0:0:
400,136,177332,1,0,0:0:0:0:
152,312,177620,1,8,0:0:0:0:
256,40,177909,1,0,0:0:0:0:
305,163,178197,1,8,0:0:0:0:
255,248,178486,1,0,0:0:0:0:
207,163,178774,1,4,0:0:0:0:
256,192,179063,12,0,179928,0:0:0:0:
256,192,180505,5,8,0:0:0:0:
248,40,181082,5,8,0:0:0:0:
232,344,181370,1,0,0:0:0:0:
128,232,181659,1,8,0:0:0:0:
424,160,181947,1,0,0:0:0:0:
352,80,182236,1,8,0:0:0:0:
128,104,182524,1,0,0:0:0:0:
416,272,182813,5,8,0:0:0:0:
184,40,183101,1,0,0:0:0:0:
128,336,183390,1,8,0:0:0:0:
240,288,183678,1,0,0:0:0:0:
320,48,183966,1,8,0:0:0:0:
88,136,184255,1,0,0:0:0:0:
368,320,184543,5,8,0:0:0:0:
160,56,184832,1,0,0:0:0:0:
424,248,185120,1,8,0:0:0:0:
136,336,185409,1,0,0:0:0:0:
72,192,185697,1,8,0:0:0:0:
432,144,185986,1,0,0:0:0:0:
192,48,186274,5,8,0:0:0:0:
304,160,186563,1,0,0:0:0:0:
256,328,186851,1,8,0:0:0:0:
360,96,187140,1,0,0:0:0:0:
136,208,187428,1,8,0:0:0:0:
384,256,187716,1,0,0:0:0:0:
208,72,188005,6,8,L|256:160,1,69.9999976158142
416,232,188446,2,8,L|360:128,1,69.9999976158142
336,80,188905,6,0,P|264:56|200:80,1,105.000000429154
160,120,189520,5,8,0:0:0:0:
160,232,189840,1,8,0:0:0:0:
296,312,190166,6,4,P|336:304|360:280,1,52.5000002145768
427,230,190500,6,0,P|400:128|352:104,1,125.999991863251
104,176,191189,2,0,L|168:80,1,83.9999945755007
272,152,191534,1,0,0:0:0:0:
248,184,191620,1,0,0:0:0:0:
224,216,191706,1,0,0:0:0:0:
176,280,191879,1,0,0:0:0:0:
400,232,192224,2,0,L|336:328,2,83.9999945755007
408,184,192741,1,0,0:0:0:0:
400,136,192913,1,0,0:0:0:0:
400,136,193258,2,0,B|368:72|328:56|328:56|200:88,1,167.999989151001
96,176,193948,6,0,L|192:232,1,83.9999945755007,0|0,0:0|0:0,0:0:0:0:
280,96,194293,1,0,0:0:0:0:
280,96,194379,1,0,0:0:0:0:
280,96,194465,2,0,L|320:200,1,83.9999945755007
448,216,194982,2,0,L|408:328,1,83.9999945755007
272,288,195327,2,0,P|176:224|160:128,1,167.999989151001
272,48,196017,2,0,P|368:112|384:208,2,167.999989151001
176,64,196879,5,0,0:0:0:0:
104,136,197051,1,0,0:0:0:0:
88,184,197137,1,0,0:0:0:0:
104,232,197224,1,0,0:0:0:0:
168,304,197396,1,0,0:0:0:0:
352,312,197741,2,0,L|320:200,1,83.9999945755007
232,184,198086,2,0,P|320:128|416:168,1,167.999989151001
224,64,198775,2,0,B|168:128|168:128|88:160|48:72,1,167.999989151001
272,264,199465,5,0,0:0:0:0:
272,264,199551,1,0,0:0:0:0:
272,264,199637,2,0,L|360:328,1,83.9999945755007
384,112,199982,2,0,L|352:0,1,83.9999945755007
280,88,200500,2,0,L|176:56,2,83.9999945755007
120,208,201017,2,0,L|32:296,1,83.9999945755007
232,288,201534,2,0,B|320:312|320:312|376:296|400:224,1,167.999989151001
360,64,202224,1,0,0:0:0:0:
360,64,202310,1,0,0:0:0:0:
360,64,202396,2,0,L|464:120,1,83.9999945755007
425,229,202741,6,0,L|336:184,1,83.9999945755007
80,56,203258,2,0,L|185:114,2,83.9999945755007
109,179,203775,2,0,L|157:267,1,83.9999945755007
360,160,204293,2,0,P|288:232|168:200,1,167.999989151001
80,240,204982,2,0,B|120:328|120:328|176:352|240:304,1,167.999989151001
232,320,205413,1,0,0:0:0:0:
272,296,205500,1,0,0:0:0:0:
184,80,205672,1,0,0:0:0:0:
408,136,206017,6,0,L|320:208,1,83.9999945755007
264,248,206362,1,0,0:0:0:0:
184,48,206706,2,0,P|120:152|160:224,1,167.999989151001
232,144,207396,1,0,0:0:0:0:
232,144,207741,1,0,0:0:0:0:
408,264,208086,1,0,0:0:0:0:
408,264,208172,1,0,0:0:0:0:
408,264,208258,2,0,L|340:213,1,83.9999945755007
144,312,208775,2,0,P|200:208|176:96,1,167.999989151001
128,24,209465,5,0,0:0:0:0:
128,24,209810,2,0,P|72:128|96:240,1,167.999989151001
272,152,210500,1,0,0:0:0:0:
72,176,210844,1,0,0:0:0:0:
272,152,211189,2,0,P|263:234|216:303,1,167.999989151001
72,176,211879,1,0,0:0:0:0:
216,304,212224,1,0,0:0:0:0:
232,152,222464,6,0,P|272:104|304:96,1,69.9999976158142
328,176,223083,2,0,P|360:160|376:120,1,69.9999976158142
312,80,223702,2,0,P|240:136|240:208,1,139.999995231628
328,248,224629,2,0,P|296:296|256:304,1,69.9999976158142
184,280,225248,2,0,P|216:232|256:224,1,69.9999976158142
272,304,225866,1,8,0:0:0:0:
368,112,227104,6,0,L|392:72,2,34.9999988079071
288,72,227722,2,0,P|240:56|192:72,1,69.9999976158142
152,104,228341,1,8,0:0:0:0:
360,264,229269,6,0,L|336:304,2,34.9999988079071
320,184,229887,2,0,P|280:144|240:136,2,69.9999976158142
240,224,230815,1,4,0:0:0:0:
