osu file format v12

[General]
AudioFilename: 02 - In Love.mp3
AudioLeadIn: 0
PreviewTime: 65108
Countdown: 1
SampleSet: Normal
StackLeniency: 0.6
Mode: 0
LetterboxInBreaks: 1
WidescreenStoryboard: 1

[Editor]
DistanceSpacing: 1.2
BeatDivisor: 4
GridSize: 8

[Metadata]
Title:In Love
TitleUnicode:In Love
Artist:July
ArtistUnicode:July
Creator:Estivarus
Version:Hard
Source:
Tags:piano
BeatmapID:360505
BeatmapSetID:145305

[Difficulty]
HPDrainRate:5
CircleSize:4
OverallDifficulty:5
ApproachRate:8
SliderMultiplier:2.4
SliderTickRate:1

[Events]
//Background and Video events
0,0,"22159-girl-standing-in-the-rain-1920x1200-anime-wallpaper.jpg",0,0
//Break Periods
2,87033,97462
2,153240,161870
2,212596,221714
//Storyboard Layer 0 (Background)
//Storyboard Layer 1 (Fail)
//Storyboard Layer 2 (Pass)
//Storyboard Layer 3 (Foreground)
//Storyboard Sound Samples
//Background Colour Transformations
3,100,163,162,255

[TimingPoints]
975,612.244897959184,4,1,0,50,1,0
20715,697.674418604651,4,2,0,24,1,0
40249,-100,4,3,0,50,0,0
43040,689.655172413793,4,2,0,40,1,0
65108,-83.3333333333333,4,1,0,60,0,1
87177,-100,4,2,0,40,0,0
131315,-83.3333333333333,4,1,0,60,0,1
153390,576.923076923077,4,3,0,35,1,0
162620,-125,4,3,0,35,0,0
171851,-111.111111111111,4,3,0,45,0,0
181082,-100,4,3,0,50,0,0
188005,588.235294117647,4,2,0,55,1,0
188605,600,4,2,0,60,1,0
188605,-133.333333333333,4,2,0,60,0,0
189205,631.578947368421,4,2,0,50,1,0
189840,652.173913043478,4,2,0,50,1,0
189840,-133.333333333333,4,2,0,50,0,0
190500,689.655172413793,4,2,0,50,1,0
190500,-111.111111111111,4,2,0,50,0,0
190844,-83.3333333333333,4,1,0,45,0,1
212568,618.556701030928,4,1,0,50,1,0
222464,-200,4,2,0,30,0,0

[Colours]
Combo1 : 0,255,0
Combo2 : 5,245,255
Combo3 : 255,255,5
Combo4 : 255,135,15

[HitObjects]
208,96,20715,2,0,P|136:136|120:192,1,120
240,232,21412,2,0,P|248:280|240:304,2,60
216,168,21935,1,0,0:0:0:0:
168,120,22110,1,0,0:0:0:0:
104,248,22459,2,0,L|144:312,1,60
352,272,23156,1,0,0:0:0:0:
256,168,23505,1,0,0:0:0:0:
384,96,23854,1,0,0:0:0:0:
256,168,24203,5,0,0:0:0:0:
208,112,24377,2,0,P|192:64|200:32,2,60
264,64,24901,1,0,0:0:0:0:
392,136,25249,2,0,P|416:224|384:272,1,120
280,312,25947,1,0,0:0:0:0:
160,232,26296,1,0,0:0:0:0:
288,168,26645,1,0,0:0:0:0:
400,256,26994,6,0,L|464:320,2,60
448,200,27517,2,0,L|400:152,1,60
296,248,28040,2,0,L|344:304,1,60
192,136,28738,1,0,0:0:0:0:
328,176,29087,1,0,0:0:0:0:
448,96,29435,1,0,0:0:0:0:
328,176,29784,5,0,0:0:0:0:
360,240,29959,2,0,P|400:264|432:264,2,60
416,192,30482,1,0,0:0:0:0:
304,104,30831,2,0,P|224:88|160:120,1,120
72,184,31528,1,0,0:0:0:0:
216,216,31877,1,0,0:0:0:0:
280,344,32226,2,0,P|344:280|352:200,1,120
344,112,32924,6,0,L|408:64,2,60
224,192,33621,2,0,L|152:248,1,60
56,312,34145,1,0,0:0:0:0:
122,337,34319,2,0,P|128:308|120:280,1,60
80,216,34668,1,0,0:0:0:0:
128,80,35017,1,0,0:0:0:0:
272,104,35366,1,0,0:0:0:0:
344,120,35540,2,0,L|432:136,2,60
272,104,36063,1,0,0:0:0:0:
168,208,36412,6,0,L|256:224,1,60
296,232,36761,1,0,0:0:0:0:
416,160,37110,2,0,P|440:256|408:304,1,120
296,320,37808,1,0,0:0:0:0:
168,144,38331,2,0,L|128:88,2,60
208,200,38854,1,0,0:0:0:0:
240,32,39203,2,0,L|280:96,1,60
392,264,39901,1,0,0:0:0:0:
96,176,40249,5,8,0:0:0:0:
96,176,40598,1,0,0:0:0:0:
184,288,40947,2,0,P|280:248|304:216,1,120
328,176,41470,1,8,0:0:0:0:
328,176,41645,1,8,0:0:0:0:
248,56,41994,1,0,0:0:0:0:
392,64,42342,2,4,L|472:168,1,120
256,304,43040,6,0,P|168:240|120:256,1,120
48,152,43729,2,0,P|40:96|48:72,2,60,8|0|8,0:0|0:0|0:0,0:0:0:0:
112,112,44246,2,0,P|120:176|112:192,1,60
88,312,44764,2,0,P|168:272|232:280,1,120
328,328,45453,1,0,0:0:0:0:
384,192,45798,2,0,P|392:112|368:64,1,120
248,144,46488,5,0,0:0:0:0:
176,160,46660,2,0,P|128:200|128:224,2,60
192,232,47177,1,0,0:0:0:0:
328,288,47522,2,0,P|400:224|408:168,1,120
280,136,48212,1,0,0:0:0:0:
400,56,48557,1,0,0:0:0:0:
416,200,48902,1,0,0:0:0:0:
304,288,49246,6,0,P|232:320|160:304,1,120
184,176,49936,1,0,0:0:0:0:
312,112,50281,2,0,L|232:152,1,60
184,176,50626,1,0,0:0:0:0:
160,320,50971,1,0,0:0:0:0:
296,272,51315,2,0,L|424:216,1,120
304,120,52005,1,0,0:0:0:0:
264,56,52177,2,0,P|232:96|232:128,1,60
224,144,52522,2,0,P|213:171|190:191,1,60
48,168,53040,6,0,P|64:272|112:296,1,120
216,288,53729,1,0,0:0:0:0:
192,144,54074,2,0,P|272:112|328:128,1,120
440,168,54764,1,0,0:0:0:0:
320,248,55108,2,0,L|368:304,2,60
392,120,55798,2,0,P|320:88|256:104,1,120
248,104,56315,2,0,P|200:144|192:168,1,60
184,176,56660,2,0,P|144:216|112:224,1,60
272,280,57177,6,0,P|336:320|400:320,1,120
408,304,57695,2,0,P|440:256|440:232,1,60
432,216,58040,2,0,P|432:152|448:136,1,60
304,80,58557,1,0,0:0:0:0:
176,144,58902,1,0,0:0:0:0:
272,192,59246,1,0,0:0:0:0:
144,264,59591,1,0,0:0:0:0:
64,144,59936,6,0,P|144:120|208:144,1,120
208,144,60453,2,0,P|256:160|288:152,2,60
256,88,60971,1,0,0:0:0:0:
392,136,61315,2,0,P|440:200|440:248,1,120
296,248,62005,1,0,0:0:0:0:
160,192,62350,2,0,P|208:128|272:112,1,120
296,248,63040,5,0,0:0:0:0:
184,336,63384,1,0,0:0:0:0:
64,136,63729,1,0,0:0:0:0:
208,168,64074,1,0,0:0:0:0:
280,48,64419,1,0,0:0:0:0:
328,184,64764,1,4,0:0:0:0:
208,168,65108,6,0,L|144:304,1,143.999995605469
320,320,65798,2,0,P|360:320|400:288,1,71.9999978027344
416,280,66143,2,0,P|424:241|402:194,1,71.9999978027344
368,136,66488,1,0,0:0:0:0:
208,64,66833,2,0,P|192:160|216:216,1,143.999995605469
368,136,67522,1,0,0:0:0:0:
200,176,67867,2,0,P|144:240|128:304,1,143.999995605469
304,304,68557,5,0,0:0:0:0:
392,304,68729,1,0,0:0:0:0:
384,216,68902,1,0,0:0:0:0:
344,144,69074,2,0,P|400:136|432:152,1,71.9999978027344
320,288,69591,2,0,P|248:312|160:280,1,143.999995605469
72,208,70281,1,0,0:0:0:0:
176,104,70626,2,0,P|248:80|336:112,1,143.999995605469
336,240,71315,5,0,0:0:0:0:
256,280,71488,1,0,0:0:0:0:
176,248,71660,1,0,0:0:0:0:
224,176,71833,1,0,0:0:0:0:
200,96,72005,1,0,0:0:0:0:
72,216,72350,2,0,L|144:296,1,71.9999978027344
208,288,72695,1,0,0:0:0:0:
352,192,73040,5,0,0:0:0:0:
352,192,73384,2,0,P|384:272|440:304,1,143.999995605469
256,288,74074,1,0,0:0:0:0:
240,200,74246,1,0,0:0:0:0:
168,152,74419,1,0,0:0:0:0:
80,152,74591,2,0,L|32:224,1,71.9999978027344
184,304,75108,2,0,L|232:232,1,71.9999978027344
248,216,75453,6,0,P|320:200|384:232,1,143.999995605469
496,136,76143,2,0,L|368:240,1,143.999995605469
216,256,76833,2,0,P|184:312|192:336,2,71.9999978027344
288,200,77350,1,0,0:0:0:0:
296,112,77522,1,0,0:0:0:0:
120,104,77867,2,0,P|64:184|72:256,1,143.999995605469
232,176,78557,1,0,0:0:0:0:
232,176,78902,2,0,P|255:277|312:313,1,143.999995605469
376,160,79591,6,0,P|416:200|448:208,2,71.9999978027344
456,128,80108,1,0,0:0:0:0:
360,264,80281,1,0,0:0:0:0:
192,288,80626,2,0,P|112:240|96:176,1,143.999995605469
176,40,81315,1,0,0:0:0:0:
288,176,81660,1,0,0:0:0:0:
152,280,82005,1,0,0:0:0:0:
320,312,82350,1,0,0:0:0:0:
416,168,82695,2,0,P|392:104|368:88,2,71.9999978027344
248,208,83384,5,0,0:0:0:0:
80,232,83729,1,0,0:0:0:0:
120,128,84074,1,0,0:0:0:0:
184,224,84419,1,0,0:0:0:0:
296,224,84764,1,0,0:0:0:0:
232,64,85108,1,0,0:0:0:0:
144,208,85453,2,0,L|96:288,1,71.9999978027344
64,344,85798,1,0,0:0:0:0:
232,312,86143,5,0,0:0:0:0:
264,144,86488,1,0,0:0:0:0:
440,144,86833,1,0,0:0:0:0:
384,120,98212,5,0,0:0:0:0:
424,256,98557,1,0,0:0:0:0:
288,216,98902,1,0,0:0:0:0:
160,144,99246,1,0,0:0:0:0:
88,168,99419,1,0,0:0:0:0:
72,240,99591,1,0,0:0:0:0:
216,248,99936,2,0,P|272:192|272:128,1,120
280,120,100453,2,0,P|296:64|312:48,2,60
353,110,100971,1,0,0:0:0:0:
400,248,101315,6,0,P|320:296|256:280,1,120
184,200,102005,1,0,0:0:0:0:
176,56,102350,2,0,P|88:96|64:144,1,120
104,256,103040,1,0,0:0:0:0:
248,272,103384,1,0,0:0:0:0:
312,144,103729,2,0,L|240:40,1,120
184,176,104419,2,0,L|232:248,2,60
184,104,104936,1,0,0:0:0:0:
240,56,105108,1,0,0:0:0:0:
336,168,105453,6,0,P|408:216|424:272,1,120
296,312,106143,1,0,0:0:0:0:
152,304,106488,2,0,P|80:248|72:208,1,120
208,168,107177,1,0,0:0:0:0:
304,64,107522,2,0,P|256:32|224:32,2,60
336,208,108212,1,0,0:0:0:0:
200,168,108557,2,0,P|96:176|64:208,1,120
176,296,109246,6,0,P|280:288|312:256,1,120,0|0,0:0|0:0,0:0:0:0:
304,136,109936,1,0,0:0:0:0:
376,136,110108,1,0,0:0:0:0:
440,96,110281,1,0,0:0:0:0:
424,168,110453,1,0,0:0:0:0:
448,240,110626,1,0,0:0:0:0:
304,264,110971,2,0,L|224:280,1,60
176,288,111315,1,0,0:0:0:0:
80,184,111660,1,0,0:0:0:0:
184,88,112005,2,0,L|320:64,1,120
328,208,112695,5,0,0:0:0:0:
376,264,112867,2,0,P|408:288|456:288,2,60
432,216,113384,1,0,0:0:0:0:
368,88,113729,2,0,P|296:32|224:32,1,120
136,88,114419,1,0,0:0:0:0:
96,224,114764,1,0,0:0:0:0:
232,272,115108,2,0,B|295:296|295:296|350:262|348:237,1,120
360,240,115626,1,0,0:0:0:0:
384,216,115798,2,0,P|432:184|464:184,2,60
264,136,116488,6,0,P|256:80|264:64,1,60
328,96,116833,1,0,0:0:0:0:
360,240,117177,1,0,0:0:0:0:
216,240,117522,2,0,P|144:272|112:312,1,120
104,160,118212,2,0,L|72:104,1,60
168,96,118557,2,0,L|200:152,1,60
232,208,118902,1,0,0:0:0:0:
376,200,119246,6,0,L|336:136,1,60
328,120,119591,1,0,0:0:0:0:
312,88,119764,2,0,P|312:24|328:8,2,60
376,56,120281,1,0,0:0:0:0:
432,192,120626,2,0,P|376:248|304:240,1,120
208,200,121315,2,0,L|136:248,1,60
96,272,121660,1,0,0:0:0:0:
232,328,122005,2,0,L|288:288,1,60
312,272,122350,1,0,0:0:0:0:
344,256,122522,2,0,P|400:240|424:248,2,60
280,296,123039,5,0,0:0:0:0:
144,248,123384,2,0,P|192:184|248:168,1,120
296,168,123902,1,0,0:0:0:0:
352,216,124074,1,0,0:0:0:0:
408,176,124246,2,0,L|464:136,1,60
344,48,124764,2,0,L|224:144,1,120
192,256,125453,1,0,0:0:0:0:
320,320,125798,1,0,0:0:0:0:
408,208,126143,1,0,0:0:0:0:
304,112,126488,6,0,L|232:104,1,60
176,168,126833,2,0,L|256:176,1,60
304,184,127177,1,0,0:0:0:0:
432,128,127522,2,0,P|448:216|424:256,1,120
304,296,128212,1,0,0:0:0:0:
176,232,128557,2,0,P|168:168|208:112,1,120
336,96,129246,5,0,0:0:0:0:
392,200,129591,1,0,0:0:0:0:
256,280,129936,1,0,0:0:0:0:
256,160,130281,1,0,0:0:0:0:
176,96,130626,1,0,0:0:0:0:
120,200,130971,1,4,0:0:0:0:
224,304,131315,6,0,P|312:288|344:240,1,143.999995605469
256,136,132005,2,0,P|248:200|264:224,1,71.9999978027344
264,232,132350,2,0,P|296:288|288:312,1,71.9999978027344
208,304,132695,1,0,0:0:0:0:
96,176,133040,2,0,P|184:136|248:144,1,143.999995605469
384,64,133729,1,0,0:0:0:0:
368,232,134074,2,0,P|280:272|216:264,1,143.999995605469
80,200,134764,5,0,0:0:0:0:
168,200,134936,1,0,0:0:0:0:
192,112,135108,1,0,0:0:0:0:
280,104,135281,2,0,P|352:120|376:152,1,71.9999978027344
280,280,135798,2,0,P|192:280|144:248,1,143.999995605469
248,112,136488,1,0,0:0:0:0:
248,112,136833,2,0,B|296:160|296:160|344:160|368:96,1,143.999995605469
200,40,137522,6,0,P|168:88|168:112,1,71.9999978027344
248,112,137867,2,0,P|223:164|202:176,1,71.9999978027344
152,232,138212,1,0,0:0:0:0:
304,304,138557,2,0,P|392:264|416:224,1,143.999995605469
272,128,139246,1,0,0:0:0:0:
272,128,139591,2,0,B|224:176|224:176|176:176|152:112,1,143.999995605469
328,72,140281,5,0,0:0:0:0:
384,144,140453,1,0,0:0:0:0:
336,216,140626,1,0,0:0:0:0:
248,200,140798,2,0,P|216:136|224:104,1,71.9999978027344
56,72,141315,2,0,P|88:136|80:168,1,71.9999978027344
96,216,141660,2,0,P|136:288|216:304,1,143.999995605469
368,296,142350,2,0,P|320:216|240:208,1,143.999995605469
104,168,143040,6,0,P|40:128|32:104,2,71.9999978027344
192,176,143557,1,0,0:0:0:0:
264,136,143729,1,0,0:0:0:0:
96,104,144074,2,0,P|64:184|88:248,1,143.999995605469
240,168,144764,1,0,0:0:0:0:
240,168,145108,2,0,P|272:240|328:264,1,143.999995605469
400,104,145798,6,0,L|328:176|328:176,2,71.9999978027344
296,208,146315,1,0,0:0:0:0:
216,232,146488,1,0,0:0:0:0:
232,64,146833,2,0,B|304:64|288:152|392:120,2,143.999995605469
216,232,147867,2,0,L|80:160,1,143.999995605469
232,64,148557,1,0,0:0:0:0:
400,96,148902,2,0,P|448:128|456:160,2,71.9999978027344
232,112,149591,6,0,L|144:232,1,143.999995605469
320,256,150281,2,0,L|424:128,2,143.999995605469
144,256,151315,1,0,0:0:0:0:
248,120,151660,2,0,L|200:184,2,71.9999978027344
192,288,152350,2,0,P|120:256|96:176,1,143.999995605469
248,120,153040,1,4,0:0:0:0:
392,176,162620,5,0,0:0:0:0:
280,80,162909,1,0,0:0:0:0:
136,112,163197,2,0,P|88:160|80:200,1,96
216,232,163774,1,0,0:0:0:0:
328,136,164063,1,0,0:0:0:0:
464,176,164351,2,0,P|446:219|408:249,1,96
272,288,164928,6,0,P|200:264|176:224,1,96
264,120,165505,2,0,P|272:176|256:216,2,96
120,216,166370,2,0,P|160:176|208:168,1,96
336,192,166947,1,0,0:0:0:0:
240,80,167236,2,0,L|192:176,1,96
256,296,167813,2,0,L|304:200,2,96
440,176,168678,6,0,L|392:272,1,96
397,264,169255,1,8,0:0:0:0:
256,192,169543,12,4,170697,0:0:0:0:
248,72,171851,6,0,L|352:152,1,107.999996704102
328,304,172428,1,8,0:0:0:0:
472,224,172716,1,0,0:0:0:0:
333,137,173005,2,0,L|248:72,1,107.999996704102,0|0,0:0|0:0,0:0:0:0:
88,72,173582,1,8,0:0:0:0:
176,208,173870,1,0,0:0:0:0:
336,184,174159,6,0,P|384:224|400:288,1,107.999996704102
248,112,174736,2,0,P|288:64|352:48,2,107.999996704102
256,272,175601,2,0,P|200:272|160:240,1,107.999996704102
320,232,176178,1,0,0:0:0:0:
176,152,176466,2,0,L|264:72,1,107.999996704102
320,232,177043,2,0,L|448:232,2,107.999996704102
368,80,177909,2,0,L|272:168,1,107.999996704102
160,256,178486,1,0,0:0:0:0:
256,192,178774,12,4,179928,0:0:0:0:
312,80,181082,6,0,L|408:176,1,120
200,304,181659,2,0,L|104:208,1,120,0|0,0:0|0:0,0:0:0:0:
368,248,182236,6,0,L|272:344,1,120
144,136,182813,2,0,L|240:40,1,120,0|0,0:0|0:0,0:0:0:0:
384,144,183390,2,0,L|288:240,2,120
232,288,184255,1,0,0:0:0:0:
112,152,184543,2,0,L|208:56,1,120,0|0,0:0|0:0,0:0:0:0:
136,232,185120,2,0,L|232:136,1,120,0|0,0:0|0:0,0:0:0:0:
400,128,185697,6,0,L|304:40,2,120
280,264,186563,1,0,0:0:0:0:
120,176,186851,2,0,P|88:120|88:64,1,120
248,144,187428,2,0,P|280:200|280:256,1,120
120,336,188005,6,8,L|184:304,1,60
192,192,188446,2,12,L|128:224,1,60
272,152,188905,6,0,P|280:88|248:56,1,90.0000034332277
152,120,189520,5,8,0:0:0:0:
168,232,189840,5,8,0:0:0:0:
272,288,190166,2,4,P|320:288|344:280,1,45.0000017166138
392,264,190500,6,0,P|432:192|424:152,1,107.999996704102
304,96,191189,2,0,P|336:48|376:40,2,71.9999978027344
296,136,191706,1,0,0:0:0:0:
288,176,191879,2,0,P|240:256|176:272,1,143.999995605469
184,160,192568,2,0,B|122:122|181:55|75:29,2,143.999995605469
304,72,193603,2,0,P|344:144|328:208,1,143.999995605469
256,200,194120,5,0,0:0:0:0:
192,240,194293,1,0,0:0:0:0:
128,200,194465,2,0,L|48:136,1,71.9999978027344
200,88,194982,2,0,L|328:184,1,143.999995605469
432,256,195672,1,0,0:0:0:0:
296,288,196017,2,0,P|208:296|144:240,1,143.999995605469
104,128,196706,2,0,L|144:56,1,71.9999978027344
192,136,197051,2,0,L|152:208,1,71.9999978027344
144,272,197396,2,0,P|216:320|288:304,1,143.999995605469
320,176,198086,6,0,P|392:224|408:288,1,143.999995605469
200,256,198775,2,0,L|328:168,1,143.999995605469
176,144,199465,2,0,L|104:192,2,71.9999978027344
96,72,199982,2,0,L|168:24,1,71.9999978027344
80,152,200500,2,0,P|112:240|160:264,1,143.999995605469
296,248,201189,1,0,0:0:0:0:
224,128,201534,6,0,P|296:64|368:64,1,143.999995605469
344,200,202224,1,0,0:0:0:0:
296,256,202396,1,0,0:0:0:0:
224,256,202568,1,0,0:0:0:0:
168,208,202741,2,0,L|129:146,1,71.9999978027344
296,104,203258,2,0,L|384:240,1,143.999995605469
216,152,203948,5,0,0:0:0:0:
208,328,204293,2,0,L|120:192,1,143.999995605469
56,80,204982,1,0,0:0:0:0:
128,96,205155,2,0,P|184:88|216:64,2,71.9999978027344
150,25,205672,1,0,0:0:0:0:
176,168,206017,2,0,L|192:248,1,71.9999978027344
208,312,206362,1,0,0:0:0:0:
344,264,206706,6,0,P|408:176|408:128,1,143.999995605469
168,120,207396,2,0,P|104:208|104:256,1,143.999995605469
248,240,208086,2,0,P|288:288|288:312,2,71.9999978027344
120,296,208775,1,0,0:0:0:0:
32,176,209120,2,0,P|112:120|144:56,1,143.999995605469
280,80,209810,2,0,P|200:136|168:200,1,143.999995605469
224,312,210500,5,0,0:0:0:0:
368,280,210844,1,0,0:0:0:0:
264,176,211190,5,0,0:0:0:0:
120,144,211534,1,0,0:0:0:0:
224,48,211879,5,0,0:0:0:0:
368,16,212224,2,4,L|456:72,1,71.9999978027344
176,152,222464,6,0,P|136:184|128:216,1,60
200,224,223083,2,0,P|200:272|224:296,1,60
272,248,223701,2,0,P|304:264|344:256,2,60
256,176,224629,1,0,0:0:0:0:
280,104,224938,2,0,P|296:56|288:32,1,60
216,56,225557,2,0,P|200:104|208:128,1,60
352,192,227103,6,0,L|400:176,2,30
280,216,227722,2,0,P|250:227|234:276,2,60
112,224,229268,6,0,L|64:248,2,30
184,200,229887,2,0,P|224:208|256:240,1,60
248,296,230505,2,4,P|208:288|176:256,1,60
