osu file format v14

[General]
AudioFilename: July - I remember you (Cut. Ver).mp3
AudioLeadIn: 2000
PreviewTime: 14746
Countdown: 0
SampleSet: Soft
StackLeniency: 0.7
Mode: 0
LetterboxInBreaks: 0
WidescreenStoryboard: 0

[Editor]
DistanceSpacing: 1.2
BeatDivisor: 4
GridSize: 4
TimelineZoom: 1

[Metadata]
Title:I remember you
TitleUnicode:너를 기억하다
Artist:July
ArtistUnicode:줄라이
Creator:Mako Sakata
Version:Normal
Source:
Tags:Piano Hip hop Niva Nivalis Hinsvar 이동훈 Digitalrecord New Age Valentine
BeatmapID:590105
BeatmapSetID:257873

[Difficulty]
HPDrainRate:4
CircleSize:3.5
OverallDifficulty:4
ApproachRate:5
SliderMultiplier:1.6
SliderTickRate:1

[Events]
//Background and Video events
0,0,"Bgirememberyou.png",0,0
//Break Periods
2,12062,13546
//Storyboard Layer 0 (Background)
//Storyboard Layer 1 (Fail)
//Storyboard Layer 2 (Pass)
//Storyboard Layer 3 (Foreground)
//Storyboard Sound Samples

[TimingPoints]
356,821.917808219178,4,2,1,35,1,0
6109,-100,4,2,1,40,0,0
6520,-100,4,2,1,35,0,0
11862,-100,4,2,1,20,0,0
14746,697.674418604651,4,2,1,25,1,8
15443,697.674418604651,4,2,1,35,1,0
26605,-100,4,2,1,40,0,0
37070,681.818181818182,4,2,1,35,1,8
37751,681.818181818182,4,2,1,40,1,0
48319,-100,4,3,1,40,0,0
48660,-100,4,2,1,45,0,0
56841,666.666666666667,4,2,2,40,1,0
58174,-100,4,3,1,40,0,0
58507,-100,4,2,3,40,0,0
59174,-100,4,2,2,40,0,0
59507,681.818181818182,4,2,1,50,1,1
70075,-100,4,3,1,50,0,1
70416,-100,4,2,1,50,0,1
75870,-100,4,2,1,50,0,0
81325,-100,4,2,1,30,0,0

[Colours]
Combo1 : 252,206,255
Combo2 : 176,251,186
Combo3 : 149,179,255
Combo4 : 255,213,128

[HitObjects]
108,84,356,6,0,P|104:124|108:164,1,80,2|0,0:0|0:0,0:0:0:0:
188,216,1177,1,2,0:0:0:0:
280,188,1588,1,2,0:0:0:0:
372,212,1999,2,0,L|372:292,1,80,2|0,0:0|0:0,0:0:0:0:
452,344,2820,1,2,0:0:0:0:
452,152,3643,6,0,L|456:56,1,80,2|0,0:0|0:0,0:0:0:0:
360,84,4465,1,2,0:0:0:0:
268,56,4876,1,2,0:0:0:0:
176,84,5287,2,0,P|172:124|176:164,1,80,2|0,0:0|0:0,0:0:0:0:
216,252,6109,2,0,L|216:296,2,40,2|0|2,0:0|0:0|0:0,0:0:0:0:
176,164,6931,6,0,P|215:156|255:164,1,80,2|0,0:0|0:0,0:0:0:0:
348,184,7753,1,2,0:0:0:0:
440,160,8164,1,2,0:0:0:0:
468,252,8575,2,0,P|476:292|468:332,1,80,2|0,0:0|0:0,0:0:0:0:
380,292,9397,2,0,P|340:284|300:292,1,80,2|0,0:0|0:0,0:0:0:0:
216,332,10219,6,0,B|204:292|216:252|216:252|228:212|216:172,1,160,2|2,0:0|0:0,0:0:0:0:
364,52,11862,1,2,0:0:0:0:
212,100,14746,5,2,0:0:0:0:
120,72,15094,1,0,0:0:0:0:
72,156,15443,6,0,P|60:236|72:316,1,160,2|0,0:0|0:0,0:0:0:0:
152,368,16489,1,2,0:0:0:0:
244,340,16838,2,0,P|324:332|404:340,1,160,2|0,0:0|0:0,0:0:0:0:
448,256,17884,2,0,L|448:212,1,40,2|0,0:0|0:0,0:0:0:0:
448,168,18233,6,0,P|368:176|288:168,1,160,2|0,0:0|0:0,0:0:0:0:
196,144,19280,1,2,0:0:0:0:
116,196,19629,2,0,L|116:356,1,160,2|0,0:0|0:0,0:0:0:0:
212,356,20675,2,0,L|212:316,1,40,2|0,0:0|0:0,0:0:0:0:
212,268,21024,6,0,P|292:260|372:268,1,160,2|0,0:0|0:0,0:0:0:0:
464,292,22070,1,2,0:0:0:0:
492,200,22419,2,0,P|493:119|476:40,1,160,2|2,0:0|0:0,0:0:0:0:
380,36,23466,1,0,0:0:0:0:
288,64,23815,6,0,P|232:72|128:52,1,160,2|0,0:0|0:0,0:0:0:0:
40,24,24861,2,0,L|44:104,1,80,2|2,0:0|0:0,0:0:0:0:
180,240,25908,2,0,L|184:160,1,80,2|0,0:0|0:0,0:0:0:0:
248,88,26605,6,0,P|324:108|404:100,1,160,2|2,0:0|0:0,0:0:0:0:
496,72,27652,1,0,0:0:0:0:
468,164,28001,2,0,P|452:240|460:323,1,160,2|2,0:0|0:0,0:0:0:0:
376,368,29047,1,0,0:0:0:0:
284,340,29396,6,0,P|204:324|124:332,1,160,2|0,0:0|0:0,0:0:0:0:
36,300,30442,1,2,0:0:0:0:
64,208,30791,2,0,P|72:128|56:50,1,160,2|0,0:0|0:0,0:0:0:0:
148,24,31838,1,2,0:0:0:0:
240,52,32187,6,0,P|280:60|320:52,1,80,2|0,0:0|0:0,0:0:0:0:
364,40,32710,2,0,P|356:100|364:160,1,120,2|2,0:0|0:0,0:0:0:0:
440,216,33582,2,0,P|452:296|440:376,1,160,2|0,0:0|0:0,0:0:0:0:
344,364,34629,1,2,0:0:0:0:
276,296,34977,6,0,P|264:216|276:136,1,160,2|0,0:0|0:0,0:0:0:0:
332,60,36024,1,2,0:0:0:0:
332,60,37070,2,0,P|292:64|252:60,1,80,2|0,0:0|0:0,0:0:0:0:
164,100,37751,6,0,P|176:180|164:260,1,160,2|8,1:2|0:0,0:0:0:0:
124,344,38773,1,2,0:0:0:0:
124,344,38944,1,0,1:0:0:0:
124,344,39114,2,0,P|164:352|204:344,1,80,2|0,1:2|1:0,0:0:0:0:
288,304,39796,1,8,0:0:0:0:
368,252,40137,2,0,L|368:204,1,40,2|0,0:0|0:0,0:0:0:0:
368,164,40478,6,0,P|288:144|212:164,1,160,2|8,1:2|0:0,0:0:0:0:
132,212,41501,1,2,0:0:0:0:
132,212,41671,1,0,1:0:0:0:
132,212,41841,2,0,L|128:132,2,80,2|0|8,1:2|1:0|0:0,0:0:0:0:
68,284,42864,2,0,L|72:324,1,40,2|0,0:0|0:0,0:0:0:0:
108,356,43205,6,0,P|184:344|268:356,1,160,2|8,1:2|0:0,0:0:0:0:
360,376,44228,1,2,0:0:0:0:
360,376,44399,1,0,1:0:0:0:
360,376,44569,2,0,P|400:384|440:376,1,80,2|0,1:2|1:0,0:0:0:0:
400,288,45251,2,0,L|400:244,1,40,10|0,0:0|0:0,0:0:0:0:
420,204,45591,1,2,0:0:0:0:
448,112,45932,6,0,P|368:124|288:104,1,160,2|8,1:2|0:0,0:0:0:0:
204,68,46955,1,2,0:0:0:0:
204,68,47126,1,0,1:0:0:0:
204,68,47296,2,0,P|196:108|204:148,1,80,2|0,1:2|1:0,0:0:0:0:
280,204,47978,2,0,P|288:244|280:284,1,80,10|2,0:0|0:0,0:0:0:0:
192,244,48660,6,0,P|112:252|36:224,1,160,2|10,1:2|0:0,0:0:0:0:
41,177,49512,2,0,L|45:129,1,40,0|2,0:0|0:0,0:0:0:0:
56,40,50023,2,0,P|136:32|212:60,1,160,2|10,1:2|0:0,0:0:0:0:
256,72,50876,1,0,0:0:0:0:
303,60,51046,1,2,0:0:0:0:
396,32,51387,6,0,P|462:39|452:119,1,160,2|8,1:2|0:0,0:0:0:0:
396,192,52410,1,2,0:0:0:0:
396,192,52581,1,0,1:0:0:0:
396,192,52751,2,0,P|388:232|396:272,1,80,2|0,1:2|1:0,0:0:0:0:
436,356,53432,2,0,P|396:364|356:356,1,80,8|2,0:0|0:0,0:0:0:0:
264,336,54114,6,0,P|188:324|104:336,1,160,2|8,1:2|0:0,0:0:0:0:
20,292,55137,1,2,0:0:0:0:
20,292,55308,1,0,1:0:0:0:
20,292,55478,2,0,L|20:212,1,80,2|0,1:2|1:0,0:0:0:0:
92,148,56160,1,8,0:0:0:0:
184,176,56501,1,2,0:0:0:0:
276,144,56841,6,0,P|336:132|392:144,2,120,2|2|2,0:0|0:0|0:0,0:0:0:0:
184,176,58174,2,0,P|176:216|184:256,1,80,2|8,0:0|0:0,0:0:0:0:
243,329,58841,1,8,0:0:0:0:
290,340,59007,1,8,0:0:0:0:
337,329,59174,1,2,0:0:0:0:
431,345,59507,6,0,P|408:270|338:236,1,160,6|8,1:2|0:0,0:0:0:0:
243,229,60529,1,2,0:0:0:0:
243,229,60700,1,0,1:0:0:0:
243,229,60870,2,0,P|256:190|283:159,1,80,2|0,1:2|1:0,0:0:0:0:
335,81,61552,2,0,P|360:111|373:148,1,80,8|2,0:0|0:0,0:0:0:0:
339,237,62234,6,0,P|379:245|419:237,1,80,2|0,1:2|1:0,0:0:0:0:
499,189,62916,1,8,0:0:0:0:
499,285,63257,1,2,0:0:0:0:
499,285,63427,1,0,1:0:0:0:
499,285,63597,2,0,L|499:365,1,80,2|0,1:2|1:0,0:0:0:0:
403,373,64279,2,0,L|403:293,1,80,8|2,0:0|0:0,0:0:0:0:
399,197,64961,6,0,P|319:209|239:197,1,160,2|8,1:2|0:0,0:0:0:0:
151,165,65984,1,2,0:0:0:0:
151,165,66154,1,0,1:0:0:0:
151,165,66325,2,0,L|151:245,1,80,2|0,1:2|1:0,0:0:0:0:
55,253,67007,2,0,L|55:173,1,80,8|2,0:0|0:0,0:0:0:0:
55,77,67688,6,0,P|95:85|135:77,1,80,2|0,1:2|1:0,0:0:0:0:
227,57,68370,1,8,0:0:0:0:
323,77,68711,1,2,0:0:0:0:
323,77,68882,1,0,1:0:0:0:
323,77,69052,2,0,P|363:69|403:77,1,80,2|0,1:2|1:0,0:0:0:0:
481,129,69734,2,0,L|481:209,1,80,8|2,0:0|0:0,0:0:0:0:
483,305,70416,6,0,P|403:293|323:305,1,160,2|8,1:2|0:0,0:0:0:0:
235,337,71438,1,2,0:0:0:0:
235,337,71609,1,0,1:0:0:0:
235,337,71779,2,0,P|196:324|165:297,1,80,2|0,1:2|1:0,0:0:0:0:
87,245,72461,2,0,P|117:220|154:207,1,80,8|2,0:0|0:0,0:0:0:0:
243,166,73143,6,0,P|250:206|243:245,1,80,2|0,1:2|1:0,0:0:0:0:
166,299,73825,1,8,0:0:0:0:
87,245,74166,1,2,0:0:0:0:
87,245,74336,1,0,1:0:0:0:
87,245,74507,2,0,P|79:205|87:166,1,80,2|0,1:2|1:0,0:0:0:0:
48,77,75188,2,0,P|87:69|126:77,1,80,8|2,0:0|0:0,0:0:0:0:
215,113,75870,5,2,1:2:0:0:
371,149,77234,5,2,0:0:0:0:
279,261,78257,5,2,0:0:0:0:
279,261,78597,1,2,0:0:0:0:
256,192,78938,12,0,81325,1:2:0:0:
