osu file format v14

[General]
AudioFilename: July - I remember you (Cut. Ver).mp3
AudioLeadIn: 2000
PreviewTime: 14746
Countdown: 0
SampleSet: Soft
StackLeniency: 0.7
Mode: 0
LetterboxInBreaks: 0
WidescreenStoryboard: 0

[Editor]
DistanceSpacing: 1.2
BeatDivisor: 8
GridSize: 4
TimelineZoom: 0.8

[Metadata]
Title:I remember you
TitleUnicode:너를 기억하다
Artist:July
ArtistUnicode:줄라이
Creator:Mako Sakata
Version:Niva's Galau
Source:
Tags:Piano Hip hop Niva Nivalis Hinsvar 이동훈 Digitalrecord New Age Valentine
BeatmapID:590103
BeatmapSetID:257873

[Difficulty]
HPDrainRate:7
CircleSize:4.5
OverallDifficulty:7.5
ApproachRate:8.2
SliderMultiplier:2.75
SliderTickRate:2

[Events]
//Background and Video events
0,0,"Bgirememberyou.png",0,0
//Break Periods
2,12062,14026
//Storyboard Layer 0 (Background)
//Storyboard Layer 1 (Fail)
//Storyboard Layer 2 (Pass)
//Storyboard Layer 3 (Foreground)
//Storyboard Sound Samples

[TimingPoints]
356,821.917808219178,4,2,1,35,1,0
1999,-153.846153846154,4,2,1,25,0,0
2821,-200,4,2,1,30,0,0
2924,-200,4,2,1,10,0,0
3438,-200,4,2,1,10,0,0
3643,-153.846153846154,4,2,1,35,0,0
6109,-153.846153846154,4,2,1,40,0,0
6520,-153.846153846154,4,2,1,35,0,0
8575,-153.846153846154,4,2,1,25,0,0
8986,-153.846153846154,4,2,1,30,0,0
9397,-153.846153846154,4,2,1,35,0,0
11862,-153.846153846154,4,2,1,20,0,0
14746,697.674418604651,4,2,1,25,1,8
15094,-100,4,2,1,30,0,0
15443,697.674418604651,4,2,1,35,1,0
15443,-125,4,2,1,35,0,0
17187,-125,4,2,1,25,0,0
17536,-125,4,2,1,30,0,0
17884,-125,4,2,1,35,0,0
19629,-200,4,2,1,35,0,0
19977,-200,4,2,1,25,0,0
20326,-200,4,2,1,30,0,0
20675,-200,4,2,1,35,0,0
20849,-125,4,2,1,35,0,0
22768,-125,4,2,1,30,0,0
23117,-125,4,2,1,35,0,0
24163,-125,4,2,1,25,0,0
24512,-125,4,2,1,30,0,0
24861,-125,4,2,1,35,0,0
27129,-125,4,2,1,30,0,0
27303,-125,4,2,1,35,0,0
28349,-125,4,2,1,30,0,0
28698,-125,4,2,1,35,0,0
29745,-125,4,2,1,25,0,0
30094,-125,4,2,1,30,0,0
30442,-125,4,2,1,35,0,0
31140,-125,4,2,1,25,0,0
31489,-125,4,2,1,30,0,0
31838,-125,4,2,1,35,0,0
33931,-125,4,2,1,25,0,0
34280,-125,4,2,1,30,0,0
34629,-125,4,2,1,35,0,0
35326,-125,4,2,1,25,0,0
35675,-125,4,2,1,30,0,0
36024,-125,4,2,1,35,0,0
37070,681.818181818182,4,2,1,25,1,8
37410,-125,4,2,1,30,0,0
37751,681.818181818182,4,2,1,35,1,0
56841,666.666666666667,4,2,1,35,1,0
58174,-100,4,2,1,40,0,0
58507,-100,4,2,1,35,0,0
59174,-200,4,2,1,35,0,0
59424,-200,4,2,1,10,0,0
59507,681.818181818182,4,2,1,35,1,1
70075,-100,4,2,1,40,0,1
70245,-100,4,2,1,30,0,1
70416,-100,4,2,1,35,0,1
75870,-100,4,2,1,35,0,0
77234,-100,4,2,1,25,0,0
78257,-100,4,2,1,25,0,0
78597,-161.290322580645,4,2,1,25,0,0
78683,-161.290322580645,4,2,1,5,0,0
79024,-161.290322580645,4,2,1,10,0,0
79364,-161.290322580645,4,2,1,15,0,0
79705,-161.290322580645,4,2,1,20,0,0
80046,-161.290322580645,4,2,1,25,0,0
80387,-161.290322580645,4,2,1,30,0,0
80728,-161.290322580645,4,2,1,35,0,0
81325,-161.290322580645,4,2,1,35,0,0

[Colours]
Combo1 : 252,206,255
Combo2 : 176,251,186
Combo3 : 149,179,255
Combo4 : 255,213,128

[HitObjects]
54,215,356,21,0,0:0:0:0:
156,148,766,1,0,0:0:0:0:
189,352,1177,1,0,0:0:0:0:
66,329,1588,1,2,0:0:0:0:
252,239,1999,2,0,P|297:229|342:240,1,89.3749959087374
462,147,2821,6,0,P|413:163|359:145,1,103.125,2|0,0:0|0:0,0:0:0:0:
359,142,3643,22,0,L|378:236,1,89.3749959087374
232,347,4465,2,0,L|243:250,1,89.3749959087374,0|2,0:0|0:0,0:0:0:0:
73,145,5287,2,0,P|115:160|166:149,1,89.3749959087374
301,85,6109,2,0,L|246:79,1,44.6874979543687,2|0,0:0|0:0,0:0:0:0:
358,138,6520,1,2,0:0:0:0:
358,138,6931,6,0,P|347:180|361:226,1,89.3749959087374
419,353,7753,2,0,B|386:353|386:353|361:342|361:342|332:342,1,89.3749959087374,0|2,0:0|0:0,0:0:0:0:
190,288,8575,1,0,0:0:0:0:
332,342,8986,1,0,0:0:0:0:
310,197,9397,5,2,0:0:0:0:
310,197,9602,2,0,L|305:156,2,22.3437489771843,0|2|0,0:0|0:0|0:0,0:0:0:0:
275,277,10013,1,0,0:0:0:0:
190,288,10219,2,0,B|154:276|127:293|127:293|81:278|81:278|52:296|19:285,1,178.749991817475,2|0,0:0|0:0,0:0:0:0:
15,277,11862,21,2,0:0:0:0:
11,270,14746,5,2,0:0:0:0:
6,263,15094,1,2,0:0:0:0:
2,256,15443,6,0,P|52:279|107:267,1,110,2|0,0:0|0:0,0:0:0:0:
165,219,15966,2,0,B|181:180|175:145|175:145|193:108,1,110,2|0,0:0|0:0,0:0:0:0:
250,12,16489,1,2,0:0:0:0:
250,12,16838,21,2,0:0:0:0:
297,73,17187,1,0,0:0:0:0:
372,83,17536,1,0,0:0:0:0:
442,60,17884,2,0,L|457:114,1,55,2|0,0:0|0:0,0:0:0:0:
509,240,18233,6,0,P|453:232|402:259,1,110,2|0,0:0|0:0,0:0:0:0:
344,300,18756,2,0,B|318:305|292:293|292:293|263:280|234:285,1,110,2|0,0:0|0:0,0:0:0:0:
137,204,19280,1,2,0:0:0:0:
137,204,19629,6,0,L|120:132,1,68.75,2|0,0:0|0:0,0:0:0:0:
276,18,20326,2,0,L|266:99,1,68.75,0|2,0:0|0:0,0:0:0:0:
255,162,20849,1,0,0:0:0:0:
213,227,21024,22,0,P|263:205|320:212,1,110,2|0,0:0|0:0,0:0:0:0:
388,240,21547,2,0,B|442:248|442:248|492:219,1,110,2|0,0:0|0:0,0:0:0:0:
422,128,22070,1,2,0:0:0:0:
422,128,22419,5,2,0:0:0:0:
349,152,22768,1,0,0:0:0:0:
284,106,23117,2,0,L|270:45,1,55,2|0,0:0|0:0,0:0:0:0:
349,152,23466,2,0,P|296:186|248:178,1,110,2|2,0:0|0:0,0:0:0:0:
149,99,24163,5,0,0:0:0:0:
252,180,24512,1,0,0:0:0:0:
142,254,24861,1,2,0:0:0:0:
38,173,25210,1,2,0:0:0:0:
38,173,25908,2,0,B|32:133|32:133|41:103|41:103|34:66,1,110,2|0,0:0|0:0,0:0:0:0:
28,249,26605,22,0,B|68:253|94:225|94:225|134:226,1,110,2|0,0:0|0:0,0:0:0:0:
203,254,27129,1,0,0:0:0:0:
192,177,27303,2,0,L|183:99,1,55,2|0,0:0|0:0,0:0:0:0:
263,203,27652,2,0,P|319:214|366:185,1,110,0|2,0:0|0:0,0:0:0:0:
173,53,28349,1,0,0:0:0:0:
19,195,28698,6,0,L|30:258,1,55,2|0,0:0|0:0,0:0:0:0:
0,321,29047,2,0,P|41:291|103:292,1,110,0|2,0:0|0:0,0:0:0:0:
257,348,29745,1,0,0:0:0:0:
99,291,30094,1,0,0:0:0:0:
123,119,30442,1,2,0:0:0:0:
294,145,30791,6,0,P|348:151|399:123,1,110,2|0,0:0|0:0,0:0:0:0:
250,87,31489,2,0,P|246:138|240:217,1,110,0|2,0:0|0:0,0:0:0:0:
71,368,32187,22,0,P|65:309|60:251,1,110,2|0,0:0|0:0,0:0:0:0:
15,195,32710,2,0,P|70:216|125:200,1,110,2|0,0:0|0:0,0:0:0:0:
256,133,33233,1,2,0:0:0:0:
256,133,33582,5,2,0:0:0:0:
289,204,33931,1,0,0:0:0:0:
364,229,34280,1,0,0:0:0:0:
442,218,34629,1,2,0:0:0:0:
501,165,34977,6,0,L|495:297,1,110,2|0,0:0|0:0,0:0:0:0:
321,384,35675,2,0,L|307:270,1,110,0|2,0:0|0:0,0:0:0:0:
306,266,37070,21,2,0:0:0:0:
305,258,37410,1,2,0:0:0:0:
304,250,37751,6,0,P|359:284|430:260,1,137.5,2|0,1:2|0:0,0:0:0:0:
461,190,38262,2,0,L|450:123,1,68.75,2|8,0:0|0:0,0:0:0:0:
253,7,38773,1,2,0:2:0:0:
241,88,38944,1,0,1:2:0:0:
183,147,39114,2,0,P|241:118|307:137,1,137.5,2|0,1:2|1:2,0:0:0:0:
497,289,39796,2,0,P|439:318|373:299,1,137.5,8|2,0:0|0:0,0:0:0:0:
432,237,40307,1,0,0:0:0:0:
500,302,40478,6,0,P|444:329|364:307,1,137.5,2|0,1:2|1:2,0:0:0:0:
296,281,40989,1,2,0:0:0:0:
305,363,41160,1,8,0:0:0:0:
348,141,41501,1,2,0:0:0:0:
357,223,41671,1,0,1:2:0:0:
296,281,41841,2,0,B|250:291|216:264|216:264|160:264,1,137.5,2|0,1:2|1:2,0:0:0:0:
296,103,42523,2,0,B|250:93|216:120|216:120|160:120,1,137.5,8|2,0:0|0:0,0:0:0:0:
122,192,43035,1,0,0:0:0:0:
274,192,43205,22,0,P|341:183|385:127,1,137.5,2|0,1:2|0:0,0:0:0:0:
448,68,43716,2,0,L|463:146,1,68.75,2|8,0:0|0:0,0:0:0:0:
457,314,44228,2,0,L|443:232,1,68.75,2|0,0:0|1:2,0:0:0:0:
499,375,44569,2,0,P|464:334|383:328,1,137.5,2|0,1:2|1:2,0:0:0:0:
256,194,45251,1,10,0:0:0:0:
256,187,45421,2,0,L|256:103,1,68.75,0|2,0:0|0:0,0:0:0:0:
127,327,45932,6,0,P|60:327|13:375,2,137.5,2|0|8,1:2|1:2|0:0,0:0:0:0:
88,166,46955,2,0,L|78:96,1,68.75,2|0,0:0|1:2,0:0:0:0:
71,238,47296,2,0,B|112:248|143:215|143:215|203:215,1,137.5,2|0,1:2|1:2,0:0:0:0:
348,93,47978,1,10,0:0:0:0:
201,216,48319,1,6,2:0:0:0:
300,369,48660,6,0,P|368:378|423:343,1,137.5,2|0,1:2|0:0,0:0:0:0:
503,365,49171,1,0,0:0:0:0:
427,331,49341,1,10,0:0:0:0:
398,245,49512,1,0,0:0:0:0:
412,146,49682,2,0,L|422:67,1,68.75,2|0,0:0|1:2,0:0:0:0:
311,299,50023,22,0,P|246:319|191:282,2,137.5,2|0|10,1:2|1:2|0:0,0:0:0:0:
398,245,50876,1,0,0:0:0:0:
492,268,51046,1,2,0:0:0:0:
492,268,51387,6,0,B|486:221|486:221|495:179|495:179|487:133,1,137.5,2|0,1:2|1:2,0:0:0:0:
314,309,52069,2,0,P|366:343|439:333,1,137.5,8|2,0:0|0:0,0:0:0:0:
492,268,52580,1,0,1:2:0:0:
461,190,52751,2,0,P|409:156|336:166,1,137.5,2|0,1:2|1:2,0:0:0:0:
389,248,53262,1,0,0:0:0:0:
461,190,53432,2,0,L|452:106,1,68.75,8|0,0:0|0:0,0:0:0:0:
350,6,53773,2,0,L|339:81,1,68.75,2|0,0:0|0:0,0:0:0:0:
251,175,54114,6,0,P|181:193|128:160,1,137.5,2|0,1:2|0:0,0:0:0:0:
128,160,54626,1,2,0:0:0:0:
279,94,54796,2,0,P|329:145|327:208,1,137.5,8|2,0:0|0:0,0:0:0:0:
327,207,55307,1,0,1:2:0:0:
197,111,55478,2,0,P|216:41|271:11,1,137.5,2|0,1:2|1:2,0:0:0:0:
64,19,56160,2,0,B|108:19|108:19|152:35|152:35|198:34,1,137.5,8|2,0:0|0:0,0:0:0:0:
279,94,56671,1,0,0:0:0:0:
373,72,56841,22,0,P|407:128|378:192,1,137.5,2|2,1:2|3:0,0:0:0:0:
191,267,57341,2,0,B|228:262|256:247|256:247|284:261|322:267,1,137.5,0|2,1:2|3:0,0:0:0:0:
131,189,57841,2,0,P|104:128|139:72,1,137.5,0|4,1:2|0:0,0:0:0:0:
138,72,58507,5,10,0:2:0:0:
314,137,58674,1,0,1:2:0:0:
131,189,58841,1,10,0:0:0:0:
252,36,59007,1,8,0:0:0:0:
241,230,59174,6,0,L|255:291,1,51.5625,4|0,3:0|0:0,0:0:0:0:
256,291,59507,22,0,P|319:311|377:275,1,137.5,4|0,1:2|0:0,0:0:0:0:
185,126,60188,2,0,P|122:106|64:142,1,137.5,8|2,0:0|0:0,0:0:0:0:
111,63,60700,1,0,1:2:0:0:
131,190,60870,6,0,B|137:245|137:245|156:287|203:297,1,137.5,2|0,1:2|0:0,0:0:0:0:
314,295,61382,2,0,B|356:287|375:245|375:245|381:190,1,137.5,2|0,0:0|0:0,0:0:0:0:
399,47,61893,2,0,L|392:118,1,68.75,2|0,0:0|0:0,0:0:0:0:
466,22,62234,6,0,B|429:33|399:22|399:22|364:9|332:21,1,137.5,2|0,1:2|1:2,0:0:0:0:
247,90,62745,2,0,P|222:152|256:219,1,137.5,2|0,0:0|0:0,0:0:0:0:
342,332,63257,2,0,P|348:295|334:259,1,68.75,2|0,0:0|1:2,0:0:0:0:
201,155,63597,22,0,B|167:155|134:169|134:169|103:155|61:155,2,137.5,2|0|8,1:2|1:2|0:0,0:0:0:0:
201,155,64620,2,0,L|194:86,1,68.75,2|0,0:0|0:0,0:0:0:0:
156,225,64961,6,0,P|232:232|279:185,1,137.5,2|0,1:2|0:0,0:0:0:0:
104,163,65643,2,0,L|120:300,1,137.5,8|2,0:0|0:0,0:0:0:0:
119,299,66154,1,0,1:2:0:0:
250,363,66325,6,0,P|315:378|372:331,1,137.5,2|0,1:2|1:2,0:0:0:0:
440,258,66836,2,0,B|445:238|432:213|432:213|449:172|449:172|436:150|440:125,1,137.5,2|0,0:0|0:0,0:0:0:0:
351,7,67347,2,0,L|357:90,1,68.75,2|0,0:0|0:0,0:0:0:0:
283,142,67688,22,0,P|219:162|161:125,2,137.5,2|0|8,1:2|1:2|0:0,0:0:0:0:
290,135,68711,2,0,L|282:225,1,68.75,2|0,0:0|1:2,0:0:0:0:
340,298,69052,6,0,B|353:260|353:260|316:302|257:289,1,137.5,2|0,1:2|1:2,0:0:0:0:
186,133,69734,2,0,P|219:191|284:204,1,137.5,8|6,0:0|0:0,0:0:0:0:
340,298,70245,1,0,0:0:0:0:
284,204,70416,6,0,B|250:213|217:195|217:195|186:175|152:185,1,137.5,2|0,1:2|0:0,0:0:0:0:
399,257,71097,2,0,P|423:193|387:135,1,137.5,8|2,0:0|0:0,0:0:0:0:
315,78,71609,1,0,1:2:0:0:
241,141,71779,22,0,P|208:198|232:260,1,137.5,2|0,1:2|1:2,0:0:0:0:
182,201,72291,2,0,B|144:202|116:217|116:217|86:202|47:202,1,137.5,2|0,0:0|0:0,0:0:0:0:
117,124,72802,2,0,L|117:51,1,68.75,2|0,0:0|0:0,0:0:0:0:
117,248,73143,6,0,B|117:305|117:305|134:350|178:364,1,137.5,2|0,1:2|1:2,0:0:0:0:
395,248,73825,2,0,B|395:305|395:305|378:350|341:361,1,137.5,8|2,0:0|0:0,0:0:0:0:
256,309,74336,1,0,1:2:0:0:
195,246,74507,6,0,P|257:273|325:238,1,137.5,2|0,1:2|0:0,0:0:0:0:
375,168,75018,2,0,B|366:122|366:122|381:81|381:81|374:27,1,137.5,2|0,0:0|0:0,0:0:0:0:
451,218,75529,2,0,L|468:307,1,68.75,2|0,0:0|0:0,0:0:0:0:
316,375,75870,21,2,1:2:0:0:
318,364,77234,1,2,0:0:0:0:
321,351,78257,37,0,0:0:0:0:
321,351,78597,2,0,B|319:307|240:261|177:269|156:234|137:189|162:122|216:134|237:138|250:149|250:149|257:134|274:123|324:98|369:154|368:203|353:244|285:251|227:321|243:369,1,681.999972943116,2|0,0:0|1:2,0:0:0:0:
