osu file format v14

[General]
AudioFilename: July - I remember you (Cut. Ver).mp3
AudioLeadIn: 2000
PreviewTime: 14746
Countdown: 0
SampleSet: Soft
StackLeniency: 0.7
Mode: 0
LetterboxInBreaks: 0
WidescreenStoryboard: 0

[Editor]
DistanceSpacing: 1.3
BeatDivisor: 8
GridSize: 4
TimelineZoom: 1.2

[Metadata]
Title:I remember you
TitleUnicode:너를 기억하다
Artist:July
ArtistUnicode:줄라이
Creator:Mako Sakata
Version:Hinsvar's Hard
Source:
Tags:Piano Hip hop Niva Nivalis Hinsvar 이동훈 Digitalrecord New Age Valentine
BeatmapID:615311
BeatmapSetID:257873

[Difficulty]
HPDrainRate:5.5
CircleSize:4
OverallDifficulty:6
ApproachRate:7
SliderMultiplier:2.24
SliderTickRate:2

[Events]
//Background and Video events
0,0,"Bgirememberyou.png",0,0
//Break Periods
//Storyboard Layer 0 (Background)
//Storyboard Layer 1 (Fail)
//Storyboard Layer 2 (Pass)
//Storyboard Layer 3 (Foreground)
//Storyboard Sound Samples

[TimingPoints]
356,821.917808219178,4,2,1,30,1,0
356,-133.333333333333,4,2,1,30,0,0
11862,-200,4,2,1,30,0,0
12068,-200,4,2,1,5,0,0
14746,697.674418604651,4,2,1,25,1,8
15443,697.674418604651,4,2,1,40,1,0
36024,-133.333333333333,4,2,1,20,0,0
37070,681.818181818182,4,2,1,30,1,8
37070,-133.333333333333,4,2,1,30,0,0
37751,681.818181818182,4,2,1,40,1,0
48319,-100,4,2,1,30,0,0
48660,-100,4,2,1,40,0,0
56841,666.666666666667,4,2,1,30,1,0
56841,-114.942528735632,4,2,1,30,0,0
58174,-100,4,2,1,40,0,0
59507,681.818181818182,4,2,1,50,1,1
70075,-100,4,2,1,30,0,1
70416,-100,4,2,1,50,0,1
75870,-200,4,2,1,50,0,0
78938,-200,4,2,1,20,0,0
79961,-200,4,2,1,30,0,0
80643,-200,4,2,1,40,0,0
81325,-200,4,2,1,50,0,0

[Colours]
Combo1 : 252,206,255
Combo2 : 176,251,186
Combo3 : 149,179,255
Combo4 : 255,213,128

[HitObjects]
382,181,356,6,0,P|419:170|471:176,2,84.0000032043458,0|2|0,0:0|0:0|0:0,0:0:0:0:
323,241,1588,1,2,0:0:0:0:
245,208,1999,2,0,P|216:181|196:133,2,84.0000032043458,0|0|2,0:0|0:0|0:0,0:0:0:0:
245,208,3643,5,0,0:0:0:0:
316,163,4054,1,2,0:0:0:0:
388,205,4465,1,0,0:0:0:0:
455,154,4876,1,2,0:0:0:0:
431,73,5287,2,0,P|356:31|284:75,1,168.000006408692,0|2,0:0|0:0,0:0:0:0:
274,105,6314,1,2,0:0:0:0:
284,145,6520,1,2,0:0:0:0:
338,267,6931,6,0,P|379:273|431:258,2,84.0000032043458,0|2|0,0:0|0:0|0:0,0:0:0:0:
262,228,8164,1,2,0:0:0:0:
187,188,8575,2,0,B|154:165|106:188|106:188|61:209|20:188,1,168.000006408692,0|2,0:0|0:0,0:0:0:0:
52,114,9602,6,0,L|66:86,2,21.0000008010865,0|0|2,0:0|0:0|0:0,0:0:0:0:
26,190,10013,1,0,0:0:0:0:
42,272,10219,2,0,P|83:276|127:257,1,84.0000032043458,2|0,0:0|0:0,0:0:0:0:
213,173,11040,1,2,0:0:0:0:
209,177,11862,6,0,B|265:166|310:221|310:221|362:169|414:185,1,224,2|0,0:0|0:0,0:0:0:0:
465,342,14746,5,2,0:0:0:0:
389,259,15094,1,2,0:0:0:0:
306,334,15443,6,0,P|247:343|189:320,1,112,2|0,0:0|0:0,0:0:0:0:
165,279,15966,2,0,B|160:230|160:230|181:168|181:168|175:103,1,168,2|2,0:0|0:0,0:0:0:0:
87,45,16838,1,2,0:0:0:0:
191,5,17187,1,0,0:0:0:0:
295,44,17536,1,0,0:0:0:0:
411,14,17884,1,2,0:0:0:0:
411,14,18059,1,0,0:0:0:0:
411,14,18233,6,0,P|430:63|431:136,1,112,2|0,0:0|0:0,0:0:0:0:
468,165,18756,2,0,P|404:244|328:265,1,168,2|2,0:0|0:0,0:0:0:0:
235,232,19629,1,2,0:0:0:0:
173,138,19977,1,0,0:0:0:0:
256,63,20326,1,0,0:0:0:0:
318,156,20675,1,2,0:0:0:0:
318,156,20849,1,0,0:0:0:0:
318,156,21024,6,0,P|376:168|435:138,1,112,2|0,0:0|0:0,0:0:0:0:
469,116,21547,1,2,0:0:0:0:
469,116,21722,2,0,L|489:228,1,112,0|2,0:0|0:0,0:0:0:0:
430,321,22419,1,2,0:0:0:0:
324,358,22768,1,0,0:0:0:0:
231,294,23117,2,0,L|241:237,2,56,2|0|2,0:0|0:0|0:0,0:0:0:0:
122,324,23815,6,0,P|96:281|102:208,1,112,2|0,0:0|0:0,0:0:0:0:
150,122,24512,1,0,0:0:0:0:
259,96,24861,1,2,0:0:0:0:
361,141,25210,2,0,P|377:193|354:249,1,112,2|0,0:0|0:0,0:0:0:0:
277,323,25908,1,2,0:0:0:0:
443,300,26256,1,2,0:0:0:0:
261,210,26605,6,0,P|180:243|166:371,1,224,2|2,0:0|0:0,0:0:0:0:
163,367,27477,1,0,0:0:0:0:
163,367,27652,1,2,0:0:0:0:
74,198,28001,1,2,0:0:0:0:
74,198,28698,2,0,L|84:141,1,56,2|0,0:0|0:0,0:0:0:0:
99,71,29047,1,2,0:0:0:0:
232,129,29396,6,0,P|282:133|330:95,1,112,2|0,0:0|0:0,0:0:0:0:
415,214,30094,2,0,P|369:235|347:292,1,112,0|2,0:0|0:0,0:0:0:0:
213,348,30791,2,0,P|115:292|134:183,1,224,2|0,0:0|0:0,0:0:0:0:
252,123,31838,1,2,0:0:0:0:
373,202,32187,6,0,P|394:150|388:87,1,112,2|0,0:0|0:0,0:0:0:0:
358,64,32710,2,0,P|434:87|498:35,1,168,2|2,0:0|0:0,0:0:0:0:
483,180,33582,1,2,0:0:0:0:
409,264,33931,1,0,0:0:0:0:
297,269,34280,1,0,0:0:0:0:
218,188,34629,1,2,0:0:0:0:
241,78,34977,6,0,P|281:39|349:34,2,112,2|0|0,0:0|0:0|0:0,0:0:0:0:
335,131,36024,2,0,P|366:209|257:316,1,252.000009613037,2|2,0:0|0:0,0:0:0:0:
156,280,37410,1,2,0:0:0:0:
118,180,37751,6,0,L|145:62,1,112,2|0,3:2|0:0,0:0:0:0:
191,41,38262,1,2,0:0:0:0:
191,41,38432,2,0,P|247:51|317:34,1,112,8|2,0:0|0:0,0:0:0:0:
386,113,39114,1,2,3:2:0:0:
434,213,39455,1,0,0:0:0:0:
373,307,39796,1,8,0:0:0:0:
265,337,40137,2,0,L|204:327,1,56,2|0,0:0|0:0,0:0:0:0:
193,274,40478,6,0,P|143:265|79:280,1,112,2|0,3:2|0:0,0:0:0:0:
45,319,40989,1,2,0:0:0:0:
45,319,41160,2,0,L|35:201,1,112,8|2,0:0|0:0,0:0:0:0:
71,101,41841,1,2,3:2:0:0:
154,175,42182,1,0,0:0:0:0:
190,69,42523,1,8,0:0:0:0:
276,139,42864,2,0,L|345:128,2,56,2|0|2,0:0|0:0|3:2,0:0:0:0:
261,250,43546,6,0,L|315:266,2,56,0|2|8,0:0|0:0|0:0,0:0:0:0:
152,277,44228,1,2,0:0:0:0:
152,277,44398,1,0,3:0:0:0:
152,277,44569,2,0,P|136:240|148:164,2,112,2|0|10,3:2|3:0|0:0,0:0:0:0:
204,296,45421,1,0,0:0:0:0:
256,280,45591,1,2,0:0:0:0:
360,164,45932,6,0,P|416:160|468:192,2,112,2|0|8,3:2|0:0|0:0,0:0:0:0:
252,197,46955,1,2,0:0:0:0:
204,166,47126,1,0,3:0:0:0:
186,113,47296,2,0,P|185:58|212:2,1,112,2|0,3:2|3:0,0:0:0:0:
346,53,47978,2,0,P|347:108|320:164,1,112,10|6,3:2|0:0,0:0:0:0:
144,274,48660,5,2,3:2:0:0:
237,339,49001,1,0,0:0:0:0:
330,277,49341,2,0,L|386:268,2,56,10|0|2,0:0|0:0|0:0,0:0:0:0:
298,229,49853,1,0,3:0:0:0:
323,179,50023,2,0,P|340:130|324:72,1,112,2|0,3:2|3:0,0:0:0:0:
222,27,50705,1,10,0:0:0:0:
170,50,50876,1,0,0:0:0:0:
117,31,51046,1,2,0:0:0:0:
47,159,51387,6,0,L|34:275,2,112,2|0|8,3:2|0:0|0:0,0:0:0:0:
146,210,52410,1,2,0:0:0:0:
197,231,52580,1,0,3:0:0:0:
250,212,52751,2,0,P|265:161|254:95,1,112,2|0,3:2|3:0,0:0:0:0:
120,54,53432,1,8,0:0:0:0:
225,16,53773,1,2,0:0:0:0:
319,181,54114,6,0,P|370:175|424:145,1,112,2|0,3:2|0:0,0:0:0:0:
402,93,54626,2,0,P|430:77|447:55,1,56,2|8,0:0|0:0,0:0:0:0:
409,252,55137,1,2,0:0:0:0:
409,252,55307,1,0,3:0:0:0:
409,252,55478,1,2,3:2:0:0:
313,314,55819,1,0,3:0:0:0:
213,263,56160,1,8,0:0:0:0:
104,291,56501,1,2,0:0:0:0:
51,139,56841,6,0,L|67:37,1,97.440000817749,2|0,3:2|3:0,0:0:0:0:
140,107,57341,2,0,L|196:21,1,97.440000817749,0|0,3:0|3:0,0:0:0:0:
232,114,57841,1,0,3:0:0:0:
232,114,58174,6,0,L|242:179,1,56,4|0,0:0|0:0,0:0:0:0:
256,264,58507,1,8,0:0:0:0:
168,228,58674,1,0,0:0:0:0:
92,285,58841,5,8,0:0:0:0:
180,322,59007,1,8,0:0:0:0:
168,227,59174,1,0,3:0:0:0:
168,228,59507,6,0,L|156:115,2,112,4|0|8,3:2|0:0|0:0,0:0:0:0:
295,298,60529,2,0,L|356:287,1,56,2|0,0:0|3:0,0:0:0:0:
396,231,60870,2,0,P|403:178|376:128,1,112,2|0,3:2|3:0,0:0:0:0:
321,79,61382,1,2,0:0:0:0:
321,79,61552,2,0,L|204:77,1,112,8|2,0:0|0:0,0:0:0:0:
134,202,62234,5,2,3:2:0:0:
245,295,62575,2,0,P|276:298|309:285,1,56,0|2,3:0|0:0,0:0:0:0:
335,227,62916,2,0,L|356:347,1,112,8|2,0:0|0:0,0:0:0:0:
354,337,63427,1,0,3:0:0:0:
354,337,63597,1,2,3:2:0:0:
485,273,63938,1,0,3:0:0:0:
458,129,64279,1,8,0:0:0:0:
313,111,64620,1,2,0:0:0:0:
202,206,64961,6,0,B|147:218|147:218|83:201,2,112,2|0|8,3:2|0:0|0:0,0:0:0:0:
313,111,65984,1,2,0:0:0:0:
313,111,66154,1,0,3:0:0:0:
313,111,66325,2,0,L|321:227,1,112,2|0,3:2|3:0,0:0:0:0:
393,223,66836,2,0,L|406:159,1,56,2|8,0:0|0:0,0:0:0:0:
349,33,67347,1,2,0:0:0:0:
204,12,67688,6,0,P|151:26|101:80,2,112,2|0|8,3:2|0:0|0:0,0:0:0:0:
291,128,68711,1,2,0:0:0:0:
353,166,68882,1,0,3:0:0:0:
421,142,69052,2,0,L|428:27,2,112,2|0|8,3:2|3:0|0:0,0:0:0:0:
349,331,70075,5,6,0:0:0:0:
263,214,70416,2,0,P|211:206|155:230,2,112,2|0|8,3:2|0:0|0:0,0:0:0:0:
405,245,71438,2,0,P|435:244|471:225,1,56,2|0,0:0|3:0,0:0:0:0:
481,164,71779,2,0,B|475:122|434:98|434:98|476:71|473:21,1,168,2|2,3:2|0:0,0:0:0:0:
473,28,72461,2,0,P|422:38|368:14,1,112,8|2,0:0|0:0,0:0:0:0:
305,146,73143,5,2,3:2:0:0:
197,47,73484,1,0,0:0:0:0:
166,189,73825,1,8,0:0:0:0:
305,146,74166,1,2,0:0:0:0:
375,128,74336,1,0,3:0:0:0:
439,162,74507,2,0,B|459:206|440:248|440:248|400:238|352:272,1,168,2|2,3:2|0:0,0:0:0:0:
329,327,75188,2,0,B|274:340|274:340|216:322,1,112,8|2,0:0|0:0,0:0:0:0:
126,263,75870,6,0,B|101:213|124:154|124:154|151:101|128:46,1,224,2|2,3:2|0:0,0:0:0:0:
132,50,78257,1,2,0:0:0:0:
132,50,78597,1,2,3:2:0:0:
256,192,78938,12,2,81325,3:2:0:0:
