osu file format v14

[General]
AudioFilename: July - I remember you (Cut. Ver).mp3
AudioLeadIn: 2000
PreviewTime: 14746
Countdown: 0
SampleSet: Soft
StackLeniency: 0.7
Mode: 0
LetterboxInBreaks: 0
WidescreenStoryboard: 0

[Editor]
DistanceSpacing: 1.5
BeatDivisor: 4
GridSize: 4
TimelineZoom: 1

[Metadata]
Title:I remember you
TitleUnicode:너를 기억하다
Artist:July
ArtistUnicode:줄라이
Creator:Mako Sakata
Version:Easy
Source:
Tags:Piano Hip hop Niva Nivalis Hinsvar 이동훈 Digitalrecord New Age Valentine
BeatmapID:591113
BeatmapSetID:257873

[Difficulty]
HPDrainRate:2
CircleSize:3
OverallDifficulty:2
ApproachRate:3
SliderMultiplier:1.2
SliderTickRate:1

[Events]
//Background and Video events
0,0,"Bgirememberyou.png",0,0
//Break Periods
2,12062,13306
//Storyboard Layer 0 (Background)
//Storyboard Layer 1 (Fail)
//Storyboard Layer 2 (Pass)
//Storyboard Layer 3 (Foreground)
//Storyboard Sound Samples

[TimingPoints]
356,821.917808219178,4,2,1,35,1,0
11862,-100,4,2,1,20,0,0
14746,697.674418604651,4,2,1,25,1,8
15443,697.674418604651,4,2,1,35,1,0
26605,-100,4,2,1,40,0,0
37070,681.818181818182,4,2,1,35,1,8
37751,681.818181818182,4,2,1,40,1,0
48319,-100,4,3,1,40,0,0
48660,-100,4,2,1,45,0,0
56841,666.666666666667,4,2,2,40,1,0
58174,-100,4,3,1,40,0,0
58507,-100,4,2,3,40,0,0
59174,-100,4,2,2,40,0,0
59507,681.818181818182,4,2,1,50,1,1
70075,-100,4,3,1,50,0,1
70416,-100,4,2,1,50,0,1
75870,-100,4,2,1,50,0,0
81325,-100,4,2,1,30,0,0

[Colours]
Combo1 : 252,206,255
Combo2 : 176,251,186
Combo3 : 149,179,255
Combo4 : 255,213,128

[HitObjects]
52,336,356,6,0,P|84:332|112:336,1,60,2|0,0:0|0:0,0:0:0:0:
200,352,1177,2,0,P|192:292|200:232,1,120,2|2,0:0|0:0,0:0:0:0:
288,252,2410,2,0,P|320:256|348:252,1,60,0|2,0:0|0:0,0:0:0:0:
348,72,3643,6,0,P|316:76|288:72,1,60,2|0,0:0|0:0,0:0:0:0:
200,56,4465,2,0,P|208:116|200:176,1,120,2|2,0:0|0:0,0:0:0:0:
164,260,5698,1,0,0:0:0:0:
96,317,6109,2,0,P|92:346|96:376,1,60,2|0,0:0|0:0,0:0:0:0:
180,346,6931,6,0,P|208:350|240:346,1,60,2|0,0:0|0:0,0:0:0:0:
328,328,7753,2,0,P|387:320|446:328,1,120,2|2,0:0|0:0,0:0:0:0:
488,248,8986,1,0,0:0:0:0:
448,168,9398,2,0,P|443:138|447:108,1,60,2|0,0:0|0:0,0:0:0:0:
372,60,10219,6,0,P|312:52|252:60,1,120,2|2,0:0|0:0,0:0:0:0:
312,228,11862,1,2,0:0:0:0:
140,148,14746,5,2,0:0:0:0:
124,236,15094,1,0,0:0:0:0:
200,284,15443,6,0,P|256:276|320:284,1,120,2|0,0:0|0:0,0:0:0:0:
404,312,16489,1,2,0:0:0:0:
452,236,16838,2,0,P|460:180|452:116,1,120,2|0,0:0|0:0,0:0:0:0:
280,60,18233,6,0,P|272:116|280:180,1,120,2|0,0:0|0:0,0:0:0:0:
268,268,19280,1,2,0:0:0:0:
180,248,19629,2,0,P|124:240|60:248,1,120,2|0,0:0|0:0,0:0:0:0:
124,80,21024,6,0,P|180:88|244:80,1,120,2|0,0:0|0:0,0:0:0:0:
330,60,22070,1,2,0:0:0:0:
364,144,22419,2,0,P|376:200|364:260,1,120,2|2,0:0|0:0,0:0:0:0:
192,320,23815,6,0,P|180:260|192:204,1,120,2|0,0:0|0:0,0:0:0:0:
232,122,24861,1,2,0:0:0:0:
321,135,25210,2,0,P|377:143|441:135,1,120,2|2,0:0|0:0,0:0:0:0:
481,215,26256,1,0,0:0:0:0:
428,288,26605,6,0,P|368:296|308:288,1,120,2|2,0:0|0:0,0:0:0:0:
236,236,27652,1,0,0:0:0:0:
160,188,28001,2,0,P|100:180|41:187,1,120,2|2,0:0|0:0,0:0:0:0:
24,276,29047,1,0,0:0:0:0:
100,324,29396,6,0,P|159:331|218:324,1,120,2|0,0:0|0:0,0:0:0:0:
308,324,30442,1,2,0:0:0:0:
340,240,30791,2,0,P|348:184|340:120,1,120,2|0,0:0|0:0,0:0:0:0:
290,46,31838,1,2,0:0:0:0:
200,48,32187,6,0,P|168:52|140:48,1,60,2|2,0:0|0:0,0:0:0:0:
100,68,32710,2,0,P|108:112|100:156,1,90,2|2,0:0|0:0,0:0:0:0:
68,240,33582,2,0,P|56:296|68:356,1,120,2|0,0:0|0:0,0:0:0:0:
156,336,34629,1,2,0:0:0:0:
244,356,34977,6,0,P|302:362|361:355,1,120,2|0,0:0|0:0,0:0:0:0:
452,340,36024,1,2,0:0:0:0:
452,340,37070,2,0,L|452:280,1,60,2|0,0:0|0:0,0:0:0:0:
392,220,37751,6,0,P|332:228|272:220,1,120,2|8,1:2|0:0,0:0:0:0:
184,232,38773,1,2,0:0:0:0:
216,148,39114,2,0,P|228:88|216:32,1,120,2|8,1:2|0:0,0:0:0:0:
44,88,40478,6,0,P|32:148|44:204,1,120,2|8,1:2|0:0,0:0:0:0:
44,294,41501,1,2,0:0:0:0:
128,260,41841,2,0,P|188:252|248:260,1,120,2|8,1:2|0:0,0:0:0:0:
424,292,43205,6,0,L|428:172,1,120,2|8,1:2|0:0,0:0:0:0:
448,84,44228,1,2,0:0:0:0:
360,104,44569,2,0,P|300:112|240:104,1,120,2|10,1:2|0:0,0:0:0:0:
64,136,45932,6,0,L|68:256,1,120,2|8,1:2|0:0,0:0:0:0:
132,320,46955,1,2,0:0:0:0:
220,300,47296,2,0,P|280:292|340:300,1,120,2|10,1:2|0:0,0:0:0:0:
428,320,48319,1,2,0:0:0:0:
504,272,48660,6,0,L|500:152,1,120,2|10,1:2|0:0,0:0:0:0:
452,76,49682,1,2,0:0:0:0:
364,96,50023,2,0,P|304:104|244:96,1,120,2|10,1:2|0:0,0:0:0:0:
164,136,51046,1,2,0:0:0:0:
184,224,51387,6,0,P|192:284|184:344,1,120,2|8,1:2|0:0,0:0:0:0:
96,360,52410,1,2,0:0:0:0:
64,276,52751,2,0,P|56:216|64:156,1,120,2|8,1:2|0:0,0:0:0:0:
60,68,53773,1,2,0:0:0:0:
148,68,54114,6,0,P|180:72|208:68,1,60,2|2,1:2|0:0,0:0:0:0:
252,76,54626,2,0,P|244:120|252:164,1,90,2|2,0:0|0:0,0:0:0:0:
300,240,55478,2,0,P|308:300|300:360,1,120,2|8,1:2|0:0,0:0:0:0:
212,376,56501,1,2,0:0:0:0:
122,357,56841,6,0,P|78:353|30:357,2,90,2|2|2,0:0|0:0|0:0,0:0:0:0:
160,276,58174,2,0,L|160:216,1,60,2|8,0:0|0:0,0:0:0:0:
231,160,58841,2,0,L|231:128,2,30,8|8|2,0:0|0:0|0:0,0:0:0:0:
256,244,59507,6,0,P|316:228|372:244,1,120,6|8,1:2|0:0,0:0:0:0:
372,333,60529,1,2,0:0:0:0:
449,287,60870,2,0,P|461:243|449:199,2,90,2|2|2,1:2|0:0|0:0,0:0:0:0:
370,243,62234,6,0,P|337:210|293:199,2,90,2|2|2,1:2|0:0|0:0,0:0:0:0:
292,288,63597,2,0,L|168:292,1,120,2|8,1:2|0:0,0:0:0:0:
80,292,64620,1,2,0:0:0:0:
126,214,64961,6,0,P|138:154|126:98,1,120,2|8,1:2|0:0,0:0:0:0:
194,38,65984,1,2,0:0:0:0:
282,58,66325,2,0,P|326:66|370:58,2,90,2|2|2,1:2|0:0|0:0,0:0:0:0:
214,117,67688,6,0,P|202:177|214:233,1,120,2|8,1:2|0:0,0:0:0:0:
214,324,68711,1,2,0:0:0:0:
298,290,69052,2,0,P|358:302|414:290,1,120,2|8,1:2|0:0,0:0:0:0:
492,244,70075,1,2,0:0:0:0:
444,168,70416,6,0,P|432:108|444:52,1,120,2|8,1:2|0:0,0:0:0:0:
360,20,71438,1,2,0:0:0:0:
272,40,71779,2,0,P|228:48|184:40,2,90,2|2|2,1:2|0:0|0:0,0:0:0:0:
340,99,73143,6,0,P|352:159|340:215,1,120,2|8,1:2|0:0,0:0:0:0:
256,252,74166,1,2,0:0:0:0:
176,208,74507,2,0,P|168:252|176:296,2,90,2|2|2,1:2|0:0|0:0,0:0:0:0:
208,124,75870,5,2,1:2:0:0:
216,116,77234,5,2,0:0:0:0:
256,192,78597,12,0,81325,1:2:0:0:
