osu file format v14

[General]
AudioFilename: audio.mp3
AudioLeadIn: 0
PreviewTime: 17191
Countdown: 0
SampleSet: Soft
StackLeniency: 0.3
Mode: 0
LetterboxInBreaks: 0
EpilepsyWarning: 1
WidescreenStoryboard: 1

[Editor]
Bookmarks: 2361,17941,40266,62592,81682
DistanceSpacing: 1.2
BeatDivisor: 4
GridSize: 4
TimelineZoom: 1

[Metadata]
Title:Follow The Wind
TitleUnicode:Follow The Wind
Artist:July
ArtistUnicode:줄라이
Creator:Mako Sakata
Version:Normal
Source:
Tags:Piano 이동훈 Digitalrecord New Age Imakuri -Kyu
BeatmapID:1065199
BeatmapSetID:498792

[Difficulty]
HPDrainRate:4
CircleSize:3.5
OverallDifficulty:4
ApproachRate:4
SliderMultiplier:1.4
SliderTickRate:1

[Events]
//Background and Video events
0,0,"55775705_p0.jpg",0,0
//Break Periods
//Storyboard Layer 0 (Background)
//Storyboard Layer 1 (Fail)
//Storyboard Layer 2 (Pass)
//Storyboard Layer 3 (Foreground)
//Storyboard Sound Samples

[TimingPoints]
1473,888.888888888889,4,2,1,30,1,0
2361,888.888888888889,4,2,1,30,1,0
5916,882.352941176471,4,2,1,30,1,0
8563,909.090909090909,4,2,1,30,1,0
9472,888.888888888889,4,2,1,30,1,0
13027,882.352941176471,4,2,1,30,1,0
14791,1200,4,2,1,30,1,0
15091,-100,4,2,1,32,0,0
15691,-100,4,2,1,34,0,0
16291,-100,4,2,1,36,0,0
16891,-100,4,2,1,38,0,0
17191,750,4,2,1,40,1,0
17941,697.674418604651,4,2,1,50,1,0
62592,681.818181818182,4,2,1,60,1,1
81682,697.674418604651,4,2,1,50,1,0

[Colours]
Combo1 : 220,220,220
Combo2 : 255,213,128
Combo3 : 242,121,97
Combo4 : 255,140,179
Combo5 : 187,103,229
Combo6 : 140,236,255
Combo7 : 145,229,103
Combo8 : 160,160,160
SliderBorder : 65,240,201
SliderTrackOverride : 0,0,0

[HitObjects]
224,128,1473,102,0,P|238:159|236:194,1,70,2|0,0:0|0:0,0:0:0:0:
172,252,2361,6,0,L|311:240,2,140,2|0|2,0:0|0:0|0:0,0:0:0:0:
20,180,5027,2,0,P|12:148|24:108,1,70,2|0,0:0|0:0,0:0:0:0:
100,148,5916,102,0,P|164:164|224:128,1,140,2|2,0:0|0:0,0:0:0:0:
232,44,7239,1,0,0:0:0:0:
152,76,7680,1,2,0:0:0:0:
152,240,8563,2,0,L|152:312,1,70,2|0,0:0|0:0,0:0:0:0:
236,300,9472,6,0,P|296:326|361:301,1,140,2|0,0:0|0:0,0:0:0:0:
236,192,11249,2,0,P|299:166|361:193,1,140,2|0,0:0|0:0,0:0:0:0:
468,324,13027,102,0,B|456:276|456:276|504:192|456:112|456:112|468:56,1,280,2|0,0:0|0:0,0:0:0:0:
256,192,15091,12,2,17191,0:0:0:0:
350,194,17941,22,0,P|287:167|224:192,1,140,2|8,1:2|0:0,0:0:0:0:
180,264,18987,1,2,0:0:0:0:
138,268,19161,1,0,1:0:0:0:
96,272,19336,2,0,L|88:132,1,140,2|8,1:2|0:0,0:0:0:0:
123,56,20382,1,2,0:0:0:0:
200,88,20731,6,0,P|233:96|266:85,1,70,0|2,1:0|0:0,0:0:0:0:
336,36,21429,1,8,0:0:0:0:
400,92,21778,1,2,0:0:0:0:
441,90,21952,1,8,1:2:0:0:
483,89,22127,2,0,L|491:229,1,140,2|8,1:2|0:0,0:0:0:0:
436,292,23173,1,2,0:3:0:0:
395,294,23347,1,0,0:0:0:0:
353,295,23522,6,0,L|345:155,1,140,2|8,1:2|0:0,0:0:0:0:
300,84,24568,1,2,0:0:0:0:
258,85,24742,1,0,1:0:0:0:
217,87,24917,2,0,P|185:72|151:78,2,70,2|2|8,1:2|1:2|0:0,0:0:0:0:
176,160,25964,1,2,0:0:0:0:
232,224,26313,6,0,L|225:293,1,70,0|2,1:0|1:2,0:0:0:0:
140,300,27010,2,0,L|151:195,1,105,8|0,0:0|1:0,0:0:0:0:
176,160,27708,2,0,P|184:126|176:92,1,70,0|0,1:0|1:0,0:0:0:0:
108,44,28406,1,10,0:0:0:0:
100,128,28754,1,2,0:3:0:0:
176,92,29103,6,0,L|316:100,1,140,2|8,1:2|0:0,0:0:0:0:
372,164,30150,1,2,0:0:0:0:
368,204,30324,1,0,1:0:0:0:
364,244,30499,2,0,L|224:236,1,140,2|8,1:2|0:0,0:0:0:0:
140,232,31545,1,2,0:0:0:0:
72,180,31894,6,0,P|64:146|74:112,1,70,0|2,1:0|0:0,0:0:0:0:
150,149,32592,1,8,0:0:0:0:
140,232,32941,1,2,0:0:0:0:
136,272,33115,1,8,0:0:0:0:
132,312,33289,2,0,P|198:296|250:338,1,140,2|8,1:2|0:0,0:0:0:0:
320,292,34336,1,2,0:3:0:0:
360,288,34510,1,0,0:0:0:0:
400,284,34685,38,0,L|392:144,1,140,2|8,1:2|0:0,0:0:0:0:
388,60,35731,1,2,0:0:0:0:
344,64,35906,1,0,1:0:0:0:
304,68,36080,2,0,P|269:59|237:73,2,70,2|2|8,1:2|1:2|0:0,0:0:0:0:
276,148,37127,1,2,0:0:0:0:
248,228,37475,6,0,P|281:236|313:223,1,70,2|0,1:2|1:0,0:0:0:0:
276,148,38173,2,0,P|225:144|183:174,1,105,8|0,0:0|1:0,0:0:0:0:
161,209,38871,2,0,L|169:281,1,70,0|0,1:0|1:0,0:0:0:0:
117,345,39568,1,10,0:0:0:0:
37,317,39917,1,2,0:3:0:0:
60,236,40266,6,0,L|45:96,1,140,2|8,1:2|0:0,0:0:0:0:
108,40,41313,1,2,0:0:0:0:
148,52,41487,1,0,1:0:0:0:
188,60,41661,2,0,L|328:52,1,140,2|8,1:2|0:0,0:0:0:0:
354,132,42708,1,2,0:0:0:0:
433,104,43057,6,0,P|467:101|499:114,1,70,0|2,1:0|0:0,0:0:0:0:
453,185,43754,1,8,0:0:0:0:
470,267,44104,1,2,0:0:0:0:
466,307,44278,1,8,1:2:0:0:
462,347,44452,2,0,P|397:320|328:323,1,140,2|8,1:2|0:0,0:0:0:0:
246,341,45499,1,2,0:3:0:0:
206,345,45673,1,0,0:0:0:0:
166,349,45847,6,0,P|96:351|32:325,1,140,2|8,1:2|0:0,0:0:0:0:
62,245,46894,1,2,0:0:0:0:
70,205,47068,1,0,1:0:0:0:
78,165,47243,2,0,L|72:95,2,70,2|2|8,1:2|1:2|0:0,0:0:0:0:
158,193,48289,1,2,0:0:0:0:
238,221,48638,6,0,L|230:290,1,70,0|2,1:0|1:2,0:0:0:0:
309,318,49336,2,0,L|321:213,1,105,8|0,0:0|1:0,0:0:0:0:
360,195,50034,2,0,P|393:205|427:200,1,70,0|0,1:0|1:0,0:0:0:0:
484,138,50731,1,10,0:0:0:0:
401,120,51080,1,2,0:3:0:0:
427,200,51429,38,0,L|419:340,1,140,2|8,1:2|0:0,0:0:0:0:
338,317,52475,1,2,0:0:0:0:
297,319,52649,1,0,1:0:0:0:
255,320,52824,2,0,L|247:180,1,140,2|8,1:2|0:0,0:0:0:0:
282,103,53871,1,2,0:0:0:0:
315,25,54220,6,0,P|281:17|247:27,1,70,0|2,1:0|0:0,0:0:0:0:
165,41,54918,1,8,0:0:0:0:
162,125,55266,1,2,0:0:0:0:
178,165,55441,1,8,0:0:0:0:
198,201,55615,2,0,P|200:271|174:335,1,140,2|8,1:2|0:0,0:0:0:0:
98,369,56661,1,2,0:3:0:0:
82,329,56836,1,0,0:0:0:0:
62,293,57010,6,0,P|60:223|86:159,1,140,2|8,1:2|0:0,0:0:0:0:
162,125,58057,1,2,0:0:0:0:
202,129,58231,1,0,1:0:0:0:
246,133,58406,2,0,L|254:63,2,70,2|2|8,1:2|1:2|0:0,0:0:0:0:
310,189,59452,1,2,0:0:0:0:
386,153,59801,6,0,P|420:145|454:155,1,70,2|0,1:2|1:0,0:0:0:0:
453,154,61196,37,0,1:0:0:0:
445,238,61545,2,0,L|452:307,1,70,0|10,1:0|0:0,0:0:0:0:
387,361,62243,1,2,0:3:0:0:
311,319,62592,86,0,P|277:316|245:329,1,70,2|0,1:2|0:0,0:0:0:0:
171,371,63273,2,0,L|66:366,1,105,8|0,0:0|1:2,0:0:0:0:
41,332,63955,2,0,P|38:298|51:266,1,70,2|0,1:2|1:0,0:0:0:0:
70,183,64637,1,8,0:0:0:0:
39,104,64978,1,2,0:0:0:0:
79,99,65148,1,0,0:0:0:0:
119,113,65319,6,0,P|186:126|244:92,1,140,2|10,1:2|0:0,0:0:0:0:
318,133,66342,1,2,0:0:0:0:
359,129,66512,1,8,0:0:0:0:
401,125,66682,2,0,L|408:194,2,70,2|0|8,1:2|1:0|0:0,0:0:0:0:
465,70,67705,1,2,0:3:0:0:
510,140,68046,38,0,L|496:279,1,140,2|8,1:2|0:0,0:0:0:0:
486,363,69069,1,2,0:0:0:0:
419,312,69410,2,0,P|385:309|353:322,2,70,2|0|8,1:2|1:0|0:0,0:0:0:0:
496,279,70432,1,2,0:0:0:0:
427,226,70773,6,0,P|358:229|294:257,1,140,2|8,1:2|0:0,0:0:0:0:
227,308,71796,1,2,0:0:0:0:
165,251,72137,1,0,1:0:0:0:
165,209,72307,1,8,0:0:0:0:
179,169,72478,2,0,P|182:135|169:103,1,70,0|10,1:0|0:0,0:0:0:0:
110,41,73160,1,2,0:3:0:0:
75,117,73501,6,0,P|72:151|85:183,1,70,2|0,1:2|0:0,0:0:0:0:
37,252,74182,2,0,L|48:356,1,105,8|0,0:0|1:0,0:0:0:0:
89,366,74864,2,0,P|123:369|155:356,1,70,2|0,1:2|1:0,0:0:0:0:
216,297,75546,1,8,0:0:0:0:
296,322,75887,1,2,0:0:0:0:
337,318,76057,1,0,0:0:0:0:
379,314,76228,6,0,L|365:174,1,140,2|10,1:2|0:0,0:0:0:0:
324,96,77251,1,2,0:0:0:0:
365,88,77421,1,8,0:0:0:0:
405,100,77591,2,0,L|412:31,2,70,2|0|8,1:2|1:0|0:0,0:0:0:0:
365,174,78614,1,2,0:3:0:0:
280,174,78955,6,0,P|217:149|155:177,1,140,2|8,1:2|0:0,0:0:0:0:
219,231,79978,1,2,0:0:0:0:
158,288,80319,2,0,L|165:357,2,70,2|0|8,1:2|1:0|0:0,0:0:0:0:
94,232,81342,1,2,0:0:0:0:
154,177,81682,5,2,1:2:0:0:
256,192,81856,12,2,84472,1:2:0:0:
