osu file format v5

[General]
AudioFilename: 09 Until I Stay Remix.mp3
AudioLeadIn: 0
PreviewTime: -1
Countdown: 1
SampleSet: Soft
StackLeniency: 0.7
Mode: 0
LetterboxInBreaks: 1

[Editor]
DistanceSpacing: 1
BeatDivisor: 4
GridSize: 8

[Metadata]
Title:Until I Stay Remix
Artist:Jully Black
Creator:osumike
Version:Hard
Source:
Tags:

[Difficulty]
HPDrainRate:4
CircleSize:4
OverallDifficulty:4
SliderMultiplier:1.4
SliderTickRate:2

[Events]
//Background and Video events
0,0,"background.PNG"
//Break Periods
2,44204,45430
2,51204,53310
2,96204,98430
2,100330,102430
2,104330,106430
2,108330,111430
//Storyboard Layer 0 (Background)
//Storyboard Layer 1 (Fail)
//Storyboard Layer 2 (Pass)
//Storyboard Layer 3 (Foreground)
//Storyboard Sound Samples
//Background Colour Transformations
3,100,163,162,255

[TimingPoints]
2130.63813044395,500,4,2,0,100,1,0
15984,-100,4,1,0,100,0,0
24498,-100,4,2,0,100,0,0
26161,-100,4,2,0,100,0,1
28161,-100,4,1,0,100,0,0
39856,-100,4,2,0,100,0,0
45704,-100,4,1,0,100,0,0
54272,-100,4,2,0,100,0,0
55529,-100,4,1,0,100,0,0
144005,-100,4,1,0,100,0,1

[HitObjects]
98,158,8130,2,0,B|237:111|239:111,1,140
296,112,8880,1,4
424,160,9380,1,0
416,232,9630,1,0
408,304,9880,2,0,B|256:375|257:330|253:328,1,140
128,336,10880,2,0,B|64:272|64:208,1,140
64,144,11630,1,8
192,80,12130,6,0,B|352:48|352:48,1,140
368,112,12880,1,0
232,144,13380,1,0
344,224,13880,2,0,B|280:224|216:192|120:160,1,210
176,104,14880,2,0,B|240:40,4,70
112,128,16130,5,0
216,128,16505,1,0
248,128,16630,1,0
280,128,16755,1,0
312,128,16880,1,4
440,176,17380,5,0
336,272,17880,1,0
240,176,18380,1,0
168,296,18880,1,0
80,184,19380,1,0
80,112,19630,1,8
184,112,20005,6,0,B|216:80|216:80,1,35
280,88,20380,2,0,B|280:184,1,70
240,216,20880,1,0
304,216,21130,1,0
360,176,21380,1,0
416,216,21630,1,0
352,240,21880,1,0
328,264,22005,1,4
352,264,22630,5,0
424,264,22880,1,0
424,232,23005,1,4
376,64,23630,5,0
304,80,23880,1,0
288,112,24005,1,4
112,96,24630,5,0
112,168,24880,1,0
120,200,25005,1,0
288,248,25630,5,0
216,248,25880,1,0
184,248,26005,1,0
208,144,26380,5,0
256,192,26630,5,0
304,240,26880,5,0
256,192,27005,12,0,28130
136,104,28505,6,8,B|168:136,3,35,8|8|8|12
160,272,29380,5,0
232,272,29630,1,0
304,272,29880,1,2
224,152,30380,1,2
112,64,30880,1,2
248,72,31380,1,2
120,192,32005,6,0,B|152:160,1,35
248,168,32505,1,8
280,168,32630,1,8
256,192,32755,1,8
288,192,32880,1,12
424,192,33380,1,0
280,184,33880,2,2,B|152:120|56:184,1,210
8,144,34880,2,2,B|72:80|136:112,1,140
200,104,35630,2,0,B|232:72,3,35,0|0|0|0
256,96,36130,5,0
328,168,36505,2,8,B|296:200,1,35
280,168,36755,2,0,B|248:200,1,35,8|12
112,192,37380,1,0
112,48,37880,1,2
232,120,38380,1,2
360,64,38880,2,2,B|424:96|360:192,1,140
304,224,39630,1,8
224,160,40005,6,0,B|160:160,1,35
120,160,40380,1,0
144,96,40630,2,0,B|240:96,1,70
280,96,41130,1,0
280,168,41380,1,0
224,216,41630,2,0,B|192:152|192:152|224:120,1,105
56,192,42630,1,0
192,192,43130,2,0,B|224:160,4,35
256,168,43880,2,0,B|216:209,1,35
160,128,46630,6,0,B|224:128,3,35
195,128,47255,2,0,B|256:128,1,35
128,96,48630,5,0
128,160,48880,2,0,B|192:160,1,35,0|4
328,96,49630,1,0
328,168,49880,2,0,B|264:168,1,35,0|4
304,344,50630,2,0,B|240:312|240:312|208:344,1,105,0|4
128,272,54630,6,0,B|128:160,1,105
128,96,55255,2,0,B|128:38,1,35
128,64,55630,6,0,B|192:64,4,35
192,88,56380,1,0
192,160,56630,1,0
192,232,56880,1,0
264,232,57130,1,0
264,304,57380,1,8
320,264,57630,1,8
376,216,57880,1,8
424,168,58130,1,4
256,192,58380,12,0,59630
128,96,59880,6,0,B|224:96,1,70
80,168,60630,1,8
128,224,60880,2,0,B|208:224,1,70
328,168,61630,1,8
200,120,61880,5,0
136,80,62130,2,0,B|72:176|136:272,1,210
192,320,63130,1,8
280,320,63443,1,8
328,320,63630,1,8
328,232,63943,5,0
280,208,64131,1,0
136,208,64630,2,0,B|72:144|72:144|72:208,1,140,8|8
168,288,65630,1,4
232,256,65880,5,0
264,256,66005,1,0
296,256,66130,2,0,B|360:160|360:160|296:128,1,210
248,144,67005,1,0
256,192,67130,12,0,67880
256,128,68130,5,0
112,128,68630,1,8
176,152,68880,2,0,B|176:248,1,70
312,224,69630,1,8
376,200,69880,5,0
304,192,70130,2,0,B|144:192,1,140,0|8
160,128,70880,1,0
192,128,71005,1,0
192,264,71505,1,0
216,240,71630,1,8
184,104,72131,6,0,B|152:136|152:136|184:168|184:168|184:168,8,70,0|0|0|0|0|0|0|0|4
256,192,76130,12,0,80130
288,192,80505,6,8,B|224:192,3,35,8|8|8|12
160,88,81380,1,8
160,160,81630,1,8
104,200,81880,6,2,B|168:264|232:200,1,140
368,216,82880,2,2,B|432:280|496:216,1,140
456,160,83630,1,8
336,232,84130,5,0
336,128,84505,2,8,B|304:160,1,35
280,160,84755,2,8,B|241:136,1,35,8|12
112,144,85380,1,0
232,216,85880,1,0
256,192,87130,12,0,88130
288,128,88505,6,8,B|256:160,1,35,8|8
288,176,88755,2,8,B|320:160,1,35,8|12
192,88,89380,2,2,B|128:152|192:216,1,140
328,224,90380,2,2,B|392:160|328:96,1,140
208,160,91380,1,2
280,160,91630,1,8
256,192,92130,12,0,94005
192,96,94630,6,2,B|160:160|192:224,1,105
320,96,95630,2,2,B|352:160|320:224,1,105,2|6
352,32,99630,6,0,B|288:32|288:160,1,140
96,96,103630,6,0,B|160:96|160:224,1,140
352,160,107630,6,0,B|288:160|288:288,1,140
224,160,112630,6,0,B|288:96|288:96,1,70
304,120,113005,1,0
128,120,113630,2,0,B|79:170,1,70
112,168,114005,1,0
280,136,114630,2,8,B|312:168|312:168|344:136|344:136|376:168,1,105,8|12
184,128,116630,6,2,B|152:160|152:160|184:192|184:192|152:224,1,105
328,120,117630,2,8,B|296:152|296:152|328:184|328:184|296:216,1,105
240,40,118630,2,2,B|208:72|208:72|240:104|240:104|208:136,1,105,2|6
224,288,120630,6,2,B|256:256|256:256|288:288|288:288|320:256,1,105,0|2
136,200,121630,2,2,B|168:168|168:168|200:200|200:200|232:168,1,105,0|2
336,64,122630,2,2,B|368:32|368:32|400:64|400:64|432:32,1,105,0|6
248,120,123630,6,0,B|216:88,4,35,0|0|0|0|4
320,120,124380,1,0
320,192,124630,1,0
248,192,124880,1,0
192,152,125130,1,0
128,120,125380,5,8
128,192,125630,5,8
128,264,125880,5,8
200,224,126130,6,2,B|232:160|328:160,2,140
144,264,127380,1,2
200,304,127630,1,0
256,344,127880,5,0
328,344,128130,2,8,B|392:280|392:280,2,70,8|12|12
256,320,128880,1,0
192,288,129130,2,0,B|288:192|288:160,1,140,0|0
296,112,129880,5,0
224,104,130130,2,0,B|160:136,1,70
200,168,130567,1,0
200,240,130818,1,0
200,312,131067,1,8
304,312,131442,1,8
304,280,131567,1,8
304,176,131942,6,0,B|272:208|304:240,1,70
408,248,132568,2,2,B|440:184|408:152,1,87.5,2|2
344,152,133130,1,2
392,32,133880,5,0
360,32,134005,1,0
328,16,134130,2,2,B|264:48|360:112|360:112|328:176|296:176|264:144|232:112,1,280
328,176,135505,1,2
424,136,135880,5,8
352,128,136130,2,2,B|288:192|352:256,1,140,6|2
280,248,136880,1,8
232,200,137130,2,2,B|301:141|237:77,1,140
168,96,137880,5,0
136,160,138130,2,0,B|168:224,1,70
240,224,138630,2,0,B|304:288|304:288|336:224,1,140,0|8
376,152,139505,1,8
376,120,139630,1,12
256,192,140130,6,0,B|192:128,1,70
256,192,140630,6,0,B|320:128,1,70
256,192,141130,6,0,B|192:256,1,70
256,192,141630,6,0,B|320:256,1,70
240,272,142130,6,0,B|176:208|176:176,1,140,0|0
120,192,142880,5,8
192,192,143130,5,8
224,192,143255,5,8
256,192,143380,5,8
256,192,144130,5,4
