osu file format v9

[General]
AudioFilename: 'My First Hardcore Song' by 8yr old Juliet.mp3
AudioLeadIn: 1996
PreviewTime: 11031
Countdown: 0
SampleSet: Normal
StackLeniency: 0.7
Mode: 1
LetterboxInBreaks: 0

[Editor]
DistanceSpacing: 0.9
BeatDivisor: 4
GridSize: 8

[Metadata]
Title:My First Hardcore Song
Artist:Juliet
Creator:Zorlok_
Version:My First Drums
Source:
Tags:wowshakhov Garven kids youtube meme

[Difficulty]
HPDrainRate:5
CircleSize:3
OverallDifficulty:5
ApproachRate:5
SliderMultiplier:1.4
SliderTickRate:2

[Events]
//Background and Video events
0,0,"Taiko BG.png"
//Break Periods
//Storyboard Layer 0 (Background)
//Storyboard Layer 1 (Fail)
//Storyboard Layer 2 (Pass)
//Storyboard Layer 3 (Foreground)
//Storyboard Sound Samples
//Background Colour Transformations
3,100,110,100,255

[TimingPoints]
387,387.096774193548,4,1,0,70,1,0
12580,-100,4,1,0,70,0,1
25161,-100,4,1,0,70,0,0
37548,-100,4,1,0,70,0,1
49935,-100,4,1,0,70,0,0

[Colours]
Combo1 : 177,120,139
Combo2 : 86,91,184
Combo3 : 188,188,84
Combo4 : 132,171,124

[HitObjects]
256,192,0,1,8
256,192,193,1,4
256,192,774,1,4
256,192,1548,1,4
256,192,2322,1,4
256,192,3096,1,8
256,192,3290,1,4
256,192,3870,1,4
256,192,4645,1,8
256,192,4838,1,4
256,192,5419,1,4
256,192,6193,1,8
256,192,6386,1,4
256,192,6967,1,0
256,192,7354,1,12
256,192,7741,1,0
256,192,8128,1,12
256,192,8516,1,0
256,192,8903,1,12
256,192,9290,1,8
256,192,9483,1,4
256,192,10064,1,0
256,192,10451,1,8
256,192,10838,1,8
256,192,11032,1,4
256,192,11612,1,8
256,192,11806,1,0
256,192,11999,1,0
256,192,12193,1,8
256,192,12290,1,8
256,192,12386,1,8
256,192,12580,1,0
256,192,12774,1,0
256,192,12967,1,0
256,192,13161,1,8
256,192,13354,1,0
256,192,13548,1,8
256,192,13741,1,0
256,192,13935,1,8
256,192,14128,1,0
256,192,14225,1,0
256,192,14322,1,8
256,192,14419,1,0
256,192,14516,1,0
256,192,14709,1,8
256,192,14903,1,0
256,192,15096,1,8
256,192,15193,1,8
256,192,15290,1,0
256,192,15483,1,8
256,192,15580,1,8
256,192,15677,1,0
256,192,15870,1,8
256,192,16064,1,0
256,192,16161,1,8
256,192,16257,1,8
256,192,16451,1,0
256,192,16645,1,8
256,192,16838,1,8
256,192,16935,1,8
256,192,17032,1,8
256,192,17225,1,0
256,192,17419,1,8
256,192,17612,1,0
256,192,17709,1,0
256,192,17806,1,8
256,192,17903,1,0
256,192,17999,1,8
256,192,18193,1,0
256,192,18386,1,0
256,192,18580,1,8
256,192,18774,1,8
256,192,18870,1,8
256,192,18967,1,8
256,192,19161,1,0
256,192,19354,1,0
256,192,19451,1,0
256,192,19548,1,8
256,192,19645,1,8
256,192,19741,1,0
256,192,19838,1,0
256,192,19935,1,8
256,192,20128,1,8
256,192,20322,1,0
272,136,20516,2,0,B|256:-32,1,140
256,192,21096,1,0
256,192,21290,1,8
256,192,21483,1,0
256,192,21580,1,8
256,192,21677,1,0
256,192,21774,1,8
256,192,21870,1,8
256,192,22064,1,0
256,192,22161,1,8
256,192,22257,1,0
256,192,22451,1,8
256,192,22548,1,0
256,192,22645,1,8
256,192,22838,1,0
256,192,22935,1,8
256,192,23032,1,0
256,192,23225,1,0
256,192,23322,1,0
256,192,23419,1,8
256,192,23516,1,8
256,192,23612,1,8
256,192,23709,1,0
256,192,23806,1,8
256,192,23999,1,0
256,192,24193,1,8
256,192,24386,1,0
256,192,24580,1,8
256,192,24774,1,0
256,192,24870,1,0
256,192,24967,1,8
256,192,25161,1,4
256,192,25354,1,4
256,192,25548,1,4
256,192,26709,12,0,28064
256,192,28257,5,4
256,192,28451,1,4
256,192,29806,1,8
256,192,30386,1,0
256,192,30580,1,8
256,192,31354,1,4
256,192,31548,1,4
256,192,31741,1,4
256,192,32128,12,0,34257
256,192,34451,5,4
256,192,34645,1,4
112,192,36774,2,0,B|328:192,1,210
256,64,37548,1,8
256,64,37645,1,0
256,64,37741,1,8
256,64,37838,1,0
256,64,37935,1,8
256,192,38322,1,4
256,192,38516,1,4
256,192,38709,1,4
256,192,38903,1,4
384,192,39096,1,4
384,192,39870,1,0
384,192,39967,1,0
384,192,40064,1,8
384,192,40161,1,8
384,192,40257,1,0
384,192,40645,1,12
384,192,40838,1,12
384,192,41032,1,12
384,192,41419,1,8
384,192,41516,1,8
384,192,41612,1,0
384,192,41709,1,0
384,192,41806,1,8
384,192,41903,1,8
384,192,41999,1,0
384,192,42193,1,4
384,192,42967,1,12
384,192,43257,1,12
384,192,43548,1,12
384,192,43741,1,8
384,192,43838,1,0
384,192,43935,1,8
384,192,44032,1,0
384,192,44128,1,8
384,192,44516,1,4
384,192,44709,1,4
384,192,44903,1,4
384,192,45096,1,4
384,192,45290,1,4
384,192,46064,1,6
384,192,46257,1,6
384,192,46451,1,6
384,192,46838,1,4
384,192,47032,1,4
384,192,47225,1,4
384,192,47612,1,0
384,192,47709,1,0
384,192,47806,1,8
384,192,47903,1,8
384,192,47999,1,0
384,192,48096,1,0
384,192,48193,1,8
384,192,48290,1,8
384,192,48386,1,0
384,192,49161,1,4
384,192,49451,1,12
384,192,49741,1,4
328,224,49935,1,0
