osu file format v6

[General]
AudioFilename: This Machine.mp3
AudioLeadIn: 0
PreviewTime: -1
Countdown: 1
SampleSet: Normal
StackLeniency: 0.7
Mode: 0
LetterboxInBreaks: 1

[Editor]
DistanceSpacing: 0.800000011920929
BeatDivisor: 6
GridSize: 16

[Metadata]
Title:This Machine
Artist:Julien-K
Creator:TraceTheKriken
Version:Normal
Source:
Tags:Julien-K This Machine Shadow Rouge E-123 Omega Eggman

[Difficulty]
HPDrainRate:6
CircleSize:5
OverallDifficulty:6
SliderMultiplier:1.4
SliderTickRate:1

[Events]
//Background and Video events
//Break Periods
2,17138,43086
2,103569,107729
2,178206,190492
//Storyboard Layer 0 (Background)
//Storyboard Layer 1 (Fail)
//Storyboard Layer 2 (Pass)
//Storyboard Layer 3 (Foreground)
//Storyboard Sound Samples
//Background Colour Transformations
3,100,163,162,255

[TimingPoints]
-103.459804187137,431.433924769341,4,1,0,100,1,0

[Colours]
Combo1 : 240,0,0
Combo2 : 0,0,0
Combo3 : 255,0,255

[HitObjects]
256,192,3491,12,2,16938
112,64,44406,6,2,C|192:64|240:96|272:64|304:112|352:80|368:128|336:176|256:176|176:144|176:176|176:208|192:240|240:240|240:304|272:304|304:320|336:304,1,910
80,192,47785,1,8
112,160,48001,1,8
144,192,48432,1,8
176,160,48864,1,8
208,192,49295,1,8
240,160,49727,1,8
272,192,50158,1,8
304,160,50590,1,8
336,192,51093,1,8
368,160,52962,1,2
400,192,53322,1,2
432,160,54070,1,8
32,112,56342,2,8,C|448:48|448:336|64:336|80:112|432:32,1,1726.66666666667
400,96,62885,1,2
368,144,63317,1,2
336,192,63748,1,2
256,192,64539,12,6,69860
256,192,70651,5,8
256,192,71083,1,2
256,192,71514,1,8
192,208,73312,2,6,C|224:128|400:192|208:272,1,490
256,192,75900,12,10,79568
32,192,80071,6,12,C|112:112|192:240|288:80|368:288|432:80|480:192|432:288|352:80|256:256|176:64|96:288,1,2146.66666666667
256,192,87261,12,4,89778
256,192,90281,12,4,93373
48,272,93877,6,2,L|48:224|64:192|160:128|272:112|320:208|256:272|128:320|240:160|384:112|432:128|448:224|400:288|320:304|272:272|224:208|160:160|144:64|80:112|96:176|112:224|176:272|256:336|320:336|400:240|368:160|336:64,1,2356.66666666667
256,192,101571,12,14,103369
32,192,109049,5,2
80,192,109552,1,2
128,192,110127,1,2
176,192,110559,1,2
224,192,111566,2,2,L|272:112|240:160,5,140
480,176,114442,2,8,L|400:96|352:224|256:96,2,396.666666666667
256,192,118037,12,12,121129
176,192,122567,6,8,L|267:192,5,70,8|8|8|8|8|8
256,192,124293,12,0,125659
64,96,126162,6,0,L|352:96|352:208|144:208|144:96|384:96|384:160|112:160|112:96|448:96,1,1680
256,192,131771,12,10,137883
208,240,138314,6,10,B|256:144|336:192|272:224|208:208|256:160|288:160|320:192|336:208|336:224|272:224|256:224|240:208|224:192|208:176|208:176|240:144|256:144|336:160|336:192|336:192|320:240|288:240|240:224|240:192|208:176|208:160|256:144|272:144|288:144|320:176|352:192|208:240,1,723.333333333333
80,192,141047,5,8
96,192,141478,1,8
112,192,142197,1,8
128,192,142413,1,8
144,192,142773,1,8
160,192,143204,1,8
176,192,143707,1,8
256,192,144858,12,12,151545
32,32,152048,5,4
64,64,152408,1,4
96,96,153055,1,4
128,128,153487,1,4
160,160,153846,1,4
192,192,154277,1,4
224,224,155787,1,4
256,256,156003,1,4
288,288,156435,1,4
320,320,156866,1,4
352,352,157298,1,4
176,208,158879,2,12,B|336:208,6,140
256,192,162834,12,6,165135
32,352,166070,6,2,L|32:32|480:32|480:352|16:352,1,1540
256,192,171031,12,4,174483
256,192,175058,12,4,178006
32,32,191812,5,10
80,32,192459,1,10
128,32,192819,1,10
176,32,193250,1,10
224,32,195479,1,10
272,32,195695,1,10
320,32,195911,1,10
368,32,196127,1,10
416,32,196558,1,10
464,32,196748,1,10
480,80,197133,1,10
480,128,197421,1,10
480,176,197637,1,10
480,224,197996,1,10
400,320,200369,2,10,L|368:304|400:272,8,70
32,192,204827,5,12
64,192,205115,1,12
96,192,205330,1,12
128,192,205546,1,12
160,192,205762,1,12
192,192,205978,1,12
224,192,206841,1,12
256,192,207056,1,12
288,192,207272,1,12
320,192,208135,1,12
352,192,208351,1,12
384,192,208592,1,12
416,192,208854,1,12
448,192,209047,1,12
480,192,209277,1,12
256,192,210508,1,12
256,192,210723,1,12
256,192,210939,1,12
256,192,211371,1,12
256,192,211802,1,12
256,192,213743,12,2,220287
224,144,220718,6,8,L|272:240|288:272,5,140
256,192,223451,12,8,227046
256,192,227477,5,10
256,192,227909,1,10
256,192,228412,1,10
256,192,228844,1,10
256,192,229275,1,10
256,192,229707,1,10
256,192,231217,1,10
256,192,231648,1,10
256,192,231936,1,10
256,192,232295,1,10
256,192,232798,1,10
256,192,233230,1,10
256,192,233949,12,12,237760
176,192,238191,6,8,L|320:192,5,140
256,192,241068,1,10
256,192,241499,1,10
256,192,241930,1,10
256,192,242218,1,10
256,192,242578,1,10
256,192,243009,1,10
256,192,243440,1,10
256,192,244231,12,4,247755
